  0
SECTION
  2
HEADER
  9
$ACADVER
  1
AC1014
  9
$ACADMAINTVER
 70
     9
  9
$DWGCODEPAGE
  3
ANSI_932
  9
$INSBASE
 10
0.0
 20
0.0
 30
0.0
  9
$EXTMIN
 10
-85.32319331951839
 20
-458.4526346831728
 30
-0.0000000000000053
  9
$EXTMAX
 10
407.5617851740235
 20
181.6474627403631
 30
0.0000000000000099
  9
$LIMMIN
 10
-459.0
 20
-527.0
  9
$LIMMAX
 10
682.0
 20
313.0
  9
$ORTHOMODE
 70
     0
  9
$REGENMODE
 70
     1
  9
$FILLMODE
 70
     1
  9
$QTEXTMODE
 70
     0
  9
$MIRRTEXT
 70
     1
  9
$DRAGMODE
 70
     2
  9
$LTSCALE
 40
5.0
  9
$OSMODE
 70
    39
  9
$ATTMODE
 70
     1
  9
$TEXTSIZE
 40
5.0
  9
$TRACEWID
 40
0.05
  9
$TEXTSTYLE
  7
STANDARD1
  9
$CLAYER
  8
30
  9
$CELTYPE
  6
CONTINUOUS
  9
$CECOLOR
 62
   256
  9
$CELTSCALE
 40
1.0
  9
$DELOBJ
 70
     1
  9
$DISPSILH
 70
     0
  9
$DIMSCALE
 40
1.0
  9
$DIMASZ
 40
2.0
  9
$DIMEXO
 40
1.0
  9
$DIMDLI
 40
0.5
  9
$DIMRND
 40
0.0
  9
$DIMDLE
 40
0.0
  9
$DIMEXE
 40
0.5
  9
$DIMTP
 40
0.0
  9
$DIMTM
 40
0.0
  9
$DIMTXT
 40
4.0
  9
$DIMCEN
 40
0.09
  9
$DIMTSZ
 40
0.0
  9
$DIMTOL
 70
     0
  9
$DIMLIM
 70
     0
  9
$DIMTIH
 70
     0
  9
$DIMTOH
 70
     0
  9
$DIMSE1
 70
     0
  9
$DIMSE2
 70
     0
  9
$DIMTAD
 70
     3
  9
$DIMZIN
 70
    12
  9
$DIMBLK
  1
OPEN
  9
$DIMASO
 70
     1
  9
$DIMSHO
 70
     1
  9
$DIMPOST
  1

  9
$DIMAPOST
  1

  9
$DIMALT
 70
     0
  9
$DIMALTD
 70
     2
  9
$DIMALTF
 40
25.4
  9
$DIMLFAC
 40
1.0
  9
$DIMTOFL
 70
     0
  9
$DIMTVP
 40
0.0
  9
$DIMTIX
 70
     0
  9
$DIMSOXD
 70
     0
  9
$DIMSAH
 70
     0
  9
$DIMBLK1
  1

  9
$DIMBLK2
  1

  9
$DIMSTYLE
  2
STANDARD
  9
$DIMCLRD
 70
     0
  9
$DIMCLRE
 70
     0
  9
$DIMCLRT
 70
     0
  9
$DIMTFAC
 40
1.0
  9
$DIMGAP
 40
1.0
  9
$DIMJUST
 70
     0
  9
$DIMSD1
 70
     0
  9
$DIMSD2
 70
     0
  9
$DIMTOLJ
 70
     1
  9
$DIMTZIN
 70
     0
  9
$DIMALTZ
 70
     0
  9
$DIMALTTZ
 70
     0
  9
$DIMFIT
 70
     3
  9
$DIMUPT
 70
     0
  9
$DIMUNIT
 70
     2
  9
$DIMDEC
 70
     1
  9
$DIMTDEC
 70
     1
  9
$DIMALTU
 70
     2
  9
$DIMALTTD
 70
     2
  9
$DIMTXSTY
  7
STANDARD
  9
$DIMAUNIT
 70
     0
  9
$LUNITS
 70
     2
  9
$LUPREC
 70
     4
  9
$SKETCHINC
 40
0.1
  9
$FILLETRAD
 40
0.0
  9
$AUNITS
 70
     0
  9
$AUPREC
 70
     0
  9
$MENU
  1
.
  9
$ELEVATION
 40
0.0
  9
$PELEVATION
 40
0.0
  9
$THICKNESS
 40
0.0
  9
$LIMCHECK
 70
     0
  9
$BLIPMODE
 70
     0
  9
$CHAMFERA
 40
0.0
  9
$CHAMFERB
 40
0.0
  9
$CHAMFERC
 40
0.0
  9
$CHAMFERD
 40
0.0
  9
$SKPOLY
 70
     0
  9
$TDCREATE
 40
2452286.555658657
  9
$TDUPDATE
 40
2453635.740576713
  9
$TDINDWG
 40
1.2971885764
  9
$TDUSRTIMER
 40
1.2971885764
  9
$USRTIMER
 70
     1
  9
$ANGBASE
 50
0.0
  9
$ANGDIR
 70
     0
  9
$PDMODE
 70
     0
  9
$PDSIZE
 40
0.0
  9
$PLINEWID
 40
0.0
  9
$COORDS
 70
     1
  9
$SPLFRAME
 70
     0
  9
$SPLINETYPE
 70
     6
  9
$SPLINESEGS
 70
     8
  9
$ATTDIA
 70
     0
  9
$ATTREQ
 70
     1
  9
$HANDLING
 70
-16383
  9
$HANDSEED
  5
93D1
  9
$SURFTAB1
 70
     6
  9
$SURFTAB2
 70
     6
  9
$SURFTYPE
 70
     6
  9
$SURFU
 70
     6
  9
$SURFV
 70
     6
  9
$UCSNAME
  2

  9
$UCSORG
 10
0.0
 20
0.0
 30
0.0
  9
$UCSXDIR
 10
1.0
 20
0.0
 30
0.0
  9
$UCSYDIR
 10
0.0
 20
1.0
 30
0.0
  9
$PUCSNAME
  2

  9
$PUCSORG
 10
0.0
 20
0.0
 30
0.0
  9
$PUCSXDIR
 10
1.0
 20
0.0
 30
0.0
  9
$PUCSYDIR
 10
0.0
 20
1.0
 30
0.0
  9
$USERI1
 70
     0
  9
$USERI2
 70
     0
  9
$USERI3
 70
     0
  9
$USERI4
 70
     0
  9
$USERI5
 70
     0
  9
$USERR1
 40
0.0
  9
$USERR2
 40
0.0
  9
$USERR3
 40
0.0
  9
$USERR4
 40
0.0
  9
$USERR5
 40
0.0
  9
$WORLDVIEW
 70
     1
  9
$SHADEDGE
 70
     3
  9
$SHADEDIF
 70
    70
  9
$TILEMODE
 70
     1
  9
$MAXACTVP
 70
    48
  9
$PINSBASE
 10
0.0
 20
0.0
 30
0.0
  9
$PLIMCHECK
 70
     0
  9
$PEXTMIN
 10
4.273573370203961
 20
5.205246163471485
 30
0.0
  9
$PEXTMAX
 10
194.6100952986349
 20
283.0697008572913
 30
0.0
  9
$PLIMMIN
 10
-5.873748779296875
 20
-5.873749732971191
  9
$PLIMMAX
 10
204.0995788574218
 20
291.1369009017943
  9
$UNITMODE
 70
     0
  9
$VISRETAIN
 70
     1
  9
$PLINEGEN
 70
     0
  9
$PSLTSCALE
 70
     1
  9
$TREEDEPTH
 70
  3020
  9
$PICKSTYLE
 70
     1
  9
$CMLSTYLE
  2
STANDARD
  9
$CMLJUST
 70
     0
  9
$CMLSCALE
 40
1.0
  9
$PROXYGRAPHICS
 70
     1
  9
$MEASUREMENT
 70
     0
  0
ENDSEC
  0
SECTION
  2
CLASSES
  0
CLASS
  1
ACDBDICTIONARYWDFLT
  2
AcDbDictionaryWithDefault
  3
AutoCAD 2000
 90
        0
280
     0
281
     0
  0
CLASS
  1
ACDBPLACEHOLDER
  2
AcDbPlaceHolder
  3
AutoCAD 2000
 90
        0
280
     0
281
     0
  0
CLASS
  1
LAYOUT
  2
AcDbLayout
  3
AutoCAD 2000
 90
        0
280
     0
281
     0
  0
CLASS
  1
LONG_TRANSACTION
  2
AcDbLongTransaction
  3
AutoCAD 2000
 90
        0
280
     0
281
     0
  0
CLASS
  1
LWPOLYLINE
  2
AcDbPolyline
  3
AutoCAD 2000
 90
        0
280
     0
281
     1
  0
CLASS
  1
HATCH
  2
AcDbHatch
  3
AutoCAD 2000
 90
        0
280
     0
281
     1
  0
CLASS
  1
XRECORD
  2
AcDbXrecord
  3
AutoCAD 2000
 90
        0
280
     0
281
     0
  0
CLASS
  1
LONG_TRANSACTION
  2
AcDbLongTransaction
  3
AutoCAD 2000
 90
        0
280
     0
281
     0
  0
CLASS
  1
LWPOLYLINE
  2
AcDbPolyline
  3
AutoCAD 2000
 90
        0
280
     0
281
     1
  0
CLASS
  1
HATCH
  2
AcDbHatch
  3
AutoCAD 2000
 90
        0
280
     0
281
     1
  0
CLASS
  1
XRECORD
  2
AcDbXrecord
  3
AutoCAD 2000
 90
        0
280
     0
281
     0
  0
CLASS
  1
LONG_TRANSACTION
  2
AcDbLongTransaction
  3
AutoCAD 2000
 90
        0
280
     0
281
     0
  0
CLASS
  1
LWPOLYLINE
  2
AcDbPolyline
  3
AutoCAD 2000
 90
        0
280
     0
281
     1
  0
CLASS
  1
HATCH
  2
AcDbHatch
  3
AutoCAD 2000
 90
        0
280
     0
281
     1
  0
CLASS
  1
XRECORD
  2
AcDbXrecord
  3
AutoCAD 2000
 90
        0
280
     0
281
     0
  0
CLASS
  1
LONG_TRANSACTION
  2
AcDbLongTransaction
  3
AutoCAD 2000
 90
        0
280
     0
281
     0
  0
CLASS
  1
LWPOLYLINE
  2
AcDbPolyline
  3
AutoCAD 2000
 90
        0
280
     0
281
     1
  0
CLASS
  1
HATCH
  2
AcDbHatch
  3
AutoCAD 2000
 90
        0
280
     0
281
     1
  0
CLASS
  1
XRECORD
  2
AcDbXrecord
  3
AutoCAD 2000
 90
        0
280
     0
281
     0
  0
CLASS
  1
LONG_TRANSACTION
  2
AcDbLongTransaction
  3
AutoCAD 2000
 90
        0
280
     0
281
     0
  0
CLASS
  1
LWPOLYLINE
  2
AcDbPolyline
  3
AutoCAD 2000
 90
        0
280
     0
281
     1
  0
CLASS
  1
HATCH
  2
AcDbHatch
  3
AutoCAD 2000
 90
        0
280
     0
281
     1
  0
CLASS
  1
XRECORD
  2
AcDbXrecord
  3
AutoCAD 2000
 90
        0
280
     0
281
     0
  0
CLASS
  1
LONG_TRANSACTION
  2
AcDbLongTransaction
  3
AutoCAD 2000
 90
        0
280
     0
281
     0
  0
CLASS
  1
LWPOLYLINE
  2
AcDbPolyline
  3
AutoCAD 2000
 90
        0
280
     0
281
     1
  0
CLASS
  1
HATCH
  2
AcDbHatch
  3
AutoCAD 2000
 90
        0
280
     0
281
     1
  0
CLASS
  1
XRECORD
  2
AcDbXrecord
  3
AutoCAD 2000
 90
        0
280
     0
281
     0
  0
CLASS
  1
LONG_TRANSACTION
  2
AcDbLongTransaction
  3
AutoCAD 2000
 90
        0
280
     0
281
     0
  0
CLASS
  1
LWPOLYLINE
  2
AcDbPolyline
  3
AutoCAD 2000
 90
        0
280
     0
281
     1
  0
CLASS
  1
HATCH
  2
AcDbHatch
  3
AutoCAD 2000
 90
        0
280
     0
281
     1
  0
CLASS
  1
XRECORD
  2
AcDbXrecord
  3
AutoCAD 2000
 90
        0
280
     0
281
     0
  0
CLASS
  1
LONG_TRANSACTION
  2
AcDbLongTransaction
  3
AutoCAD 2000
 90
        0
280
     0
281
     0
  0
CLASS
  1
LWPOLYLINE
  2
AcDbPolyline
  3
AutoCAD 2000
 90
        0
280
     0
281
     1
  0
CLASS
  1
HATCH
  2
AcDbHatch
  3
AutoCAD 2000
 90
        0
280
     0
281
     1
  0
CLASS
  1
XRECORD
  2
AcDbXrecord
  3
AutoCAD 2000
 90
        0
280
     0
281
     0
  0
CLASS
  1
LONG_TRANSACTION
  2
AcDbLongTransaction
  3
AutoCAD 2000
 90
        0
280
     0
281
     0
  0
CLASS
  1
LWPOLYLINE
  2
AcDbPolyline
  3
AutoCAD 2000
 90
        0
280
     0
281
     1
  0
CLASS
  1
HATCH
  2
AcDbHatch
  3
AutoCAD 2000
 90
        0
280
     0
281
     1
  0
CLASS
  1
XRECORD
  2
AcDbXrecord
  3
AutoCAD 2000
 90
        0
280
     0
281
     0
  0
CLASS
  1
LONG_TRANSACTION
  2
AcDbLongTransaction
  3
AutoCAD 2000
 90
        0
280
     0
281
     0
  0
CLASS
  1
LWPOLYLINE
  2
AcDbPolyline
  3
AutoCAD 2000
 90
        0
280
     0
281
     1
  0
CLASS
  1
HATCH
  2
AcDbHatch
  3
AutoCAD 2000
 90
        0
280
     0
281
     1
  0
CLASS
  1
XRECORD
  2
AcDbXrecord
  3
AutoCAD 2000
 90
        0
280
     0
281
     0
  0
CLASS
  1
LONG_TRANSACTION
  2
AcDbLongTransaction
  3
AutoCAD 2000
 90
        0
280
     0
281
     0
  0
CLASS
  1
LWPOLYLINE
  2
AcDbPolyline
  3
AutoCAD 2000
 90
        0
280
     0
281
     1
  0
CLASS
  1
HATCH
  2
AcDbHatch
  3
AutoCAD 2000
 90
        0
280
     0
281
     1
  0
CLASS
  1
XRECORD
  2
AcDbXrecord
  3
AutoCAD 2000
 90
        0
280
     0
281
     0
  0
CLASS
  1
LONG_TRANSACTION
  2
AcDbLongTransaction
  3
AutoCAD 2000
 90
        0
280
     0
281
     0
  0
CLASS
  1
LWPOLYLINE
  2
AcDbPolyline
  3
AutoCAD 2000
 90
        0
280
     0
281
     1
  0
CLASS
  1
HATCH
  2
AcDbHatch
  3
AutoCAD 2000
 90
        0
280
     0
281
     1
  0
CLASS
  1
XRECORD
  2
AcDbXrecord
  3
AutoCAD 2000
 90
        0
280
     0
281
     0
  0
CLASS
  1
LONG_TRANSACTION
  2
AcDbLongTransaction
  3
AutoCAD 2000
 90
        0
280
     0
281
     0
  0
CLASS
  1
LWPOLYLINE
  2
AcDbPolyline
  3
AutoCAD 2000
 90
        0
280
     0
281
     1
  0
CLASS
  1
HATCH
  2
AcDbHatch
  3
AutoCAD 2000
 90
        0
280
     0
281
     1
  0
CLASS
  1
XRECORD
  2
AcDbXrecord
  3
AutoCAD 2000
 90
        0
280
     0
281
     0
  0
CLASS
  1
LONG_TRANSACTION
  2
AcDbLongTransaction
  3
AutoCAD 2000
 90
        0
280
     0
281
     0
  0
CLASS
  1
LWPOLYLINE
  2
AcDbPolyline
  3
AutoCAD 2000
 90
        0
280
     0
281
     1
  0
CLASS
  1
HATCH
  2
AcDbHatch
  3
AutoCAD 2000
 90
        0
280
     0
281
     1
  0
CLASS
  1
XRECORD
  2
AcDbXrecord
  3
AutoCAD 2000
 90
        0
280
     0
281
     0
  0
CLASS
  1
LONG_TRANSACTION
  2
AcDbLongTransaction
  3
AutoCAD 2000
 90
        0
280
     0
281
     0
  0
CLASS
  1
LWPOLYLINE
  2
AcDbPolyline
  3
AutoCAD 2000
 90
        0
280
     0
281
     1
  0
CLASS
  1
HATCH
  2
AcDbHatch
  3
AutoCAD 2000
 90
        0
280
     0
281
     1
  0
CLASS
  1
XRECORD
  2
AcDbXrecord
  3
AutoCAD 2000
 90
        0
280
     0
281
     0
  0
CLASS
  1
LONG_TRANSACTION
  2
AcDbLongTransaction
  3
AutoCAD 2000
 90
        0
280
     0
281
     0
  0
CLASS
  1
LWPOLYLINE
  2
AcDbPolyline
  3
AutoCAD 2000
 90
        0
280
     0
281
     1
  0
CLASS
  1
HATCH
  2
AcDbHatch
  3
AutoCAD 2000
 90
        0
280
     0
281
     1
  0
CLASS
  1
XRECORD
  2
AcDbXrecord
  3
AutoCAD 2000
 90
        0
280
     0
281
     0
  0
CLASS
  1
LONG_TRANSACTION
  2
AcDbLongTransaction
  3
AutoCAD 2000
 90
        0
280
     0
281
     0
  0
CLASS
  1
LWPOLYLINE
  2
AcDbPolyline
  3
AutoCAD 2000
 90
        0
280
     0
281
     1
  0
CLASS
  1
HATCH
  2
AcDbHatch
  3
AutoCAD 2000
 90
        0
280
     0
281
     1
  0
CLASS
  1
XRECORD
  2
AcDbXrecord
  3
AutoCAD 2000
 90
        0
280
     0
281
     0
  0
CLASS
  1
LONG_TRANSACTION
  2
AcDbLongTransaction
  3
AutoCAD 2000
 90
        0
280
     0
281
     0
  0
CLASS
  1
LWPOLYLINE
  2
AcDbPolyline
  3
AutoCAD 2000
 90
        0
280
     0
281
     1
  0
CLASS
  1
HATCH
  2
AcDbHatch
  3
AutoCAD 2000
 90
        0
280
     0
281
     1
  0
CLASS
  1
XRECORD
  2
AcDbXrecord
  3
AutoCAD 2000
 90
        0
280
     0
281
     0
  0
CLASS
  1
LONG_TRANSACTION
  2
AcDbLongTransaction
  3
AutoCAD 2000
 90
        0
280
     0
281
     0
  0
CLASS
  1
LWPOLYLINE
  2
AcDbPolyline
  3
AutoCAD 2000
 90
        0
280
     0
281
     1
  0
CLASS
  1
HATCH
  2
AcDbHatch
  3
AutoCAD 2000
 90
        0
280
     0
281
     1
  0
CLASS
  1
XRECORD
  2
AcDbXrecord
  3
AutoCAD 2000
 90
        0
280
     0
281
     0
  0
CLASS
  1
LONG_TRANSACTION
  2
AcDbLongTransaction
  3
AutoCAD 2000
 90
        0
280
     0
281
     0
  0
CLASS
  1
LWPOLYLINE
  2
AcDbPolyline
  3
AutoCAD 2000
 90
        0
280
     0
281
     1
  0
CLASS
  1
HATCH
  2
AcDbHatch
  3
AutoCAD 2000
 90
        0
280
     0
281
     1
  0
CLASS
  1
XRECORD
  2
AcDbXrecord
  3
AutoCAD 2000
 90
        0
280
     0
281
     0
  0
CLASS
  1
LONG_TRANSACTION
  2
AcDbLongTransaction
  3
AutoCAD 2000
 90
        0
280
     0
281
     0
  0
CLASS
  1
LWPOLYLINE
  2
AcDbPolyline
  3
AutoCAD 2000
 90
        0
280
     0
281
     1
  0
CLASS
  1
HATCH
  2
AcDbHatch
  3
AutoCAD 2000
 90
        0
280
     0
281
     1
  0
CLASS
  1
XRECORD
  2
AcDbXrecord
  3
AutoCAD 2000
 90
        0
280
     0
281
     0
  0
CLASS
  1
LONG_TRANSACTION
  2
AcDbLongTransaction
  3
AutoCAD 2000
 90
        0
280
     0
281
     0
  0
CLASS
  1
LWPOLYLINE
  2
AcDbPolyline
  3
AutoCAD 2000
 90
        0
280
     0
281
     1
  0
CLASS
  1
HATCH
  2
AcDbHatch
  3
AutoCAD 2000
 90
        0
280
     0
281
     1
  0
CLASS
  1
XRECORD
  2
AcDbXrecord
  3
AutoCAD 2000
 90
        0
280
     0
281
     0
  0
CLASS
  1
LONG_TRANSACTION
  2
AcDbLongTransaction
  3
AutoCAD 2000
 90
        0
280
     0
281
     0
  0
CLASS
  1
LWPOLYLINE
  2
AcDbPolyline
  3
AutoCAD 2000
 90
        0
280
     0
281
     1
  0
CLASS
  1
HATCH
  2
AcDbHatch
  3
AutoCAD 2000
 90
        0
280
     0
281
     1
  0
CLASS
  1
XRECORD
  2
AcDbXrecord
  3
AutoCAD 2000
 90
        0
280
     0
281
     0
  0
CLASS
  1
LONG_TRANSACTION
  2
AcDbLongTransaction
  3
AutoCAD 2000
 90
        0
280
     0
281
     0
  0
CLASS
  1
LWPOLYLINE
  2
AcDbPolyline
  3
AutoCAD 2000
 90
        0
280
     0
281
     1
  0
CLASS
  1
HATCH
  2
AcDbHatch
  3
AutoCAD 2000
 90
        0
280
     0
281
     1
  0
CLASS
  1
XRECORD
  2
AcDbXrecord
  3
AutoCAD 2000
 90
        0
280
     0
281
     0
  0
CLASS
  1
LONG_TRANSACTION
  2
AcDbLongTransaction
  3
AutoCAD 2000
 90
        0
280
     0
281
     0
  0
CLASS
  1
LWPOLYLINE
  2
AcDbPolyline
  3
AutoCAD 2000
 90
        0
280
     0
281
     1
  0
CLASS
  1
HATCH
  2
AcDbHatch
  3
AutoCAD 2000
 90
        0
280
     0
281
     1
  0
CLASS
  1
XRECORD
  2
AcDbXrecord
  3
AutoCAD 2000
 90
        0
280
     0
281
     0
  0
CLASS
  1
LONG_TRANSACTION
  2
AcDbLongTransaction
  3
AutoCAD 2000
 90
        0
280
     0
281
     0
  0
CLASS
  1
LWPOLYLINE
  2
AcDbPolyline
  3
AutoCAD 2000
 90
        0
280
     0
281
     1
  0
CLASS
  1
HATCH
  2
AcDbHatch
  3
AutoCAD 2000
 90
        0
280
     0
281
     1
  0
CLASS
  1
XRECORD
  2
AcDbXrecord
  3
AutoCAD 2000
 90
        0
280
     0
281
     0
  0
CLASS
  1
LONG_TRANSACTION
  2
AcDbLongTransaction
  3
AutoCAD 2000
 90
        0
280
     0
281
     0
  0
CLASS
  1
LWPOLYLINE
  2
AcDbPolyline
  3
AutoCAD 2000
 90
        0
280
     0
281
     1
  0
CLASS
  1
HATCH
  2
AcDbHatch
  3
AutoCAD 2000
 90
        0
280
     0
281
     1
  0
CLASS
  1
XRECORD
  2
AcDbXrecord
  3
AutoCAD 2000
 90
        0
280
     0
281
     0
  0
CLASS
  1
LONG_TRANSACTION
  2
AcDbLongTransaction
  3
AutoCAD 2000
 90
        0
280
     0
281
     0
  0
CLASS
  1
LWPOLYLINE
  2
AcDbPolyline
  3
AutoCAD 2000
 90
        0
280
     0
281
     1
  0
CLASS
  1
HATCH
  2
AcDbHatch
  3
AutoCAD 2000
 90
        0
280
     0
281
     1
  0
CLASS
  1
XRECORD
  2
AcDbXrecord
  3
AutoCAD 2000
 90
        0
280
     0
281
     0
  0
CLASS
  1
LONG_TRANSACTION
  2
AcDbLongTransaction
  3
AutoCAD 2000
 90
        0
280
     0
281
     0
  0
CLASS
  1
LWPOLYLINE
  2
AcDbPolyline
  3
AutoCAD 2000
 90
        0
280
     0
281
     1
  0
CLASS
  1
HATCH
  2
AcDbHatch
  3
AutoCAD 2000
 90
        0
280
     0
281
     1
  0
CLASS
  1
XRECORD
  2
AcDbXrecord
  3
AutoCAD 2000
 90
        0
280
     0
281
     0
  0
CLASS
  1
LONG_TRANSACTION
  2
AcDbLongTransaction
  3
AutoCAD 2000
 90
        0
280
     0
281
     0
  0
CLASS
  1
LWPOLYLINE
  2
AcDbPolyline
  3
AutoCAD 2000
 90
        0
280
     0
281
     1
  0
CLASS
  1
HATCH
  2
AcDbHatch
  3
AutoCAD 2000
 90
        0
280
     0
281
     1
  0
CLASS
  1
XRECORD
  2
AcDbXrecord
  3
AutoCAD 2000
 90
        0
280
     0
281
     0
  0
CLASS
  1
LONG_TRANSACTION
  2
AcDbLongTransaction
  3
AutoCAD 2000
 90
        0
280
     0
281
     0
  0
CLASS
  1
LWPOLYLINE
  2
AcDbPolyline
  3
AutoCAD 2000
 90
        0
280
     0
281
     1
  0
CLASS
  1
HATCH
  2
AcDbHatch
  3
AutoCAD 2000
 90
        0
280
     0
281
     1
  0
CLASS
  1
XRECORD
  2
AcDbXrecord
  3
AutoCAD 2000
 90
        0
280
     0
281
     0
  0
CLASS
  1
LONG_TRANSACTION
  2
AcDbLongTransaction
  3
AutoCAD 2000
 90
        0
280
     0
281
     0
  0
CLASS
  1
LWPOLYLINE
  2
AcDbPolyline
  3
AutoCAD 2000
 90
        0
280
     0
281
     1
  0
CLASS
  1
HATCH
  2
AcDbHatch
  3
AutoCAD 2000
 90
        0
280
     0
281
     1
  0
CLASS
  1
XRECORD
  2
AcDbXrecord
  3
AutoCAD 2000
 90
        0
280
     0
281
     0
  0
CLASS
  1
LONG_TRANSACTION
  2
AcDbLongTransaction
  3
AutoCAD 2000
 90
        0
280
     0
281
     0
  0
CLASS
  1
LWPOLYLINE
  2
AcDbPolyline
  3
AutoCAD 2000
 90
        0
280
     0
281
     1
  0
CLASS
  1
HATCH
  2
AcDbHatch
  3
AutoCAD 2000
 90
        0
280
     0
281
     1
  0
CLASS
  1
XRECORD
  2
AcDbXrecord
  3
AutoCAD 2000
 90
        0
280
     0
281
     0
  0
CLASS
  1
DICTIONARYVAR
  2
AcDbDictionaryVar
  3
AutoCAD 2000
 90
        0
280
     0
281
     0
  0
CLASS
  1
LONG_TRANSACTION
  2
AcDbLongTransaction
  3
AutoCAD 2000
 90
        0
280
     0
281
     0
  0
CLASS
  1
LWPOLYLINE
  2
AcDbPolyline
  3
AutoCAD 2000
 90
        0
280
     0
281
     1
  0
CLASS
  1
HATCH
  2
AcDbHatch
  3
AutoCAD 2000
 90
        0
280
     0
281
     1
  0
CLASS
  1
XRECORD
  2
AcDbXrecord
  3
AutoCAD 2000
 90
        0
280
     0
281
     0
  0
CLASS
  1
LONG_TRANSACTION
  2
AcDbLongTransaction
  3
AutoCAD 2000
 90
        0
280
     0
281
     0
  0
CLASS
  1
LWPOLYLINE
  2
AcDbPolyline
  3
AutoCAD 2000
 90
        0
280
     0
281
     1
  0
CLASS
  1
HATCH
  2
AcDbHatch
  3
AutoCAD 2000
 90
        0
280
     0
281
     1
  0
CLASS
  1
XRECORD
  2
AcDbXrecord
  3
AutoCAD 2000
 90
        0
280
     0
281
     0
  0
CLASS
  1
LONG_TRANSACTION
  2
AcDbLongTransaction
  3
AutoCAD 2000
 90
        0
280
     0
281
     0
  0
CLASS
  1
LWPOLYLINE
  2
AcDbPolyline
  3
AutoCAD 2000
 90
        0
280
     0
281
     1
  0
CLASS
  1
HATCH
  2
AcDbHatch
  3
AutoCAD 2000
 90
        0
280
     0
281
     1
  0
CLASS
  1
XRECORD
  2
AcDbXrecord
  3
AutoCAD 2000
 90
        0
280
     0
281
     0
  0
CLASS
  1
LONG_TRANSACTION
  2
AcDbLongTransaction
  3
AutoCAD 2000
 90
        0
280
     0
281
     0
  0
CLASS
  1
LWPOLYLINE
  2
AcDbPolyline
  3
AutoCAD 2000
 90
        0
280
     0
281
     1
  0
CLASS
  1
HATCH
  2
AcDbHatch
  3
AutoCAD 2000
 90
        0
280
     0
281
     1
  0
CLASS
  1
XRECORD
  2
AcDbXrecord
  3
AutoCAD 2000
 90
        0
280
     0
281
     0
  0
ENDSEC
  0
SECTION
  2
TABLES
  0
TABLE
  2
VPORT
  5
8
330
0
100
AcDbSymbolTable
 70
     2
  0
VPORT
  5
93A4
330
8
100
AcDbSymbolTableRecord
100
AcDbViewportTableRecord
  2
*ACTIVE
 70
     0
 10
0.0
 20
0.0
 11
1.0
 21
1.0
 12
161.1192959272523
 22
-92.97551801757373
 13
0.0
 23
0.0
 14
1.0
 24
1.0
 15
10.0
 25
10.0
 16
0.0
 26
0.0
 36
1.0
 17
0.0
 27
0.0
 37
0.0
 40
736.774657713818
 41
1.672222222222222
 42
50.0
 43
0.0
 44
0.0
 50
0.0
 51
0.0
 71
     0
 72
   100
 73
     1
 74
     1
 75
     1
 76
     0
 77
     0
 78
     0
  0
ENDTAB
  0
TABLE
  2
LTYPE
  5
5
330
0
100
AcDbSymbolTable
 70
     4
  0
LTYPE
  5
13
330
5
100
AcDbSymbolTableRecord
100
AcDbLinetypeTableRecord
  2
BYBLOCK
 70
     0
  3

 72
    65
 73
     0
 40
0.0
  0
LTYPE
  5
14
330
5
100
AcDbSymbolTableRecord
100
AcDbLinetypeTableRecord
  2
BYLAYER
 70
     0
  3

 72
    65
 73
     0
 40
0.0
  0
LTYPE
  5
15
330
5
100
AcDbSymbolTableRecord
100
AcDbLinetypeTableRecord
  2
CONTINUOUS
 70
     0
  3
Solid line
 72
    65
 73
     0
 40
0.0
  0
LTYPE
  5
22
330
5
100
AcDbSymbolTableRecord
100
AcDbLinetypeTableRecord
  2
CONTINOUS
 70
     0
  3
Solid line
 72
    65
 73
     0
 40
0.0
  0
LTYPE
  5
24
330
5
100
AcDbSymbolTableRecord
100
AcDbLinetypeTableRecord
  2
DASHDOT
 70
     0
  3
__ . __ . __ . __ . __ . __ . __ . __ . __ . __
 72
    65
 73
     4
 40
1.0
 49
0.5
 74
     0
 49
-0.25
 74
     0
 49
0.0
 74
     0
 49
-0.25
 74
     0
  0
LTYPE
  5
392A
330
5
100
AcDbSymbolTableRecord
100
AcDbLinetypeTableRecord
  2
DIVIDE
 70
     0
  3
Divide ____ . . ____ . . ____ . . ____ . . ____
 72
    65
 73
     6
 40
1.25
 49
0.5
 74
     0
 49
-0.25
 74
     0
 49
0.0
 74
     0
 49
-0.25
 74
     0
 49
0.0
 74
     0
 49
-0.25
 74
     0
  0
ENDTAB
  0
TABLE
  2
LAYER
  5
2
330
0
100
AcDbSymbolTable
 70
    13
  0
LAYER
  5
10
330
2
100
AcDbSymbolTableRecord
100
AcDbLayerTableRecord
  2
0
 70
     0
 62
     7
  6
CONTINOUS
  0
LAYER
  5
2F
330
2
100
AcDbSymbolTableRecord
100
AcDbLayerTableRecord
  2
10
 70
     0
 62
     4
  6
CONTINOUS
  0
LAYER
  5
31
330
2
100
AcDbSymbolTableRecord
100
AcDbLayerTableRecord
  2
12
 70
     0
 62
     3
  6
CONTINOUS
  0
LAYER
  5
35
330
2
100
AcDbSymbolTableRecord
100
AcDbLayerTableRecord
  2
16
 70
     4
 62
     6
  6
DASHDOT
  0
LAYER
  5
36
330
2
100
AcDbSymbolTableRecord
100
AcDbLayerTableRecord
  2
17
 70
     0
 62
     2
  6
DASHDOT
  0
LAYER
  5
38
330
2
100
AcDbSymbolTableRecord
100
AcDbLayerTableRecord
  2
19
 70
     0
 62
     7
  6
CONTINOUS
  0
LAYER
  5
3C
330
2
100
AcDbSymbolTableRecord
100
AcDbLayerTableRecord
  2
11
 70
     0
 62
     1
  6
CONTINOUS
  0
LAYER
  5
3D
330
2
100
AcDbSymbolTableRecord
100
AcDbLayerTableRecord
  2
24
 70
     0
 62
     2
  6
CONTINOUS
  0
LAYER
  5
3A2
330
2
100
AcDbSymbolTableRecord
100
AcDbLayerTableRecord
  2
30
 70
     0
 62
     9
  6
CONTINUOUS
  0
LAYER
  5
3A4
330
2
100
AcDbSymbolTableRecord
100
AcDbLayerTableRecord
  2
DEFPOINTS
 70
     0
 62
     7
  6
CONTINUOUS
  0
LAYER
  5
4C43
330
2
100
AcDbSymbolTableRecord
100
AcDbLayerTableRecord
  2
18
 70
     0
 62
     5
  6
DIVIDE
  0
LAYER
  5
5E73
330
2
100
AcDbSymbolTableRecord
100
AcDbLayerTableRecord
  2
1
 70
     0
 62
     7
  6
CONTINUOUS
  0
LAYER
  5
5E74
330
2
100
AcDbSymbolTableRecord
100
AcDbLayerTableRecord
  2
TOP
 70
     0
 62
     7
  6
CONTINUOUS
  0
ENDTAB
  0
TABLE
  2
STYLE
  5
3
330
0
100
AcDbSymbolTable
 70
     3
  0
STYLE
  5
11
330
3
100
AcDbSymbolTableRecord
100
AcDbTextStyleTableRecord
  2
STANDARD
 70
     0
 40
0.0
 41
1.0
 50
0.0
 71
     0
 42
2.0
  3
txt.shx
  4
bigfont.shx
  0
STYLE
  5
42
330
3
100
AcDbSymbolTableRecord
100
AcDbTextStyleTableRecord
  2
STANDARD1
 70
     0
 40
0.0
 41
1.0
 50
0.0
 71
     0
 42
5.0
  3
MONOTXT
  4
BIGFONT
  0
STYLE
  5
5E75
330
3
100
AcDbSymbolTableRecord
100
AcDbTextStyleTableRecord
  2
UGMTXT
 70
     0
 40
0.0
 41
1.0
 50
0.0
 71
     0
 42
0.2
  3
ugmtxt
  4
bigfont
  0
ENDTAB
  0
TABLE
  2
VIEW
  5
6
330
0
100
AcDbSymbolTable
 70
     3
  0
VIEW
  5
230C
330
6
100
AcDbSymbolTableRecord
100
AcDbViewTableRecord
  2
OLE1
 70
     0
 40
148.9124878027714
 10
429.4976280407222
 20
2.560626997828478
 41
103.1458057716444
 11
0.0
 21
0.0
 31
1.0
 12
0.0
 22
0.0
 32
0.0
 42
50.0
 43
0.0
 44
0.0
 50
0.0
 71
     0
  0
VIEW
  5
230E
330
6
100
AcDbSymbolTableRecord
100
AcDbViewTableRecord
  2
OLE2
 70
     0
 40
170.7786920545775
 10
322.664969958371
 20
-5.978304054290276
 41
102.4672152327465
 11
0.0
 21
0.0
 31
1.0
 12
0.0
 22
0.0
 32
0.0
 42
50.0
 43
0.0
 44
0.0
 50
0.0
 71
     0
  0
VIEW
  5
23AA
330
6
100
AcDbSymbolTableRecord
100
AcDbViewTableRecord
  2
OLE3
 70
     0
 40
591.7897393182231
 10
84.79698158148218
 20
-46.09336010803995
 41
388.7920961799953
 11
0.0
 21
0.0
 31
1.0
 12
0.0
 22
0.0
 32
0.0
 42
50.0
 43
0.0
 44
0.0
 50
0.0
 71
     0
  0
ENDTAB
  0
TABLE
  2
UCS
  5
7
330
0
100
AcDbSymbolTable
 70
     0
  0
ENDTAB
  0
TABLE
  2
APPID
  5
9
330
0
100
AcDbSymbolTable
 70
     2
  0
APPID
  5
12
330
9
100
AcDbSymbolTableRecord
100
AcDbRegAppTableRecord
  2
ACAD
 70
     0
  0
APPID
  5
ECD
330
9
100
AcDbSymbolTableRecord
100
AcDbRegAppTableRecord
  2
CONTENTBLOCKICON
 70
     0
  0
ENDTAB
  0
TABLE
  2
DIMSTYLE
  5
A
330
0
100
AcDbSymbolTable
 70
     1
  0
DIMSTYLE
105
175
102
{ACAD_REACTORS
330
75CC
330
75DC
330
7516
330
7515
330
7831
330
7830
330
77D3
330
7F2C
330
7F2B
330
7E94
330
7E93
330
7E92
330
7E91
330
7E90
330
7E9D
330
84DF
330
84DE
330
84A8
330
84A7
330
909C
330
90A9
330
927C
102
}
330
A
100
AcDbSymbolTableRecord
100
AcDbDimStyleTableRecord
  2
STANDARD
 70
     0
  3

  4

  5
OPEN
  6

  7

 40
1.0
 41
2.0
 42
1.0
 43
0.5
 44
0.5
 45
0.0
 46
0.0
 47
0.0
 48
0.0
140
4.0
141
0.09
142
0.0
143
25.4
144
1.0
145
0.0
146
1.0
147
1.0
 71
     0
 72
     0
 73
     0
 74
     0
 75
     0
 76
     0
 77
     3
 78
    12
170
     0
171
     2
172
     0
173
     0
174
     0
175
     0
176
     0
177
     0
178
     0
270
     2
271
     1
272
     1
273
     2
274
     2
340
11
275
     0
280
     0
281
     0
282
     0
283
     1
284
     0
285
     0
286
     0
287
     3
288
     0
  0
ENDTAB
  0
TABLE
  2
BLOCK_RECORD
  5
1
330
0
100
AcDbSymbolTable
 70
    31
  0
BLOCK_RECORD
  5
1E
102
{ACAD_XDICTIONARY
360
178
102
}
330
1
100
AcDbSymbolTableRecord
100
AcDbBlockTableRecord
  2
*MODEL_SPACE
  0
BLOCK_RECORD
  5
1A
102
{ACAD_XDICTIONARY
360
17A
102
}
330
1
100
AcDbSymbolTableRecord
100
AcDbBlockTableRecord
  2
*PAPER_SPACE
  0
BLOCK_RECORD
  5
3B2
330
1
100
AcDbSymbolTableRecord
100
AcDbBlockTableRecord
  2
_OPEN
  0
BLOCK_RECORD
  5
7440
330
1
100
AcDbSymbolTableRecord
100
AcDbBlockTableRecord
  2
*U1
  0
BLOCK_RECORD
  5
7444
330
1
100
AcDbSymbolTableRecord
100
AcDbBlockTableRecord
  2
*U2
  0
BLOCK_RECORD
  5
744D
330
1
100
AcDbSymbolTableRecord
100
AcDbBlockTableRecord
  2
*U3
  0
BLOCK_RECORD
  5
7456
330
1
100
AcDbSymbolTableRecord
100
AcDbBlockTableRecord
  2
*U4
  0
BLOCK_RECORD
  5
745D
330
1
100
AcDbSymbolTableRecord
100
AcDbBlockTableRecord
  2
*U5
  0
BLOCK_RECORD
  5
754E
330
1
100
AcDbSymbolTableRecord
100
AcDbBlockTableRecord
  2
*D6
  0
BLOCK_RECORD
  5
755B
330
1
100
AcDbSymbolTableRecord
100
AcDbBlockTableRecord
  2
*D7
  0
BLOCK_RECORD
  5
75DF
330
1
100
AcDbSymbolTableRecord
100
AcDbBlockTableRecord
  2
*D8
  0
BLOCK_RECORD
  5
75EB
330
1
100
AcDbSymbolTableRecord
100
AcDbBlockTableRecord
  2
*D9
  0
BLOCK_RECORD
  5
790C
330
1
100
AcDbSymbolTableRecord
100
AcDbBlockTableRecord
  2
*D10
  0
BLOCK_RECORD
  5
7918
330
1
100
AcDbSymbolTableRecord
100
AcDbBlockTableRecord
  2
*D11
  0
BLOCK_RECORD
  5
7924
330
1
100
AcDbSymbolTableRecord
100
AcDbBlockTableRecord
  2
*D12
  0
BLOCK_RECORD
  5
7930
330
1
100
AcDbSymbolTableRecord
100
AcDbBlockTableRecord
  2
*D13
  0
BLOCK_RECORD
  5
803E
330
1
100
AcDbSymbolTableRecord
100
AcDbBlockTableRecord
  2
*D14
  0
BLOCK_RECORD
  5
804A
330
1
100
AcDbSymbolTableRecord
100
AcDbBlockTableRecord
  2
*D15
  0
BLOCK_RECORD
  5
8062
330
1
100
AcDbSymbolTableRecord
100
AcDbBlockTableRecord
  2
*D16
  0
BLOCK_RECORD
  5
806E
330
1
100
AcDbSymbolTableRecord
100
AcDbBlockTableRecord
  2
*D17
  0
BLOCK_RECORD
  5
807A
330
1
100
AcDbSymbolTableRecord
100
AcDbBlockTableRecord
  2
*D18
  0
BLOCK_RECORD
  5
8087
330
1
100
AcDbSymbolTableRecord
100
AcDbBlockTableRecord
  2
*D19
  0
BLOCK_RECORD
  5
8093
330
1
100
AcDbSymbolTableRecord
100
AcDbBlockTableRecord
  2
*D20
  0
BLOCK_RECORD
  5
80AB
330
1
100
AcDbSymbolTableRecord
100
AcDbBlockTableRecord
  2
*D21
  0
BLOCK_RECORD
  5
83B7
330
1
100
AcDbSymbolTableRecord
100
AcDbBlockTableRecord
  2
*U22
  0
BLOCK_RECORD
  5
83D6
330
1
100
AcDbSymbolTableRecord
100
AcDbBlockTableRecord
  2
*U23
  0
BLOCK_RECORD
  5
8539
330
1
100
AcDbSymbolTableRecord
100
AcDbBlockTableRecord
  2
*D24
  0
BLOCK_RECORD
  5
8545
330
1
100
AcDbSymbolTableRecord
100
AcDbBlockTableRecord
  2
*D25
  0
BLOCK_RECORD
  5
8551
330
1
100
AcDbSymbolTableRecord
100
AcDbBlockTableRecord
  2
*D26
  0
BLOCK_RECORD
  5
855D
330
1
100
AcDbSymbolTableRecord
100
AcDbBlockTableRecord
  2
*D27
  0
BLOCK_RECORD
  5
909D
330
1
100
AcDbSymbolTableRecord
100
AcDbBlockTableRecord
  2
*D28
  0
BLOCK_RECORD
  5
90AA
330
1
100
AcDbSymbolTableRecord
100
AcDbBlockTableRecord
  2
*D29
  0
BLOCK_RECORD
  5
927D
330
1
100
AcDbSymbolTableRecord
100
AcDbBlockTableRecord
  2
*D30
  0
ENDTAB
  0
ENDSEC
  0
SECTION
  2
BLOCKS
  0
BLOCK
  5
1F
330
1E
100
AcDbEntity
  8
0
100
AcDbBlockBegin
  2
*MODEL_SPACE
 70
     0
 10
0.0
 20
0.0
 30
0.0
  3
*MODEL_SPACE
  1

  0
ENDBLK
  5
20
330
1E
100
AcDbEntity
  8
0
100
AcDbBlockEnd
  0
BLOCK
  5
1B
330
1A
100
AcDbEntity
 67
     1
  8
0
100
AcDbBlockBegin
  2
*PAPER_SPACE
 70
     0
 10
0.0
 20
0.0
 30
0.0
  3
*PAPER_SPACE
  1

  0
ENDBLK
  5
1C
330
1A
100
AcDbEntity
 67
     1
  8
0
100
AcDbBlockEnd
  0
BLOCK
  5
3B6
330
3B2
100
AcDbEntity
  8
0
100
AcDbBlockBegin
  2
_OPEN
 70
     0
 10
0.0
 20
0.0
 30
0.0
  3
_OPEN
  1

  0
LINE
  5
3B3
330
3B2
100
AcDbEntity
  8
30
  6
CONTINUOUS
 62
     0
100
AcDbLine
 10
-1.0
 20
0.1666666666666666
 30
0.0
 11
0.0
 21
0.0
 31
0.0
  0
LINE
  5
3B4
330
3B2
100
AcDbEntity
  8
30
  6
CONTINUOUS
 62
     0
100
AcDbLine
 10
-1.0
 20
-0.1666666666666666
 30
0.0
 11
0.0
 21
0.0
 31
0.0
  0
LINE
  5
3B5
330
3B2
100
AcDbEntity
  8
30
  6
CONTINUOUS
 62
     0
100
AcDbLine
 10
0.0
 20
0.0
 30
0.0
 11
-1.0
 21
0.0
 31
0.0
  0
ENDBLK
  5
3B7
330
3B2
100
AcDbEntity
  8
0
100
AcDbBlockEnd
  0
BLOCK
  5
7442
330
7440
100
AcDbEntity
  8
TOP
  6
CONTINUOUS
 62
     4
100
AcDbBlockBegin
  2
*U1
 70
     1
 10
0.0
 20
0.0
 30
0.0
  3
*U1
  1

  0
TEXT
  5
7441
330
7440
100
AcDbEntity
  8
TOP
  6
BYBLOCK
 62
     0
100
AcDbText
 10
266.0
 20
291.0294437291301
 30
0.0
 40
2.500000003799998
  1
15.5 (max.)
 50
89.99999999999404
 41
0.8081054687499968
  7
UGMTXT
100
AcDbText
  0
ENDBLK
  5
7443
330
7440
100
AcDbEntity
  8
0
100
AcDbBlockEnd
  0
BLOCK
  5
744B
330
7444
100
AcDbEntity
  8
TOP
  6
CONTINUOUS
 62
     4
100
AcDbBlockBegin
  2
*U2
 70
     1
 10
0.0
 20
0.0
 30
0.0
  3
*U2
  1

  0
LINE
  5
7445
330
7444
100
AcDbEntity
  8
1
  6
BYBLOCK
 62
     0
100
AcDbLine
 10
233.5811502601933
 20
295.7294437159303
 30
0.0
 11
262.2500000084999
 21
295.7294437159303
 31
0.0
  0
LINE
  5
7446
330
7444
100
AcDbEntity
  8
1
  6
BYBLOCK
 62
     0
100
AcDbLine
 10
255.5411502601935
 20
305.0294437159302
 30
0.0
 11
262.2500000084999
 21
305.0294437159302
 31
0.0
  0
LINE
  5
7447
330
7444
100
AcDbEntity
  8
1
  6
BYBLOCK
 62
     0
100
AcDbLine
 10
261.2500000019
 20
295.7294437159303
 30
0.0
 11
261.2500000019
 21
305.0294437159302
 31
0.0
  0
SOLID
  5
7448
330
7444
100
AcDbEntity
  8
1
  6
BYBLOCK
 62
     0
100
AcDbTrace
 10
261.2500000019
 20
295.7294437159303
 30
0.0
 11
260.9166666663664
 21
297.7294437291303
 31
0.0
 12
261.5833333374331
 22
297.7294437291303
 32
0.0
 13
261.5833333374331
 23
297.7294437291303
 33
0.0
  0
SOLID
  5
7449
330
7444
100
AcDbEntity
  8
1
  6
BYBLOCK
 62
     0
100
AcDbTrace
 10
261.2500000019
 20
305.0294437159302
 30
0.0
 11
261.5833333374331
 21
303.0294437027301
 31
0.0
 12
260.9166666663664
 22
303.0294437027301
 32
0.0
 13
260.9166666663664
 23
303.0294437027301
 33
0.0
  0
TEXT
  5
744A
330
7444
100
AcDbEntity
  8
TOP
  6
BYBLOCK
 62
     0
100
AcDbText
 10
260.0
 20
299.5135582979475
 30
0.0
 40
2.500000003799998
  1
 
 50
89.99999999999404
 41
1.189062499999995
  7
UGMTXT
100
AcDbText
  0
ENDBLK
  5
744C
330
7444
100
AcDbEntity
  8
0
100
AcDbBlockEnd
  0
BLOCK
  5
7454
330
744D
100
AcDbEntity
  8
TOP
  6
CONTINUOUS
 62
     4
100
AcDbBlockBegin
  2
*U3
 70
     1
 10
0.0
 20
0.0
 30
0.0
  3
*U3
  1

  0
LINE
  5
744E
330
744D
100
AcDbEntity
  8
1
  6
BYBLOCK
 62
     0
100
AcDbLine
 10
210.1411485937496
 20
283.7986239687466
 30
0.0
 11
210.1411485937496
 21
267.7499999981
 31
0.0
  0
LINE
  5
744F
330
744D
100
AcDbEntity
  8
1
  6
BYBLOCK
 62
     0
100
AcDbLine
 10
224.5411502535934
 20
289.0294437093301
 30
0.0
 11
224.5411502535934
 21
267.7499999981
 31
0.0
  0
LINE
  5
7450
330
744D
100
AcDbEntity
  8
1
  6
BYBLOCK
 62
     0
100
AcDbLine
 10
210.1411485937496
 20
268.7499999981
 30
0.0
 11
224.5411502535934
 21
268.7499999981
 31
0.0
  0
SOLID
  5
7451
330
744D
100
AcDbEntity
  8
1
  6
BYBLOCK
 62
     0
100
AcDbTrace
 10
210.1411485937496
 20
268.7499999981
 30
0.0
 11
212.1411486069495
 21
269.0833333336333
 31
0.0
 12
212.1411486069495
 22
268.4166666625666
 32
0.0
 13
212.1411486069495
 23
268.4166666625666
 33
0.0
  0
SOLID
  5
7452
330
744D
100
AcDbEntity
  8
1
  6
BYBLOCK
 62
     0
100
AcDbTrace
 10
224.5411502535934
 20
268.7499999981
 30
0.0
 11
222.5411502403934
 21
268.4166666625666
 31
0.0
 12
222.5411502403934
 22
269.0833333336333
 32
0.0
 13
222.5411502403934
 23
269.0833333336333
 33
0.0
  0
TEXT
  5
7453
330
744D
100
AcDbEntity
  8
TOP
  6
BYBLOCK
 62
     0
100
AcDbText
 10
215.4843785875159
 20
270.0
 30
0.0
 40
2.500000003799998
  1
24
 41
0.8912499999999965
  7
UGMTXT
100
AcDbText
  0
ENDBLK
  5
7455
330
744D
100
AcDbEntity
  8
0
100
AcDbBlockEnd
  0
BLOCK
  5
745B
330
7456
100
AcDbEntity
  8
TOP
  6
CONTINUOUS
 62
     3
100
AcDbBlockBegin
  2
*U4
 70
     1
 10
0.0
 20
0.0
 30
0.0
  3
*U4
  1

  0
LINE
  5
7457
330
7456
100
AcDbEntity
  8
1
  6
BYBLOCK
 62
     0
100
AcDbLine
 10
254.7855019450172
 20
268.7148869848059
 30
0.0
 11
240.7855019450172
 21
268.7148869848059
 31
0.0
  0
LINE
  5
7458
330
7456
100
AcDbEntity
  8
1
  6
BYBLOCK
 62
     0
100
AcDbLine
 10
230.5411502535934
 20
291.4094437159302
 30
0.0
 11
240.7855019450172
 21
268.7148869848059
 31
0.0
  0
SOLID
  5
7459
330
7456
100
AcDbEntity
  8
1
  6
BYBLOCK
 62
     0
100
AcDbTrace
 10
230.5411502535934
 20
291.4094437159302
 30
0.0
 11
231.6678175741986
 21
289.723699988652
 31
0.0
 12
231.0601889426162
 22
289.4494156537138
 32
0.0
 13
231.0601889426162
 23
289.4494156537138
 33
0.0
  0
TEXT
  5
745A
330
7456
100
AcDbEntity
  8
TOP
  6
BYBLOCK
 62
     0
100
AcDbText
 10
254.7855019450172
 20
267.4648869848059
 30
0.0
 40
2.5
  1
 
 41
1.189062500000005
  7
UGMTXT
100
AcDbText
  0
ENDBLK
  5
745C
330
7456
100
AcDbEntity
  8
0
100
AcDbBlockEnd
  0
BLOCK
  5
7462
330
745D
100
AcDbEntity
  8
TOP
  6
CONTINUOUS
 62
     3
100
AcDbBlockBegin
  2
*U5
 70
     1
 10
0.0
 20
0.0
 30
0.0
  3
*U5
  1

  0
LINE
  5
745E
330
745D
100
AcDbEntity
  8
1
  6
BYBLOCK
 62
     0
100
AcDbLine
 10
299.0919828141811
 20
278.9261624279384
 30
0.0
 11
252.0919828141811
 21
278.9261624279384
 31
0.0
  0
LINE
  5
745F
330
745D
100
AcDbEntity
  8
1
  6
BYBLOCK
 62
     0
100
AcDbLine
 10
245.3011502535936
 20
286.4294437159301
 30
0.0
 11
252.0919828141811
 21
278.9261624279384
 31
0.0
  0
SOLID
  5
7460
330
745D
100
AcDbEntity
  8
1
  6
BYBLOCK
 62
     0
100
AcDbTrace
 10
245.3011502535936
 20
286.4294437159301
 30
0.0
 11
246.8903538489449
 21
285.1702602114716
 31
0.0
 12
246.396067112615
 22
284.7229068024097
 32
0.0
 13
246.396067112615
 23
284.7229068024097
 33
0.0
  0
TEXT
  5
7461
330
745D
100
AcDbEntity
  8
TOP
  6
BYBLOCK
 62
     0
100
AcDbText
 10
299.0919828141811
 20
277.6761624279385
 30
0.0
 40
2.5
  1
 
 41
1.189062499999988
  7
UGMTXT
100
AcDbText
  0
ENDBLK
  5
7463
330
745D
100
AcDbEntity
  8
0
100
AcDbBlockEnd
  0
BLOCK
  5
7559
330
754E
100
AcDbEntity
  8
0
100
AcDbBlockBegin
  2
*D6
 70
     1
 10
0.0
 20
0.0
 30
0.0
  3
*D6
  1

  0
LINE
  5
9391
330
754E
100
AcDbEntity
  8
30
 62
     0
100
AcDbLine
 10
210.5000066894235
 20
-282.3055065238225
 30
0.0
 11
210.5000066894235
 21
-275.4999999999999
 31
0.0
  0
LINE
  5
9392
330
754E
100
AcDbEntity
  8
30
 62
     0
100
AcDbLine
 10
215.5000061130889
 20
-295.4999992507651
 30
0.0
 11
215.5000061130889
 21
-275.4999999999999
 31
0.0
  0
LINE
  5
9393
330
754E
100
AcDbEntity
  8
30
 62
     0
100
AcDbLine
 10
208.5000066894235
 20
-276.0
 30
0.0
 11
206.5000066894235
 21
-276.0
 31
0.0
  0
LINE
  5
9394
330
754E
100
AcDbEntity
  8
30
 62
     0
100
AcDbLine
 10
217.5000061130889
 20
-276.0
 30
0.0
 11
219.5000061130889
 21
-276.0
 31
0.0
  0
INSERT
  5
9395
330
754E
100
AcDbEntity
  8
30
 62
     0
100
AcDbBlockReference
  2
_OPEN
 10
210.5000066894235
 20
-276.0
 30
0.0
 41
2.0
 42
2.0
 43
2.0
  0
INSERT
  5
9396
330
754E
100
AcDbEntity
  8
30
 62
     0
100
AcDbBlockReference
  2
_OPEN
 10
215.5000061130889
 20
-276.0
 30
0.0
 41
2.0
 42
2.0
 43
2.0
 50
180.0
  0
MTEXT
  5
9397
330
754E
100
AcDbEntity
  8
30
 62
     0
100
AcDbMText
 10
213.0000064012563
 20
-273.0
 30
0.0
 40
4.0
 41
0.0
 71
     5
 72
     1
  1
\A1;5
1001
ACAD
1000
MTEXTBEGIN
1070
    73
1070
     1
1070
    44
1040
1.0
1070
    74
1070
     0
1000
MTEXTEND
  0
POINT
  5
9398
330
754E
100
AcDbEntity
  8
DEFPOINTS
 62
     0
100
AcDbPoint
 10
210.5000066894235
 20
-283.3055065238226
 30
0.0
  0
POINT
  5
9399
330
754E
100
AcDbEntity
  8
DEFPOINTS
 62
     0
100
AcDbPoint
 10
215.5000061130889
 20
-296.4999992507652
 30
0.0
  0
POINT
  5
939A
330
754E
100
AcDbEntity
  8
DEFPOINTS
 62
     0
100
AcDbPoint
 10
215.5000061130889
 20
-276.0
 30
0.0
  0
ENDBLK
  5
755A
330
754E
100
AcDbEntity
  8
0
100
AcDbBlockEnd
  0
BLOCK
  5
7565
330
755B
100
AcDbEntity
  8
0
100
AcDbBlockBegin
  2
*D7
 70
     1
 10
0.0
 20
0.0
 30
0.0
  3
*D7
  1

  0
LINE
  5
939B
330
755B
100
AcDbEntity
  8
30
 62
     0
100
AcDbLine
 10
210.5000066894235
 20
-282.3055065238225
 30
0.0
 11
210.5000066894235
 21
-267.1324087746281
 31
0.0
  0
LINE
  5
939C
330
755B
100
AcDbEntity
  8
30
 62
     0
100
AcDbLine
 10
237.5000087011648
 20
-285.833325048709
 30
0.0
 11
237.5000087011648
 21
-267.1324087746281
 31
0.0
  0
LINE
  5
939D
330
755B
100
AcDbEntity
  8
30
 62
     0
100
AcDbLine
 10
212.5000066894235
 20
-267.6324087746281
 30
0.0
 11
235.5000087011648
 21
-267.6324087746281
 31
0.0
  0
INSERT
  5
939E
330
755B
100
AcDbEntity
  8
30
 62
     0
100
AcDbBlockReference
  2
_OPEN
 10
210.5000066894235
 20
-267.6324087746281
 30
0.0
 41
2.0
 42
2.0
 43
2.0
 50
180.0
  0
INSERT
  5
939F
330
755B
100
AcDbEntity
  8
30
 62
     0
100
AcDbBlockReference
  2
_OPEN
 10
237.5000087011648
 20
-267.6324087746281
 30
0.0
 41
2.0
 42
2.0
 43
2.0
  0
MTEXT
  5
93A0
330
755B
100
AcDbEntity
  8
30
 62
     0
100
AcDbMText
 10
224.0000076952942
 20
-264.6324087746281
 30
0.0
 40
4.0
 41
0.0
 71
     5
 72
     1
  1
\A1;27
1001
ACAD
1000
MTEXTBEGIN
1070
    73
1070
     1
1070
    44
1040
1.0
1070
    74
1070
     0
1000
MTEXTEND
  0
POINT
  5
93A1
330
755B
100
AcDbEntity
  8
DEFPOINTS
 62
     0
100
AcDbPoint
 10
210.5000066894235
 20
-283.3055065238226
 30
0.0
  0
POINT
  5
93A2
330
755B
100
AcDbEntity
  8
DEFPOINTS
 62
     0
100
AcDbPoint
 10
237.5000087011648
 20
-286.833325048709
 30
0.0
  0
POINT
  5
93A3
330
755B
100
AcDbEntity
  8
DEFPOINTS
 62
     0
100
AcDbPoint
 10
237.5000087011648
 20
-267.6324087746281
 30
0.0
  0
ENDBLK
  5
7566
330
755B
100
AcDbEntity
  8
0
100
AcDbBlockEnd
  0
BLOCK
  5
75E9
330
75DF
100
AcDbEntity
  8
0
100
AcDbBlockBegin
  2
*D8
 70
     1
 10
0.0
 20
0.0
 30
0.0
  3
*D8
  1

  0
LINE
  5
9375
330
75DF
100
AcDbEntity
  8
30
 62
     0
100
AcDbLine
 10
340.0000000000001
 20
-267.0000000000001
 30
0.0
 11
340.0000000000001
 21
-277.4999999999999
 31
0.0
  0
LINE
  5
9376
330
75DF
100
AcDbEntity
  8
30
 62
     0
100
AcDbLine
 10
365.0
 20
-267.0000000000001
 30
0.0
 11
365.0
 21
-277.4999999999999
 31
0.0
  0
LINE
  5
9377
330
75DF
100
AcDbEntity
  8
30
 62
     0
100
AcDbLine
 10
342.0000000000001
 20
-277.0
 30
0.0
 11
363.0
 21
-277.0
 31
0.0
  0
INSERT
  5
9378
330
75DF
100
AcDbEntity
  8
30
 62
     0
100
AcDbBlockReference
  2
_OPEN
 10
340.0000000000001
 20
-277.0
 30
0.0
 41
2.0
 42
2.0
 43
2.0
 50
180.0
  0
INSERT
  5
9379
330
75DF
100
AcDbEntity
  8
30
 62
     0
100
AcDbBlockReference
  2
_OPEN
 10
365.0
 20
-277.0
 30
0.0
 41
2.0
 42
2.0
 43
2.0
  0
MTEXT
  5
937A
330
75DF
100
AcDbEntity
  8
30
 62
     0
100
AcDbMText
 10
353.0
 20
-274.0
 30
0.0
 40
4.0
 41
0.0
 71
     5
 72
     1
  1
\A1;22(max)
1001
ACAD
1000
MTEXTBEGIN
1070
    73
1070
     1
1070
    44
1040
1.0
1070
    74
1070
     0
1000
MTEXTEND
  0
POINT
  5
937B
330
75DF
100
AcDbEntity
  8
DEFPOINTS
 62
     0
100
AcDbPoint
 10
340.0000000000001
 20
-266.0000000000001
 30
0.0
  0
POINT
  5
937C
330
75DF
100
AcDbEntity
  8
DEFPOINTS
 62
     0
100
AcDbPoint
 10
365.0
 20
-266.0000000000001
 30
0.0
  0
POINT
  5
937D
330
75DF
100
AcDbEntity
  8
DEFPOINTS
 62
     0
100
AcDbPoint
 10
365.0
 20
-277.0
 30
0.0
  0
ENDBLK
  5
75EA
330
75DF
100
AcDbEntity
  8
0
100
AcDbBlockEnd
  0
BLOCK
  5
75F5
330
75EB
100
AcDbEntity
  8
0
100
AcDbBlockBegin
  2
*D9
 70
     1
 10
0.0
 20
0.0
 30
0.0
  3
*D9
  1

  0
LINE
  5
93C8
330
75EB
100
AcDbEntity
  8
30
 62
     0
100
AcDbLine
 10
366.0
 20
-266.0000000000001
 30
0.0
 11
375.8226076602539
 21
-266.0000000000001
 31
0.0
  0
LINE
  5
93C9
330
75EB
100
AcDbEntity
  8
30
 62
     0
100
AcDbLine
 10
356.0000000164997
 20
-256.0000000000001
 30
0.0
 11
375.8226076602539
 21
-256.0000000000001
 31
0.0
  0
LINE
  5
93CA
330
75EB
100
AcDbEntity
  8
30
 62
     0
100
AcDbLine
 10
375.322607660254
 20
-264.0000000000001
 30
0.0
 11
375.322607660254
 21
-258.0000000000001
 31
0.0
  0
MTEXT
  5
93CB
330
75EB
100
AcDbEntity
  8
30
 62
     0
100
AcDbMText
 10
381.0
 20
-262.0
 30
0.0
 40
4.0
 41
0.0
 71
     5
 72
     1
  1
\A1;15.5(max)
 11
0.0000000000000001
 21
1.0
 31
0.0
  0
INSERT
  5
93CC
330
75EB
100
AcDbEntity
  8
30
 62
     0
100
AcDbBlockReference
  2
_OPEN
 10
375.322607660254
 20
-266.0000000000001
 30
0.0
 41
2.0
 42
2.0
 43
2.0
 50
270.0
  0
INSERT
  5
93CD
330
75EB
100
AcDbEntity
  8
30
 62
     0
100
AcDbBlockReference
  2
_OPEN
 10
375.322607660254
 20
-256.0000000000001
 30
0.0
 41
2.0
 42
2.0
 43
2.0
 50
90.0
  0
POINT
  5
93CE
330
75EB
100
AcDbEntity
  8
DEFPOINTS
 62
     0
100
AcDbPoint
 10
365.0
 20
-266.0000000000001
 30
0.0
  0
POINT
  5
93CF
330
75EB
100
AcDbEntity
  8
DEFPOINTS
 62
     0
100
AcDbPoint
 10
355.0000000164997
 20
-256.0000000000001
 30
0.0
  0
POINT
  5
93D0
330
75EB
100
AcDbEntity
  8
DEFPOINTS
 62
     0
100
AcDbPoint
 10
375.322607660254
 20
-256.0000000000001
 30
0.0
  0
ENDBLK
  5
75F6
330
75EB
100
AcDbEntity
  8
0
100
AcDbBlockEnd
  0
BLOCK
  5
7916
330
790C
100
AcDbEntity
  8
0
100
AcDbBlockBegin
  2
*D10
 70
     1
 10
0.0
 20
0.0
 30
0.0
  3
*D10
  1

  0
LINE
  5
9273
330
790C
100
AcDbEntity
  8
30
 62
     0
100
AcDbLine
 10
-52.49999999999993
 20
-83.50000000000004
 30
0.0
 11
-52.49999999999993
 21
-117.6618080185514
 31
0.0
  0
LINE
  5
9274
330
790C
100
AcDbEntity
  8
30
 62
     0
100
AcDbLine
 10
87.50000000000005
 20
-83.50000000000004
 30
0.0
 11
87.50000000000005
 21
-117.6618080185514
 31
0.0
  0
LINE
  5
9275
330
790C
100
AcDbEntity
  8
30
 62
     0
100
AcDbLine
 10
-50.49999999999993
 20
-117.1618080185514
 30
0.0
 11
85.50000000000007
 21
-117.1618080185514
 31
0.0
  0
INSERT
  5
9276
330
790C
100
AcDbEntity
  8
30
 62
     0
100
AcDbBlockReference
  2
_OPEN
 10
-52.49999999999993
 20
-117.1618080185514
 30
0.0
 41
2.0
 42
2.0
 43
2.0
 50
180.0
  0
INSERT
  5
9277
330
790C
100
AcDbEntity
  8
30
 62
     0
100
AcDbBlockReference
  2
_OPEN
 10
87.50000000000005
 20
-117.1618080185514
 30
0.0
 41
2.0
 42
2.0
 43
2.0
  0
MTEXT
  5
9278
330
790C
100
AcDbEntity
  8
30
 62
     0
100
AcDbMText
 10
17.50000000000005
 20
-114.1618080185514
 30
0.0
 40
4.0
 41
0.0
 71
     5
 72
     1
  1
\A1;140
1001
ACAD
1000
MTEXTBEGIN
1070
    73
1070
     1
1070
    44
1040
1.0
1070
    74
1070
     0
1000
MTEXTEND
1000
MTEXTBEGIN
1070
    73
1070
     1
1070
    44
1040
1.0
1070
    74
1070
     0
1000
MTEXTEND
1000
MTEXTBEGIN
1070
    73
1070
     1
1070
    44
1040
1.0
1070
    74
1070
     0
1000
MTEXTEND
1000
MTEXTBEGIN
1070
    73
1070
     1
1070
    44
1040
1.0
1070
    74
1070
     0
1000
MTEXTEND
  0
POINT
  5
9279
330
790C
100
AcDbEntity
  8
DEFPOINTS
 62
     0
100
AcDbPoint
 10
-52.49999999999993
 20
-82.50000000000005
 30
0.0
  0
POINT
  5
927A
330
790C
100
AcDbEntity
  8
DEFPOINTS
 62
     0
100
AcDbPoint
 10
87.50000000000005
 20
-82.50000000000005
 30
0.0
  0
POINT
  5
927B
330
790C
100
AcDbEntity
  8
DEFPOINTS
 62
     0
100
AcDbPoint
 10
87.50000000000005
 20
-117.1618080185514
 30
0.0
  0
ENDBLK
  5
7917
330
790C
100
AcDbEntity
  8
0
100
AcDbBlockEnd
  0
BLOCK
  5
7922
330
7918
100
AcDbEntity
  8
0
100
AcDbBlockBegin
  2
*D11
 70
     1
 10
0.0
 20
0.0
 30
0.0
  3
*D11
  1

  0
LINE
  5
8709
330
7918
100
AcDbEntity
  8
30
 62
     0
100
AcDbLine
 10
-49.0
 20
26.0
 30
0.0
 11
-49.0
 21
35.71319198619852
 31
0.0
  0
LINE
  5
870A
330
7918
100
AcDbEntity
  8
30
 62
     0
100
AcDbLine
 10
49.00000000000005
 20
26.0
 30
0.0
 11
49.00000000000005
 21
35.71319198619852
 31
0.0
  0
LINE
  5
870B
330
7918
100
AcDbEntity
  8
30
 62
     0
100
AcDbLine
 10
-47.0
 20
35.21319198619852
 30
0.0
 11
47.00000000000005
 21
35.21319198619852
 31
0.0
  0
INSERT
  5
870C
330
7918
100
AcDbEntity
  8
30
 62
     0
100
AcDbBlockReference
  2
_OPEN
 10
-49.0
 20
35.21319198619852
 30
0.0
 41
2.0
 42
2.0
 43
2.0
 50
180.0
  0
INSERT
  5
870D
330
7918
100
AcDbEntity
  8
30
 62
     0
100
AcDbBlockReference
  2
_OPEN
 10
49.00000000000005
 20
35.21319198619852
 30
0.0
 41
2.0
 42
2.0
 43
2.0
  0
MTEXT
  5
870E
330
7918
100
AcDbEntity
  8
30
 62
     0
100
AcDbMText
 10
0.0000000000000286
 20
38.21319198619852
 30
0.0
 40
4.0
 41
0.0
 71
     5
 72
     1
  1
\A1;98
1001
ACAD
1000
MTEXTBEGIN
1070
    73
1070
     1
1070
    44
1040
1.0
1070
    74
1070
     0
1000
MTEXTEND
1000
MTEXTBEGIN
1070
    73
1070
     1
1070
    44
1040
1.0
1070
    74
1070
     0
1000
MTEXTEND
1000
MTEXTBEGIN
1070
    73
1070
     1
1070
    44
1040
1.0
1070
    74
1070
     0
1000
MTEXTEND
1000
MTEXTBEGIN
1070
    73
1070
     1
1070
    44
1040
1.0
1070
    74
1070
     0
1000
MTEXTEND
  0
POINT
  5
870F
330
7918
100
AcDbEntity
  8
DEFPOINTS
 62
     0
100
AcDbPoint
 10
-49.0
 20
25.0
 30
0.0
  0
POINT
  5
8710
330
7918
100
AcDbEntity
  8
DEFPOINTS
 62
     0
100
AcDbPoint
 10
49.00000000000005
 20
25.0
 30
0.0
  0
POINT
  5
8711
330
7918
100
AcDbEntity
  8
DEFPOINTS
 62
     0
100
AcDbPoint
 10
49.00000000000005
 20
35.21319198619852
 30
0.0
  0
ENDBLK
  5
7923
330
7918
100
AcDbEntity
  8
0
100
AcDbBlockEnd
  0
BLOCK
  5
792E
330
7924
100
AcDbEntity
  8
0
100
AcDbBlockBegin
  2
*D12
 70
     1
 10
0.0
 20
0.0
 30
0.0
  3
*D12
  1

  0
LINE
  5
86F7
330
7924
100
AcDbEntity
  8
30
 62
     0
100
AcDbLine
 10
87.99998493607615
 20
-89.99999601728335
 30
0.0
 11
125.8720095788776
 21
-89.99999601728339
 31
0.0
  0
LINE
  5
86F8
330
7924
100
AcDbEntity
  8
30
 62
     0
100
AcDbLine
 10
87.99998493607615
 20
90.00001234200977
 30
0.0
 11
125.8720095788776
 21
90.00001234200977
 31
0.0
  0
LINE
  5
86F9
330
7924
100
AcDbEntity
  8
30
 62
     0
100
AcDbLine
 10
125.3720095788777
 20
-87.99999601728336
 30
0.0
 11
125.3720095788777
 21
88.00001234200975
 31
0.0
  0
INSERT
  5
86FA
330
7924
100
AcDbEntity
  8
30
 62
     0
100
AcDbBlockReference
  2
_OPEN
 10
125.3720095788777
 20
-89.99999601728339
 30
0.0
 41
2.0
 42
2.0
 43
2.0
 50
270.0
  0
INSERT
  5
86FB
330
7924
100
AcDbEntity
  8
30
 62
     0
100
AcDbBlockReference
  2
_OPEN
 10
125.3720095788777
 20
90.00001234200977
 30
0.0
 41
2.0
 42
2.0
 43
2.0
 50
90.0
  0
MTEXT
  5
86FC
330
7924
100
AcDbEntity
  8
30
 62
     0
100
AcDbMText
 10
122.3720095788777
 20
0.0000081623632153
 30
0.0
 40
4.0
 41
0.0
 71
     5
 72
     1
  1
\A1;180
 11
0.0000000000000001
 21
1.0
 31
0.0
1001
ACAD
1000
MTEXTBEGIN
1070
    73
1070
     1
1070
    44
1040
1.0
1070
    74
1070
     0
1000
MTEXTEND
1000
MTEXTBEGIN
1070
    73
1070
     1
1070
    44
1040
1.0
1070
    74
1070
     0
1000
MTEXTEND
1000
MTEXTBEGIN
1070
    73
1070
     1
1070
    44
1040
1.0
1070
    74
1070
     0
1000
MTEXTEND
1000
MTEXTBEGIN
1070
    73
1070
     1
1070
    44
1040
1.0
1070
    74
1070
     0
1000
MTEXTEND
  0
POINT
  5
86FD
330
7924
100
AcDbEntity
  8
DEFPOINTS
 62
     0
100
AcDbPoint
 10
86.99998493607614
 20
-89.99999601728335
 30
0.0
  0
POINT
  5
86FE
330
7924
100
AcDbEntity
  8
DEFPOINTS
 62
     0
100
AcDbPoint
 10
86.99998493607614
 20
90.00001234200977
 30
0.0
  0
POINT
  5
86FF
330
7924
100
AcDbEntity
  8
DEFPOINTS
 62
     0
100
AcDbPoint
 10
125.3720095788777
 20
90.00001234200977
 30
0.0
  0
ENDBLK
  5
792F
330
7924
100
AcDbEntity
  8
0
100
AcDbBlockEnd
  0
BLOCK
  5
793A
330
7930
100
AcDbEntity
  8
0
100
AcDbBlockBegin
  2
*D13
 70
     1
 10
0.0
 20
0.0
 30
0.0
  3
*D13
  1

  0
LINE
  5
86EE
330
7930
100
AcDbEntity
  8
30
 62
     0
100
AcDbLine
 10
88.50000000000006
 20
-82.50000000000005
 30
0.0
 11
107.1220095788776
 21
-82.50000000000005
 31
0.0
  0
LINE
  5
86EF
330
7930
100
AcDbEntity
  8
30
 62
     0
100
AcDbLine
 10
88.50000000000006
 20
82.5
 30
0.0
 11
107.1220095788776
 21
82.49999999999998
 31
0.0
  0
LINE
  5
86F0
330
7930
100
AcDbEntity
  8
30
 62
     0
100
AcDbLine
 10
106.6220095788775
 20
-80.50000000000007
 30
0.0
 11
106.6220095788775
 21
80.49999999999998
 31
0.0
  0
INSERT
  5
86F1
330
7930
100
AcDbEntity
  8
30
 62
     0
100
AcDbBlockReference
  2
_OPEN
 10
106.6220095788775
 20
-82.50000000000005
 30
0.0
 41
2.0
 42
2.0
 43
2.0
 50
270.0
  0
INSERT
  5
86F2
330
7930
100
AcDbEntity
  8
30
 62
     0
100
AcDbBlockReference
  2
_OPEN
 10
106.6220095788775
 20
82.49999999999998
 30
0.0
 41
2.0
 42
2.0
 43
2.0
 50
90.0
  0
MTEXT
  5
86F3
330
7930
100
AcDbEntity
  8
30
 62
     0
100
AcDbMText
 10
103.6220095788777
 20
-0.0000000000000133
 30
0.0
 40
4.0
 41
0.0
 71
     5
 72
     1
  1
\A1;165
 11
0.0000000000000001
 21
1.0
 31
0.0
1001
ACAD
1000
MTEXTBEGIN
1070
    73
1070
     1
1070
    44
1040
1.0
1070
    74
1070
     0
1000
MTEXTEND
1000
MTEXTBEGIN
1070
    73
1070
     1
1070
    44
1040
1.0
1070
    74
1070
     0
1000
MTEXTEND
1000
MTEXTBEGIN
1070
    73
1070
     1
1070
    44
1040
1.0
1070
    74
1070
     0
1000
MTEXTEND
1000
MTEXTBEGIN
1070
    73
1070
     1
1070
    44
1040
1.0
1070
    74
1070
     0
1000
MTEXTEND
  0
POINT
  5
86F4
330
7930
100
AcDbEntity
  8
DEFPOINTS
 62
     0
100
AcDbPoint
 10
87.50000000000005
 20
-82.50000000000005
 30
0.0
  0
POINT
  5
86F5
330
7930
100
AcDbEntity
  8
DEFPOINTS
 62
     0
100
AcDbPoint
 10
87.50000000000005
 20
82.5
 30
0.0
  0
POINT
  5
86F6
330
7930
100
AcDbEntity
  8
DEFPOINTS
 62
     0
100
AcDbPoint
 10
106.6220095788775
 20
82.49999999999998
 30
0.0
  0
ENDBLK
  5
793B
330
7930
100
AcDbEntity
  8
0
100
AcDbBlockEnd
  0
BLOCK
  5
8048
330
803E
100
AcDbEntity
  8
0
100
AcDbBlockBegin
  2
*D14
 70
     1
 10
0.0
 20
0.0
 30
0.0
  3
*D14
  1

  0
LINE
  5
8763
330
803E
100
AcDbEntity
  8
30
 62
     0
100
AcDbLine
 10
-53.49999999999994
 20
-51.0
 30
0.0
 11
-80.75299098005459
 21
-50.99999999999999
 31
0.0
  0
LINE
  5
8764
330
803E
100
AcDbEntity
  8
30
 62
     0
100
AcDbLine
 10
-53.49999999999994
 20
51.0
 30
0.0
 11
-80.75299098005457
 21
51.00000000000001
 31
0.0
  0
LINE
  5
8765
330
803E
100
AcDbEntity
  8
30
 62
     0
100
AcDbLine
 10
-80.2529909800546
 20
-48.99999999999999
 30
0.0
 11
-80.25299098005456
 21
49.00000000000001
 31
0.0
  0
INSERT
  5
8766
330
803E
100
AcDbEntity
  8
30
 62
     0
100
AcDbBlockReference
  2
_OPEN
 10
-80.2529909800546
 20
-50.99999999999999
 30
0.0
 41
2.0
 42
2.0
 43
2.0
 50
270.0
  0
INSERT
  5
8767
330
803E
100
AcDbEntity
  8
30
 62
     0
100
AcDbBlockReference
  2
_OPEN
 10
-80.25299098005456
 20
51.00000000000001
 30
0.0
 41
2.0
 42
2.0
 43
2.0
 50
90.0
  0
MTEXT
  5
8768
330
803E
100
AcDbEntity
  8
30
 62
     0
100
AcDbMText
 10
-83.25299098005457
 20
-0.0000000000000089
 30
0.0
 40
4.0
 41
0.0
 71
     5
 72
     1
  1
\A1;102
 11
0.0000000000000001
 21
1.0
 31
0.0
1001
ACAD
1000
MTEXTBEGIN
1070
    73
1070
     1
1070
    44
1040
1.0
1070
    74
1070
     0
1000
MTEXTEND
1000
MTEXTBEGIN
1070
    73
1070
     1
1070
    44
1040
1.0
1070
    74
1070
     0
1000
MTEXTEND
1000
MTEXTBEGIN
1070
    73
1070
     1
1070
    44
1040
1.0
1070
    74
1070
     0
1000
MTEXTEND
1000
MTEXTBEGIN
1070
    73
1070
     1
1070
    44
1040
1.0
1070
    74
1070
     0
1000
MTEXTEND
  0
POINT
  5
8769
330
803E
100
AcDbEntity
  8
DEFPOINTS
 62
     0
100
AcDbPoint
 10
-52.49999999999993
 20
-51.0
 30
0.0
  0
POINT
  5
876A
330
803E
100
AcDbEntity
  8
DEFPOINTS
 62
     0
100
AcDbPoint
 10
-52.49999999999993
 20
51.0
 30
0.0
  0
POINT
  5
876B
330
803E
100
AcDbEntity
  8
DEFPOINTS
 62
     0
100
AcDbPoint
 10
-80.25299098005456
 20
51.00000000000001
 30
0.0
  0
ENDBLK
  5
8049
330
803E
100
AcDbEntity
  8
0
100
AcDbBlockEnd
  0
BLOCK
  5
8054
330
804A
100
AcDbEntity
  8
0
100
AcDbBlockBegin
  2
*D15
 70
     1
 10
0.0
 20
0.0
 30
0.0
  3
*D15
  1

  0
LINE
  5
9319
330
804A
100
AcDbEntity
  8
30
 62
     0
100
AcDbLine
 10
-52.5
 20
22.5
 30
0.0
 11
-66.0029909800545
 21
22.5
 31
0.0
  0
LINE
  5
931A
330
804A
100
AcDbEntity
  8
30
 62
     0
100
AcDbLine
 10
-52.5
 20
-22.5
 30
0.0
 11
-66.0029909800545
 21
-22.49999999999999
 31
0.0
  0
LINE
  5
931B
330
804A
100
AcDbEntity
  8
30
 62
     0
100
AcDbLine
 10
-65.5029909800545
 20
20.5
 30
0.0
 11
-65.5029909800545
 21
-20.49999999999998
 31
0.0
  0
INSERT
  5
931C
330
804A
100
AcDbEntity
  8
30
 62
     0
100
AcDbBlockReference
  2
_OPEN
 10
-65.5029909800545
 20
22.5
 30
0.0
 41
2.0
 42
2.0
 43
2.0
 50
90.0
  0
INSERT
  5
931D
330
804A
100
AcDbEntity
  8
30
 62
     0
100
AcDbBlockReference
  2
_OPEN
 10
-65.5029909800545
 20
-22.49999999999999
 30
0.0
 41
2.0
 42
2.0
 43
2.0
 50
270.0
  0
MTEXT
  5
931E
330
804A
100
AcDbEntity
  8
30
 62
     0
100
AcDbMText
 10
-68.5029909800545
 20
-0.0000000000000063
 30
0.0
 40
4.0
 41
0.0
 71
     5
 72
     1
  1
\A1;45
 11
0.0000000000000001
 21
1.0
 31
0.0
1001
ACAD
1000
MTEXTBEGIN
1070
    73
1070
     1
1070
    44
1040
1.0
1070
    74
1070
     0
1000
MTEXTEND
1000
MTEXTBEGIN
1070
    73
1070
     1
1070
    44
1040
1.0
1070
    74
1070
     0
1000
MTEXTEND
  0
POINT
  5
931F
330
804A
100
AcDbEntity
  8
DEFPOINTS
 62
     0
100
AcDbPoint
 10
-51.5
 20
22.5
 30
0.0
  0
POINT
  5
9320
330
804A
100
AcDbEntity
  8
DEFPOINTS
 62
     0
100
AcDbPoint
 10
-51.5
 20
-22.5
 30
0.0
  0
POINT
  5
9321
330
804A
100
AcDbEntity
  8
DEFPOINTS
 62
     0
100
AcDbPoint
 10
-65.5029909800545
 20
-22.49999999999999
 30
0.0
  0
ENDBLK
  5
8055
330
804A
100
AcDbEntity
  8
0
100
AcDbBlockEnd
  0
BLOCK
  5
806C
330
8062
100
AcDbEntity
  8
0
100
AcDbBlockBegin
  2
*D16
 70
     1
 10
0.0
 20
0.0
 30
0.0
  3
*D16
  1

  0
LINE
  5
90EC
330
8062
100
AcDbEntity
  8
30
 62
     0
100
AcDbLine
 10
179.8314477495724
 20
-3.500000016499996
 30
0.0
 11
179.8314477495724
 21
-130.4999999999999
 31
0.0
  0
LINE
  5
90ED
330
8062
100
AcDbEntity
  8
30
 62
     0
100
AcDbLine
 10
354.8314483638288
 20
-90.99999206798292
 30
0.0
 11
354.8314483638288
 21
-130.4999999999999
 31
0.0
  0
LINE
  5
90EE
330
8062
100
AcDbEntity
  8
30
 62
     0
100
AcDbLine
 10
181.8314477495724
 20
-130.0
 30
0.0
 11
352.8314483638288
 21
-130.0
 31
0.0
  0
INSERT
  5
90EF
330
8062
100
AcDbEntity
  8
30
 62
     0
100
AcDbBlockReference
  2
_OPEN
 10
179.8314477495724
 20
-130.0
 30
0.0
 41
2.0
 42
2.0
 43
2.0
 50
180.0
  0
INSERT
  5
90F0
330
8062
100
AcDbEntity
  8
30
 62
     0
100
AcDbBlockReference
  2
_OPEN
 10
354.8314483638288
 20
-130.0
 30
0.0
 41
2.0
 42
2.0
 43
2.0
  0
MTEXT
  5
90F1
330
8062
100
AcDbEntity
  8
30
 62
     0
100
AcDbMText
 10
267.3314480567007
 20
-127.0
 30
0.0
 40
4.0
 41
0.0
 71
     5
 72
     1
  1
\A1;175
1001
ACAD
1000
MTEXTBEGIN
1070
    73
1070
     1
1070
    44
1040
1.0
1070
    74
1070
     0
1000
MTEXTEND
1000
MTEXTBEGIN
1070
    73
1070
     1
1070
    44
1040
1.0
1070
    74
1070
     0
1000
MTEXTEND
1000
MTEXTBEGIN
1070
    73
1070
     1
1070
    44
1040
1.0
1070
    74
1070
     0
1000
MTEXTEND
1000
MTEXTBEGIN
1070
    73
1070
     1
1070
    44
1040
1.0
1070
    74
1070
     0
1000
MTEXTEND
  0
POINT
  5
90F2
330
8062
100
AcDbEntity
  8
DEFPOINTS
 62
     0
100
AcDbPoint
 10
179.8314477495724
 20
-2.500000016499996
 30
0.0
  0
POINT
  5
90F3
330
8062
100
AcDbEntity
  8
DEFPOINTS
 62
     0
100
AcDbPoint
 10
354.8314483638288
 20
-89.99999206798291
 30
0.0
  0
POINT
  5
90F4
330
8062
100
AcDbEntity
  8
DEFPOINTS
 62
     0
100
AcDbPoint
 10
354.8314483638288
 20
-130.0
 30
0.0
  0
ENDBLK
  5
806D
330
8062
100
AcDbEntity
  8
0
100
AcDbBlockEnd
  0
BLOCK
  5
8078
330
806E
100
AcDbEntity
  8
0
100
AcDbBlockBegin
  2
*D17
 70
     1
 10
0.0
 20
0.0
 30
0.0
  3
*D17
  1

  0
LINE
  5
932C
330
806E
100
AcDbEntity
  8
30
 62
     0
100
AcDbLine
 10
199.8314477495726
 20
-23.5
 30
0.0
 11
199.8314477495726
 21
-120.5
 31
0.0
  0
LINE
  5
932D
330
806E
100
AcDbEntity
  8
30
 62
     0
100
AcDbLine
 10
354.8314483638288
 20
-90.9999920679829
 30
0.0
 11
354.8314483638288
 21
-120.5
 31
0.0
  0
LINE
  5
932E
330
806E
100
AcDbEntity
  8
30
 62
     0
100
AcDbLine
 10
201.8314477495724
 20
-120.0
 30
0.0
 11
352.8314483638288
 21
-120.0
 31
0.0
  0
INSERT
  5
932F
330
806E
100
AcDbEntity
  8
30
 62
     0
100
AcDbBlockReference
  2
_OPEN
 10
199.8314477495726
 20
-120.0
 30
0.0
 41
2.0
 42
2.0
 43
2.0
 50
180.0
  0
INSERT
  5
9330
330
806E
100
AcDbEntity
  8
30
 62
     0
100
AcDbBlockReference
  2
_OPEN
 10
354.8314483638288
 20
-120.0
 30
0.0
 41
2.0
 42
2.0
 43
2.0
  0
MTEXT
  5
9331
330
806E
100
AcDbEntity
  8
30
 62
     0
100
AcDbMText
 10
277.3314480567007
 20
-117.0
 30
0.0
 40
4.0
 41
0.0
 71
     5
 72
     1
  1
\A1;155
1001
ACAD
1000
MTEXTBEGIN
1070
    73
1070
     1
1070
    44
1040
1.0
1070
    74
1070
     0
1000
MTEXTEND
1000
MTEXTBEGIN
1070
    73
1070
     1
1070
    44
1040
1.0
1070
    74
1070
     0
1000
MTEXTEND
  0
POINT
  5
9332
330
806E
100
AcDbEntity
  8
DEFPOINTS
 62
     0
100
AcDbPoint
 10
199.8314477495726
 20
-22.5
 30
0.0
  0
POINT
  5
9333
330
806E
100
AcDbEntity
  8
DEFPOINTS
 62
     0
100
AcDbPoint
 10
354.8314483638288
 20
-89.99999206798291
 30
0.0
  0
POINT
  5
9334
330
806E
100
AcDbEntity
  8
DEFPOINTS
 62
     0
100
AcDbPoint
 10
354.8314483638288
 20
-120.0
 30
0.0
  0
ENDBLK
  5
8079
330
806E
100
AcDbEntity
  8
0
100
AcDbBlockEnd
  0
BLOCK
  5
8085
330
807A
100
AcDbEntity
  8
0
100
AcDbBlockBegin
  2
*D18
 70
     1
 10
0.0
 20
0.0
 30
0.0
  3
*D18
  1

  0
LINE
  5
9322
330
807A
100
AcDbEntity
  8
30
 62
     0
100
AcDbLine
 10
195.8314477495724
 20
-23.5
 30
0.0
 11
195.8314477495724
 21
-120.5
 31
0.0
  0
LINE
  5
9323
330
807A
100
AcDbEntity
  8
30
 62
     0
100
AcDbLine
 10
199.8314477495726
 20
-23.5
 30
0.0
 11
199.8314477495726
 21
-120.5
 31
0.0
  0
LINE
  5
9324
330
807A
100
AcDbEntity
  8
30
 62
     0
100
AcDbLine
 10
193.8314477495724
 20
-120.0
 30
0.0
 11
191.8314477495724
 21
-120.0
 31
0.0
  0
LINE
  5
9325
330
807A
100
AcDbEntity
  8
30
 62
     0
100
AcDbLine
 10
201.8314477495724
 20
-120.0
 30
0.0
 11
208.4981144162392
 21
-120.0
 31
0.0
  0
INSERT
  5
9326
330
807A
100
AcDbEntity
  8
30
 62
     0
100
AcDbBlockReference
  2
_OPEN
 10
195.8314477495724
 20
-120.0
 30
0.0
 41
2.0
 42
2.0
 43
2.0
  0
INSERT
  5
9327
330
807A
100
AcDbEntity
  8
30
 62
     0
100
AcDbBlockReference
  2
_OPEN
 10
199.8314477495726
 20
-120.0
 30
0.0
 41
2.0
 42
2.0
 43
2.0
 50
180.0
  0
MTEXT
  5
9328
330
807A
100
AcDbEntity
  8
30
 62
     0
100
AcDbMText
 10
206.1647810829059
 20
-117.0
 30
0.0
 40
4.0
 41
0.0
 71
     5
 72
     1
  1
\A1;4
1001
ACAD
1000
MTEXTBEGIN
1070
    73
1070
     1
1070
    44
1040
1.0
1070
    74
1070
     0
1000
MTEXTEND
1000
MTEXTBEGIN
1070
    73
1070
     1
1070
    44
1040
1.0
1070
    74
1070
     0
1000
MTEXTEND
  0
POINT
  5
9329
330
807A
100
AcDbEntity
  8
DEFPOINTS
 62
     0
100
AcDbPoint
 10
195.8314477495724
 20
-22.5
 30
0.0
  0
POINT
  5
932A
330
807A
100
AcDbEntity
  8
DEFPOINTS
 62
     0
100
AcDbPoint
 10
199.8314477495726
 20
-22.5
 30
0.0
  0
POINT
  5
932B
330
807A
100
AcDbEntity
  8
DEFPOINTS
 62
     0
100
AcDbPoint
 10
199.8314477495726
 20
-120.0
 30
0.0
  0
ENDBLK
  5
8086
330
807A
100
AcDbEntity
  8
0
100
AcDbBlockEnd
  0
BLOCK
  5
8091
330
8087
100
AcDbEntity
  8
0
100
AcDbBlockBegin
  2
*D19
 70
     1
 10
0.0
 20
0.0
 30
0.0
  3
*D19
  1

  0
LINE
  5
9074
330
8087
100
AcDbEntity
  8
30
 62
     0
100
AcDbLine
 10
354.8314483638288
 20
-53.9999976631225
 30
0.0
 11
354.8314483638288
 21
-109.4999999999999
 31
0.0
  0
LINE
  5
9075
330
8087
100
AcDbEntity
  8
30
 62
     0
100
AcDbLine
 10
381.83144719539
 20
-87.9999930516942
 30
0.0
 11
381.83144719539
 21
-109.4999999999999
 31
0.0
  0
LINE
  5
9076
330
8087
100
AcDbEntity
  8
30
 62
     0
100
AcDbLine
 10
356.8314483638288
 20
-108.9999999999996
 30
0.0
 11
379.83144719539
 21
-108.9999999999996
 31
0.0
  0
INSERT
  5
9077
330
8087
100
AcDbEntity
  8
30
 62
     0
100
AcDbBlockReference
  2
_OPEN
 10
354.8314483638288
 20
-108.9999999999996
 30
0.0
 41
2.0
 42
2.0
 43
2.0
 50
180.0
  0
INSERT
  5
9078
330
8087
100
AcDbEntity
  8
30
 62
     0
100
AcDbBlockReference
  2
_OPEN
 10
381.83144719539
 20
-108.9999999999996
 30
0.0
 41
2.0
 42
2.0
 43
2.0
  0
MTEXT
  5
9079
330
8087
100
AcDbEntity
  8
30
 62
     0
100
AcDbMText
 10
368.3314477796096
 20
-105.9999999999996
 30
0.0
 40
4.0
 41
0.0
 71
     5
 72
     1
  1
\A1;27
1001
ACAD
1000
MTEXTBEGIN
1070
    73
1070
     1
1070
    44
1040
1.0
1070
    74
1070
     0
1000
MTEXTEND
1000
MTEXTBEGIN
1070
    73
1070
     1
1070
    44
1040
1.0
1070
    74
1070
     0
1000
MTEXTEND
1000
MTEXTBEGIN
1070
    73
1070
     1
1070
    44
1040
1.0
1070
    74
1070
     0
1000
MTEXTEND
1000
MTEXTBEGIN
1070
    73
1070
     1
1070
    44
1040
1.0
1070
    74
1070
     0
1000
MTEXTEND
  0
POINT
  5
907A
330
8087
100
AcDbEntity
  8
DEFPOINTS
 62
     0
100
AcDbPoint
 10
354.8314483638288
 20
-52.9999976631225
 30
0.0
  0
POINT
  5
907B
330
8087
100
AcDbEntity
  8
DEFPOINTS
 62
     0
100
AcDbPoint
 10
381.83144719539
 20
-86.99999305169422
 30
0.0
  0
POINT
  5
907C
330
8087
100
AcDbEntity
  8
DEFPOINTS
 62
     0
100
AcDbPoint
 10
381.83144719539
 20
-108.9999999999996
 30
0.0
  0
ENDBLK
  5
8092
330
8087
100
AcDbEntity
  8
0
100
AcDbBlockEnd
  0
BLOCK
  5
809D
330
8093
100
AcDbEntity
  8
0
100
AcDbBlockBegin
  2
*D20
 70
     1
 10
0.0
 20
0.0
 30
0.0
  3
*D20
  1

  0
LINE
  5
90DA
330
8093
100
AcDbEntity
  8
30
 62
     0
100
AcDbLine
 10
203.8314477495724
 20
-52.0
 30
0.0
 11
203.8314477495724
 21
-110.4999999999999
 31
0.0
  0
LINE
  5
90DB
330
8093
100
AcDbEntity
  8
30
 62
     0
100
AcDbLine
 10
354.8314483638288
 20
-90.99999206798292
 30
0.0
 11
354.8314483638288
 21
-110.4999999999999
 31
0.0
  0
LINE
  5
90DC
330
8093
100
AcDbEntity
  8
30
 62
     0
100
AcDbLine
 10
205.8314477495724
 20
-110.0
 30
0.0
 11
352.8314483638288
 21
-110.0
 31
0.0
  0
INSERT
  5
90DD
330
8093
100
AcDbEntity
  8
30
 62
     0
100
AcDbBlockReference
  2
_OPEN
 10
203.8314477495724
 20
-110.0
 30
0.0
 41
2.0
 42
2.0
 43
2.0
 50
180.0
  0
INSERT
  5
90DE
330
8093
100
AcDbEntity
  8
30
 62
     0
100
AcDbBlockReference
  2
_OPEN
 10
354.8314483638288
 20
-110.0
 30
0.0
 41
2.0
 42
2.0
 43
2.0
  0
MTEXT
  5
90DF
330
8093
100
AcDbEntity
  8
30
 62
     0
100
AcDbMText
 10
279.3314480567008
 20
-107.0
 30
0.0
 40
4.0
 41
0.0
 71
     5
 72
     1
  1
\A1;151
1001
ACAD
1000
MTEXTBEGIN
1070
    73
1070
     1
1070
    44
1040
1.0
1070
    74
1070
     0
1000
MTEXTEND
1000
MTEXTBEGIN
1070
    73
1070
     1
1070
    44
1040
1.0
1070
    74
1070
     0
1000
MTEXTEND
1000
MTEXTBEGIN
1070
    73
1070
     1
1070
    44
1040
1.0
1070
    74
1070
     0
1000
MTEXTEND
1000
MTEXTBEGIN
1070
    73
1070
     1
1070
    44
1040
1.0
1070
    74
1070
     0
1000
MTEXTEND
  0
POINT
  5
90E0
330
8093
100
AcDbEntity
  8
DEFPOINTS
 62
     0
100
AcDbPoint
 10
203.8314477495724
 20
-51.0
 30
0.0
  0
POINT
  5
90E1
330
8093
100
AcDbEntity
  8
DEFPOINTS
 62
     0
100
AcDbPoint
 10
354.8314483638288
 20
-89.99999206798291
 30
0.0
  0
POINT
  5
90E2
330
8093
100
AcDbEntity
  8
DEFPOINTS
 62
     0
100
AcDbPoint
 10
354.8314483638288
 20
-110.0
 30
0.0
  0
ENDBLK
  5
809E
330
8093
100
AcDbEntity
  8
0
100
AcDbBlockEnd
  0
BLOCK
  5
80B5
330
80AB
100
AcDbEntity
  8
0
100
AcDbBlockBegin
  2
*D21
 70
     1
 10
0.0
 20
0.0
 30
0.0
  3
*D21
  1

  0
LINE
  5
90D1
330
80AB
100
AcDbEntity
  8
30
 62
     0
100
AcDbLine
 10
210.8314477495726
 20
-83.50000000000004
 30
0.0
 11
210.8314477495726
 21
-100.5
 31
0.0
  0
LINE
  5
90D2
330
80AB
100
AcDbEntity
  8
30
 62
     0
100
AcDbLine
 10
306.8314477495726
 20
-83.49999999999999
 30
0.0
 11
306.8314477495726
 21
-100.5
 31
0.0
  0
LINE
  5
90D3
330
80AB
100
AcDbEntity
  8
30
 62
     0
100
AcDbLine
 10
212.8314477495726
 20
-100.0
 30
0.0
 11
304.8314477495726
 21
-100.0
 31
0.0
  0
INSERT
  5
90D4
330
80AB
100
AcDbEntity
  8
30
 62
     0
100
AcDbBlockReference
  2
_OPEN
 10
210.8314477495726
 20
-100.0
 30
0.0
 41
2.0
 42
2.0
 43
2.0
 50
180.0
  0
INSERT
  5
90D5
330
80AB
100
AcDbEntity
  8
30
 62
     0
100
AcDbBlockReference
  2
_OPEN
 10
306.8314477495726
 20
-100.0
 30
0.0
 41
2.0
 42
2.0
 43
2.0
  0
MTEXT
  5
90D6
330
80AB
100
AcDbEntity
  8
30
 62
     0
100
AcDbMText
 10
258.8314477495726
 20
-97.0
 30
0.0
 40
4.0
 41
0.0
 71
     5
 72
     1
  1
\A1;96
1001
ACAD
1000
MTEXTBEGIN
1070
    73
1070
     1
1070
    44
1040
1.0
1070
    74
1070
     0
1000
MTEXTEND
1000
MTEXTBEGIN
1070
    73
1070
     1
1070
    44
1040
1.0
1070
    74
1070
     0
1000
MTEXTEND
1000
MTEXTBEGIN
1070
    73
1070
     1
1070
    44
1040
1.0
1070
    74
1070
     0
1000
MTEXTEND
1000
MTEXTBEGIN
1070
    73
1070
     1
1070
    44
1040
1.0
1070
    74
1070
     0
1000
MTEXTEND
  0
POINT
  5
90D7
330
80AB
100
AcDbEntity
  8
DEFPOINTS
 62
     0
100
AcDbPoint
 10
210.8314477495726
 20
-82.50000000000005
 30
0.0
  0
POINT
  5
90D8
330
80AB
100
AcDbEntity
  8
DEFPOINTS
 62
     0
100
AcDbPoint
 10
306.8314477495726
 20
-82.5
 30
0.0
  0
POINT
  5
90D9
330
80AB
100
AcDbEntity
  8
DEFPOINTS
 62
     0
100
AcDbPoint
 10
306.8314477495726
 20
-100.0
 30
0.0
  0
ENDBLK
  5
80B6
330
80AB
100
AcDbEntity
  8
0
100
AcDbBlockEnd
  0
BLOCK
  5
83BE
330
83B7
100
AcDbEntity
  8
TOP
  6
CONTINUOUS
 62
     4
100
AcDbBlockBegin
  2
*U22
 70
     1
 10
0.0
 20
0.0
 30
0.0
  3
*U22
  1

  0
LINE
  5
83B8
330
83B7
100
AcDbEntity
  8
1
  6
BYBLOCK
 62
     0
100
AcDbLine
 10
486.4511961722488
 20
105.6647231970204
 30
0.0
 11
486.4511961722488
 21
68.9999999896
 31
0.0
  0
LINE
  5
83B9
330
83B7
100
AcDbEntity
  8
1
  6
BYBLOCK
 62
     0
100
AcDbLine
 10
493.4511961722487
 20
76.66472320362058
 30
0.0
 11
493.4511961722487
 21
68.9999999896
 31
0.0
  0
LINE
  5
83BA
330
83B7
100
AcDbEntity
  8
1
  6
BYBLOCK
 62
     0
100
AcDbLine
 10
499.7011961817488
 20
69.9999999962
 30
0.0
 11
476.7741128140463
 21
69.9999999962
 31
0.0
  0
SOLID
  5
83BB
330
83B7
100
AcDbEntity
  8
1
  6
BYBLOCK
 62
     0
100
AcDbTrace
 10
486.4511961722488
 20
69.9999999962
 30
0.0
 11
484.4511961590488
 21
69.66666666066664
 31
0.0
 12
484.4511961590488
 22
70.33333333173334
 32
0.0
 13
484.4511961590488
 23
70.33333333173334
 33
0.0
  0
SOLID
  5
83BC
330
83B7
100
AcDbEntity
  8
1
  6
BYBLOCK
 62
     0
100
AcDbTrace
 10
493.4511961722487
 20
69.9999999962
 30
0.0
 11
495.4511961854488
 21
70.33333333173334
 31
0.0
 12
495.4511961854488
 22
69.66666666066664
 32
0.0
 13
495.4511961854488
 23
69.66666666066664
 33
0.0
  0
TEXT
  5
83BD
330
83B7
100
AcDbEntity
  8
TOP
  6
BYBLOCK
 62
     0
100
AcDbText
 10
476.7741128140463
 20
71.2499999981
 30
0.0
 40
2.500000003799998
  1
17.5
 41
0.8374999999999969
  7
UGMTXT
100
AcDbText
  0
ENDBLK
  5
83BF
330
83B7
100
AcDbEntity
  8
0
100
AcDbBlockEnd
  0
BLOCK
  5
83DB
330
83D6
100
AcDbEntity
  8
TOP
  6
CONTINUOUS
 62
     3
100
AcDbBlockBegin
  2
*U23
 70
     1
 10
0.0
 20
0.0
 30
0.0
  3
*U23
  1

  0
LINE
  5
83D7
330
83D6
100
AcDbEntity
  8
1
  6
BYBLOCK
 62
     0
100
AcDbLine
 10
548.3527638488361
 20
74.64070630641497
 30
0.0
 11
522.3527638488361
 21
74.64070630641497
 31
0.0
  0
LINE
  5
83D8
330
83D6
100
AcDbEntity
  8
1
  6
BYBLOCK
 62
     0
100
AcDbLine
 10
517.8511961722488
 20
100.6647232036204
 30
0.0
 11
522.3527638488361
 21
74.64070630641497
 31
0.0
  0
SOLID
  5
83D9
330
83D6
100
AcDbEntity
  8
1
  6
BYBLOCK
 62
     0
100
AcDbTrace
 10
517.8511961722488
 20
100.6647232036204
 30
0.0
 11
518.5205443376235
 21
98.75080465810007
 31
0.0
 12
517.8636330166235
 22
98.63717382314177
 32
0.0
 13
517.8636330166235
 23
98.63717382314177
 33
0.0
  0
TEXT
  5
83DA
330
83D6
100
AcDbEntity
  8
TOP
  6
BYBLOCK
 62
     0
100
AcDbText
 10
548.3527638488361
 20
73.14070629651499
 30
0.0
 40
3.000000019799997
  1
 
 41
1.189062500000023
  7
UGMTXT
100
AcDbText
  0
ENDBLK
  5
83DC
330
83D6
100
AcDbEntity
  8
0
100
AcDbBlockEnd
  0
BLOCK
  5
8543
330
8539
100
AcDbEntity
  8
0
100
AcDbBlockBegin
  2
*D24
 70
     1
 10
0.0
 20
0.0
 30
0.0
  3
*D24
  1

  0
LINE
  5
8847
330
8539
100
AcDbEntity
  8
30
 62
     0
100
AcDbLine
 10
45.00000000000023
 20
-336.0
 30
0.0
 11
45.00000000000023
 21
-439.6618080185514
 31
0.0
  0
LINE
  5
8848
330
8539
100
AcDbEntity
  8
30
 62
     0
100
AcDbLine
 10
59.99999999999978
 20
-336.0
 30
0.0
 11
59.99999999999978
 21
-439.6618080185514
 31
0.0
  0
LINE
  5
8849
330
8539
100
AcDbEntity
  8
30
 62
     0
100
AcDbLine
 10
47.00000000000023
 20
-439.1618080185514
 30
0.0
 11
57.99999999999978
 21
-439.1618080185514
 31
0.0
  0
INSERT
  5
884A
330
8539
100
AcDbEntity
  8
30
 62
     0
100
AcDbBlockReference
  2
_OPEN
 10
45.00000000000023
 20
-439.1618080185514
 30
0.0
 41
2.0
 42
2.0
 43
2.0
 50
180.0
  0
INSERT
  5
884B
330
8539
100
AcDbEntity
  8
30
 62
     0
100
AcDbBlockReference
  2
_OPEN
 10
59.99999999999978
 20
-439.1618080185514
 30
0.0
 41
2.0
 42
2.0
 43
2.0
  0
MTEXT
  5
884C
330
8539
100
AcDbEntity
  8
30
 62
     0
100
AcDbMText
 10
52.5
 20
-436.1618080185514
 30
0.0
 40
4.0
 41
0.0
 71
     5
 72
     1
  1
\A1;15
1001
ACAD
1000
MTEXTBEGIN
1070
    73
1070
     1
1070
    44
1040
1.0
1070
    74
1070
     0
1000
MTEXTEND
1000
MTEXTBEGIN
1070
    73
1070
     1
1070
    44
1040
1.0
1070
    74
1070
     0
1000
MTEXTEND
1000
MTEXTBEGIN
1070
    73
1070
     1
1070
    44
1040
1.0
1070
    74
1070
     0
1000
MTEXTEND
1000
MTEXTBEGIN
1070
    73
1070
     1
1070
    44
1040
1.0
1070
    74
1070
     0
1000
MTEXTEND
  0
POINT
  5
884D
330
8539
100
AcDbEntity
  8
DEFPOINTS
 62
     0
100
AcDbPoint
 10
45.00000000000023
 20
-335.0
 30
0.0
  0
POINT
  5
884E
330
8539
100
AcDbEntity
  8
DEFPOINTS
 62
     0
100
AcDbPoint
 10
59.99999999999978
 20
-335.0
 30
0.0
  0
POINT
  5
884F
330
8539
100
AcDbEntity
  8
DEFPOINTS
 62
     0
100
AcDbPoint
 10
59.99999999999978
 20
-439.1618080185514
 30
0.0
  0
ENDBLK
  5
8544
330
8539
100
AcDbEntity
  8
0
100
AcDbBlockEnd
  0
BLOCK
  5
854F
330
8545
100
AcDbEntity
  8
0
100
AcDbBlockBegin
  2
*D25
 70
     1
 10
0.0
 20
0.0
 30
0.0
  3
*D25
  1

  0
LINE
  5
883E
330
8545
100
AcDbEntity
  8
30
 62
     0
100
AcDbLine
 10
-17.49999999999976
 20
-351.0000000165001
 30
0.0
 11
-17.49999999999976
 21
-458.4118080185515
 31
0.0
  0
LINE
  5
883F
330
8545
100
AcDbEntity
  8
30
 62
     0
100
AcDbLine
 10
52.49999999999978
 20
-351.0000000165001
 30
0.0
 11
52.49999999999978
 21
-458.4118080185515
 31
0.0
  0
LINE
  5
8840
330
8545
100
AcDbEntity
  8
30
 62
     0
100
AcDbLine
 10
-15.49999999999974
 20
-457.9118080185515
 30
0.0
 11
50.49999999999978
 21
-457.9118080185515
 31
0.0
  0
INSERT
  5
8841
330
8545
100
AcDbEntity
  8
30
 62
     0
100
AcDbBlockReference
  2
_OPEN
 10
-17.49999999999976
 20
-457.9118080185515
 30
0.0
 41
2.0
 42
2.0
 43
2.0
 50
180.0
  0
INSERT
  5
8842
330
8545
100
AcDbEntity
  8
30
 62
     0
100
AcDbBlockReference
  2
_OPEN
 10
52.49999999999978
 20
-457.9118080185515
 30
0.0
 41
2.0
 42
2.0
 43
2.0
  0
MTEXT
  5
8843
330
8545
100
AcDbEntity
  8
30
 62
     0
100
AcDbMText
 10
17.5
 20
-454.9118080185515
 30
0.0
 40
4.0
 41
0.0
 71
     5
 72
     1
  1
\A1;70
1001
ACAD
1000
MTEXTBEGIN
1070
    73
1070
     1
1070
    44
1040
1.0
1070
    74
1070
     0
1000
MTEXTEND
1000
MTEXTBEGIN
1070
    73
1070
     1
1070
    44
1040
1.0
1070
    74
1070
     0
1000
MTEXTEND
1000
MTEXTBEGIN
1070
    73
1070
     1
1070
    44
1040
1.0
1070
    74
1070
     0
1000
MTEXTEND
1000
MTEXTBEGIN
1070
    73
1070
     1
1070
    44
1040
1.0
1070
    74
1070
     0
1000
MTEXTEND
  0
POINT
  5
8844
330
8545
100
AcDbEntity
  8
DEFPOINTS
 62
     0
100
AcDbPoint
 10
-17.49999999999976
 20
-350.0000000165001
 30
0.0
  0
POINT
  5
8845
330
8545
100
AcDbEntity
  8
DEFPOINTS
 62
     0
100
AcDbPoint
 10
52.49999999999978
 20
-350.0000000165001
 30
0.0
  0
POINT
  5
8846
330
8545
100
AcDbEntity
  8
DEFPOINTS
 62
     0
100
AcDbPoint
 10
52.49999999999978
 20
-457.9118080185515
 30
0.0
  0
ENDBLK
  5
8550
330
8545
100
AcDbEntity
  8
0
100
AcDbBlockEnd
  0
BLOCK
  5
855B
330
8551
100
AcDbEntity
  8
0
100
AcDbBlockBegin
  2
*D26
 70
     1
 10
0.0
 20
0.0
 30
0.0
  3
*D26
  1

  0
LINE
  5
8835
330
8551
100
AcDbEntity
  8
30
 62
     0
100
AcDbLine
 10
60.99999999999979
 20
-335.0
 30
0.0
 11
101.2470095741279
 21
-335.0
 31
0.0
  0
LINE
  5
8836
330
8551
100
AcDbEntity
  8
30
 62
     0
100
AcDbLine
 10
60.99999999999979
 20
-285.0
 30
0.0
 11
101.2470095741279
 21
-285.0
 31
0.0
  0
LINE
  5
8837
330
8551
100
AcDbEntity
  8
30
 62
     0
100
AcDbLine
 10
100.747009574128
 20
-333.0
 30
0.0
 11
100.747009574128
 21
-287.0
 31
0.0
  0
INSERT
  5
8838
330
8551
100
AcDbEntity
  8
30
 62
     0
100
AcDbBlockReference
  2
_OPEN
 10
100.747009574128
 20
-335.0
 30
0.0
 41
2.0
 42
2.0
 43
2.0
 50
270.0
  0
INSERT
  5
8839
330
8551
100
AcDbEntity
  8
30
 62
     0
100
AcDbBlockReference
  2
_OPEN
 10
100.747009574128
 20
-285.0
 30
0.0
 41
2.0
 42
2.0
 43
2.0
 50
90.0
  0
MTEXT
  5
883A
330
8551
100
AcDbEntity
  8
30
 62
     0
100
AcDbMText
 10
97.74700957412807
 20
-310.0
 30
0.0
 40
4.0
 41
0.0
 71
     5
 72
     1
  1
\A1;50
 11
0.0000000000000001
 21
1.0
 31
0.0
1001
ACAD
1000
MTEXTBEGIN
1070
    73
1070
     1
1070
    44
1040
1.0
1070
    74
1070
     0
1000
MTEXTEND
1000
MTEXTBEGIN
1070
    73
1070
     1
1070
    44
1040
1.0
1070
    74
1070
     0
1000
MTEXTEND
1000
MTEXTBEGIN
1070
    73
1070
     1
1070
    44
1040
1.0
1070
    74
1070
     0
1000
MTEXTEND
1000
MTEXTBEGIN
1070
    73
1070
     1
1070
    44
1040
1.0
1070
    74
1070
     0
1000
MTEXTEND
  0
POINT
  5
883B
330
8551
100
AcDbEntity
  8
DEFPOINTS
 62
     0
100
AcDbPoint
 10
59.99999999999978
 20
-335.0
 30
0.0
  0
POINT
  5
883C
330
8551
100
AcDbEntity
  8
DEFPOINTS
 62
     0
100
AcDbPoint
 10
59.99999999999978
 20
-285.0
 30
0.0
  0
POINT
  5
883D
330
8551
100
AcDbEntity
  8
DEFPOINTS
 62
     0
100
AcDbPoint
 10
100.747009574128
 20
-285.0
 30
0.0
  0
ENDBLK
  5
855C
330
8551
100
AcDbEntity
  8
0
100
AcDbBlockEnd
  0
BLOCK
  5
8567
330
855D
100
AcDbEntity
  8
0
100
AcDbBlockBegin
  2
*D27
 70
     1
 10
0.0
 20
0.0
 30
0.0
  3
*D27
  1

  0
LINE
  5
88AB
330
855D
100
AcDbEntity
  8
30
 62
     0
100
AcDbLine
 10
56.00000001649984
 20
-347.5000000000001
 30
0.0
 11
120.747009574128
 21
-347.5000000000001
 31
0.0
  0
LINE
  5
88AC
330
855D
100
AcDbEntity
  8
30
 62
     0
100
AcDbLine
 10
56.00000001649984
 20
-272.5
 30
0.0
 11
120.747009574128
 21
-272.5
 31
0.0
  0
LINE
  5
88AD
330
855D
100
AcDbEntity
  8
30
 62
     0
100
AcDbLine
 10
120.2470095741279
 20
-345.5000000000001
 30
0.0
 11
120.2470095741279
 21
-274.5
 31
0.0
  0
INSERT
  5
88AE
330
855D
100
AcDbEntity
  8
30
 62
     0
100
AcDbBlockReference
  2
_OPEN
 10
120.2470095741279
 20
-347.5000000000001
 30
0.0
 41
2.0
 42
2.0
 43
2.0
 50
270.0
  0
INSERT
  5
88AF
330
855D
100
AcDbEntity
  8
30
 62
     0
100
AcDbBlockReference
  2
_OPEN
 10
120.2470095741279
 20
-272.5
 30
0.0
 41
2.0
 42
2.0
 43
2.0
 50
90.0
  0
MTEXT
  5
88B0
330
855D
100
AcDbEntity
  8
30
 62
     0
100
AcDbMText
 10
117.247009574128
 20
-310.0000000000001
 30
0.0
 40
4.0
 41
0.0
 71
     5
 72
     1
  1
\A1;75
 11
0.0000000000000001
 21
1.0
 31
0.0
1001
ACAD
1000
MTEXTBEGIN
1070
    73
1070
     1
1070
    44
1040
1.0
1070
    74
1070
     0
1000
MTEXTEND
1000
MTEXTBEGIN
1070
    73
1070
     1
1070
    44
1040
1.0
1070
    74
1070
     0
1000
MTEXTEND
1000
MTEXTBEGIN
1070
    73
1070
     1
1070
    44
1040
1.0
1070
    74
1070
     0
1000
MTEXTEND
1000
MTEXTBEGIN
1070
    73
1070
     1
1070
    44
1040
1.0
1070
    74
1070
     0
1000
MTEXTEND
  0
POINT
  5
88B1
330
855D
100
AcDbEntity
  8
DEFPOINTS
 62
     0
100
AcDbPoint
 10
55.00000001649985
 20
-347.5000000000001
 30
0.0
  0
POINT
  5
88B2
330
855D
100
AcDbEntity
  8
DEFPOINTS
 62
     0
100
AcDbPoint
 10
55.00000001649985
 20
-272.5
 30
0.0
  0
POINT
  5
88B3
330
855D
100
AcDbEntity
  8
DEFPOINTS
 62
     0
100
AcDbPoint
 10
120.2470095741279
 20
-272.5
 30
0.0
  0
ENDBLK
  5
8568
330
855D
100
AcDbEntity
  8
0
100
AcDbBlockEnd
  0
BLOCK
  5
90A7
330
909D
100
AcDbEntity
  8
0
100
AcDbBlockBegin
  2
*D28
 70
     1
 10
0.0
 20
0.0
 30
0.0
  3
*D28
  1

  0
LINE
  5
90C8
330
909D
100
AcDbEntity
  8
30
  6
CONTINUOUS
 62
     0
100
AcDbLine
 10
382.3314534971498
 20
53.99999766312247
 30
0.0
 11
390.5
 21
53.99999766312247
 31
0.0
  0
LINE
  5
90C9
330
909D
100
AcDbEntity
  8
30
  6
CONTINUOUS
 62
     0
100
AcDbLine
 10
382.3314534971498
 20
-53.99999137073473
 30
0.0
 11
390.5
 21
-53.99999137073473
 31
0.0
  0
LINE
  5
90CA
330
909D
100
AcDbEntity
  8
30
  6
CONTINUOUS
 62
     0
100
AcDbLine
 10
390.0
 20
51.99999766312249
 30
0.0
 11
390.0
 21
-51.99999137073473
 31
0.0
  0
INSERT
  5
90CB
330
909D
100
AcDbEntity
  8
30
  6
CONTINUOUS
 62
     0
100
AcDbBlockReference
  2
_OPEN
 10
390.0
 20
53.99999766312247
 30
0.0
 41
2.0
 42
2.0
 43
2.0
 50
90.0
  0
INSERT
  5
90CC
330
909D
100
AcDbEntity
  8
30
  6
CONTINUOUS
 62
     0
100
AcDbBlockReference
  2
_OPEN
 10
390.0
 20
-53.99999137073473
 30
0.0
 41
2.0
 42
2.0
 43
2.0
 50
270.0
  0
MTEXT
  5
90CD
330
909D
100
AcDbEntity
  8
30
  6
CONTINUOUS
 62
     0
100
AcDbMText
 10
387.0
 20
0.0000031461939378
 30
0.0
 40
4.0
 41
0.0
 71
     5
 72
     1
  1
\A1;108
 11
0.0000000000000001
 21
1.0
 31
0.0
1001
ACAD
1000
MTEXTBEGIN
1070
    73
1070
     1
1070
    44
1040
1.0
1070
    74
1070
     0
1000
MTEXTEND
1000
MTEXTBEGIN
1070
    73
1070
     1
1070
    44
1040
1.0
1070
    74
1070
     0
1000
MTEXTEND
1000
MTEXTBEGIN
1070
    73
1070
     1
1070
    44
1040
1.0
1070
    74
1070
     0
1000
MTEXTEND
1000
MTEXTBEGIN
1070
    73
1070
     1
1070
    44
1040
1.0
1070
    74
1070
     0
1000
MTEXTEND
  0
POINT
  5
90CE
330
909D
100
AcDbEntity
  8
DEFPOINTS
  6
CONTINUOUS
 62
     0
100
AcDbPoint
 10
381.3314534971498
 20
53.99999766312247
 30
0.0
  0
POINT
  5
90CF
330
909D
100
AcDbEntity
  8
DEFPOINTS
  6
CONTINUOUS
 62
     0
100
AcDbPoint
 10
381.3314534971498
 20
-53.99999137073473
 30
0.0
  0
POINT
  5
90D0
330
909D
100
AcDbEntity
  8
DEFPOINTS
  6
CONTINUOUS
 62
     0
100
AcDbPoint
 10
390.0
 20
-53.99999137073473
 30
0.0
  0
ENDBLK
  5
90A8
330
909D
100
AcDbEntity
  8
0
100
AcDbBlockEnd
  0
BLOCK
  5
90B4
330
90AA
100
AcDbEntity
  8
0
100
AcDbBlockBegin
  2
*D29
 70
     1
 10
0.0
 20
0.0
 30
0.0
  3
*D29
  1

  0
LINE
  5
90BF
330
90AA
100
AcDbEntity
  8
30
  6
CONTINUOUS
 62
     0
100
AcDbLine
 10
382.3314534971498
 20
90.00001047203426
 30
0.0
 11
407.5
 21
90.00001047203426
 31
0.0
  0
LINE
  5
90C0
330
90AA
100
AcDbEntity
  8
30
  6
CONTINUOUS
 62
     0
100
AcDbLine
 10
382.3314534971498
 20
-89.99999206798291
 30
0.0
 11
407.5
 21
-89.99999206798291
 31
0.0
  0
LINE
  5
90C1
330
90AA
100
AcDbEntity
  8
30
  6
CONTINUOUS
 62
     0
100
AcDbLine
 10
407.0
 20
88.00001047203426
 30
0.0
 11
407.0
 21
-87.9999920679829
 31
0.0
  0
INSERT
  5
90C2
330
90AA
100
AcDbEntity
  8
30
  6
CONTINUOUS
 62
     0
100
AcDbBlockReference
  2
_OPEN
 10
407.0
 20
90.00001047203426
 30
0.0
 41
2.0
 42
2.0
 43
2.0
 50
90.0
  0
INSERT
  5
90C3
330
90AA
100
AcDbEntity
  8
30
  6
CONTINUOUS
 62
     0
100
AcDbBlockReference
  2
_OPEN
 10
407.0
 20
-89.99999206798291
 30
0.0
 41
2.0
 42
2.0
 43
2.0
 50
270.0
  0
MTEXT
  5
90C4
330
90AA
100
AcDbEntity
  8
30
  6
CONTINUOUS
 62
     0
100
AcDbMText
 10
404.0
 20
0.0000092020257337
 30
0.0
 40
4.0
 41
0.0
 71
     5
 72
     1
  1
\A1;180
 11
0.0000000000000001
 21
1.0
 31
0.0
1001
ACAD
1000
MTEXTBEGIN
1070
    73
1070
     1
1070
    44
1040
1.0
1070
    74
1070
     0
1000
MTEXTEND
1000
MTEXTBEGIN
1070
    73
1070
     1
1070
    44
1040
1.0
1070
    74
1070
     0
1000
MTEXTEND
1000
MTEXTBEGIN
1070
    73
1070
     1
1070
    44
1040
1.0
1070
    74
1070
     0
1000
MTEXTEND
1000
MTEXTBEGIN
1070
    73
1070
     1
1070
    44
1040
1.0
1070
    74
1070
     0
1000
MTEXTEND
  0
POINT
  5
90C5
330
90AA
100
AcDbEntity
  8
DEFPOINTS
  6
CONTINUOUS
 62
     0
100
AcDbPoint
 10
381.3314534971498
 20
90.00001047203426
 30
0.0
  0
POINT
  5
90C6
330
90AA
100
AcDbEntity
  8
DEFPOINTS
  6
CONTINUOUS
 62
     0
100
AcDbPoint
 10
381.3314534971498
 20
-89.99999206798291
 30
0.0
  0
POINT
  5
90C7
330
90AA
100
AcDbEntity
  8
DEFPOINTS
  6
CONTINUOUS
 62
     0
100
AcDbPoint
 10
407.0
 20
-89.99999206798291
 30
0.0
  0
ENDBLK
  5
90B5
330
90AA
100
AcDbEntity
  8
0
100
AcDbBlockEnd
  0
BLOCK
  5
9287
330
927D
100
AcDbEntity
  8
0
100
AcDbBlockBegin
  2
*D30
 70
     1
 10
0.0
 20
0.0
 30
0.0
  3
*D30
  1

  0
LINE
  5
927E
330
927D
100
AcDbEntity
  8
30
  6
CONTINUOUS
 62
     0
100
AcDbLine
 10
57.50000599350506
 20
100.0000074234532
 30
0.0
 11
142.5
 21
100.0000074234532
 31
0.0
  0
LINE
  5
927F
330
927D
100
AcDbEntity
  8
30
  6
CONTINUOUS
 62
     0
100
AcDbLine
 10
57.50000599350506
 20
-99.99999157183882
 30
0.0
 11
142.5
 21
-99.99999157183884
 31
0.0
  0
LINE
  5
9280
330
927D
100
AcDbEntity
  8
30
  6
CONTINUOUS
 62
     0
100
AcDbLine
 10
142.0
 20
98.00000742345336
 30
0.0
 11
142.0
 21
-97.99999157183883
 31
0.0
  0
INSERT
  5
9281
330
927D
100
AcDbEntity
  8
30
  6
CONTINUOUS
 62
     0
100
AcDbBlockReference
  2
_OPEN
 10
142.0
 20
100.0000074234532
 30
0.0
 41
2.0
 42
2.0
 43
2.0
 50
90.0
  0
INSERT
  5
9282
330
927D
100
AcDbEntity
  8
30
  6
CONTINUOUS
 62
     0
100
AcDbBlockReference
  2
_OPEN
 10
142.0
 20
-99.99999157183884
 30
0.0
 41
2.0
 42
2.0
 43
2.0
 50
270.0
  0
MTEXT
  5
9283
330
927D
100
AcDbEntity
  8
30
  6
CONTINUOUS
 62
     0
100
AcDbMText
 10
139.0
 20
0.0000079258072875
 30
0.0
 40
4.0
 41
0.0
 71
     5
 72
     1
  1
\A1;200
 11
0.0000000000000001
 21
1.0
 31
0.0
1001
ACAD
1000
MTEXTBEGIN
1070
    73
1070
     1
1070
    44
1040
1.0
1070
    74
1070
     0
1000
MTEXTEND
1000
MTEXTBEGIN
1070
    73
1070
     1
1070
    44
1040
1.0
1070
    74
1070
     0
1000
MTEXTEND
1000
MTEXTBEGIN
1070
    73
1070
     1
1070
    44
1040
1.0
1070
    74
1070
     0
1000
MTEXTEND
1000
MTEXTBEGIN
1070
    73
1070
     1
1070
    44
1040
1.0
1070
    74
1070
     0
1000
MTEXTEND
  0
POINT
  5
9284
330
927D
100
AcDbEntity
  8
DEFPOINTS
  6
CONTINUOUS
 62
     0
100
AcDbPoint
 10
56.50000599350505
 20
100.0000074234532
 30
0.0
  0
POINT
  5
9285
330
927D
100
AcDbEntity
  8
DEFPOINTS
  6
CONTINUOUS
 62
     0
100
AcDbPoint
 10
56.50000599350505
 20
-99.99999157183882
 30
0.0
  0
POINT
  5
9286
330
927D
100
AcDbEntity
  8
DEFPOINTS
  6
CONTINUOUS
 62
     0
100
AcDbPoint
 10
142.0
 20
-99.99999157183884
 30
0.0
  0
ENDBLK
  5
9288
330
927D
100
AcDbEntity
  8
0
100
AcDbBlockEnd
  0
ENDSEC
  0
SECTION
  2
ENTITIES
  0
MTEXT
  5
BF3
330
1E
100
AcDbEntity
  8
24
  6
CONTINUOUS
100
AcDbMText
 10
142.1181906098743
 20
177.5
 30
0.0
 40
3.0
 41
0.0
 71
     1
 72
     1
  1
\A1;
1001
ACAD
1000
MTEXTBEGIN
1070
    73
1070
     1
1070
    44
1040
1.0
1070
    74
1070
     0
1000
MTEXTEND
1000
MTEXTBEGIN
1070
    73
1070
     1
1070
    44
1040
1.0
1070
    74
1070
     0
1000
MTEXTEND
1000
MTEXTBEGIN
1070
    73
1070
     1
1070
    44
1040
1.0
1070
    74
1070
     0
1000
MTEXTEND
1000
MTEXTBEGIN
1070
    73
1070
     1
1070
    44
1040
1.0
1070
    74
1070
     0
1000
MTEXTEND
  0
TEXT
  5
BF4
330
1E
100
AcDbEntity
  8
30
100
AcDbText
 10
321.0978220781311
 20
-261.3032880643961
 30
0.0
 40
4.0
  1
%%C9
100
AcDbText
  0
LINE
  5
2260
330
1E
100
AcDbEntity
  8
16
100
AcDbLine
 10
127.2641627211668
 20
-310.0
 30
0.0
 11
-61.60868885537138
 21
-310.0
 31
0.0
  0
LINE
  5
2261
330
1E
100
AcDbEntity
  8
16
100
AcDbLine
 10
0.0
 20
-446.0
 30
0.0
 11
0.0
 21
-177.2499999999799
 31
0.0
  0
MTEXT
  5
4B2E
330
1E
100
AcDbEntity
  8
30
  6
CONTINUOUS
 62
     2
100
AcDbMText
 10
268.061460244221
 20
-10.61653703766022
 30
0.0
 40
4.0
 41
0.0
 71
     1
 72
     1
  1
 
1001
ACAD
1000
MTEXTBEGIN
1070
    73
1070
     1
1070
    44
1040
1.0
1070
    74
1070
     0
1000
MTEXTEND
1000
MTEXTBEGIN
1070
    73
1070
     1
1070
    44
1040
1.0
1070
    74
1070
     0
1000
MTEXTEND
1000
MTEXTBEGIN
1070
    73
1070
     1
1070
    44
1040
1.0
1070
    74
1070
     0
1000
MTEXTEND
1000
MTEXTBEGIN
1070
    73
1070
     1
1070
    44
1040
1.0
1070
    74
1070
     0
1000
MTEXTEND
  0
LWPOLYLINE
  5
5803
330
1E
100
AcDbEntity
  8
16
100
AcDbPolyline
 90
        2
 70
     0
 43
0.001
 10
0.0
 20
109.9505615234199
 10
0.0
 20
-121.91400146485
  0
LINE
  5
5938
330
1E
100
AcDbEntity
  8
16
100
AcDbLine
 10
99.58329095406677
 20
0.0
 30
0.0
 11
-78.17658291715568
 21
0.0
 31
0.0
  0
LINE
  5
5E0A
330
1E
100
AcDbEntity
  8
16
100
AcDbLine
 10
368.5913216207949
 20
0.0
 30
0.0
 11
190.8314477495724
 21
0.0
 31
0.0
  0
LINE
  5
74E8
330
1E
100
AcDbEntity
  8
10
100
AcDbLine
 10
237.5000024087779
 20
-309.1995602916449
 30
0.0
 11
237.5000024087779
 21
-321.9999893631534
 31
0.0
  0
ARC
  5
74E9
330
1E
100
AcDbEntity
  8
18
100
AcDbCircle
 10
221.5000054214873
 20
-315.4999970606936
 30
0.0
 40
5.999999308398423
100
AcDbArc
 50
180.0
 51
270.0
  0
LINE
  5
74EA
330
1E
100
AcDbEntity
  8
10
100
AcDbLine
 10
212.0
 20
-290.0
 30
0.0
 11
212.0
 21
-323.9999881489083
 31
0.0
  0
LINE
  5
74EB
330
1E
100
AcDbEntity
  8
10
100
AcDbLine
 10
204.5000103321588
 20
-323.4999823966385
 30
0.0
 11
204.5000103321588
 21
-289.5753477363017
 31
0.0
  0
INSERT
  5
74ED
330
1E
100
AcDbEntity
  8
30
100
AcDbBlockReference
  2
*U4
 10
-158.7352011726184
 20
-798.8823475359051
 30
0.0
 41
1.666666474555139
 42
1.666666474555085
 43
1.666666474555118
  0
INSERT
  5
74EE
330
1E
100
AcDbEntity
  8
30
100
AcDbBlockReference
  2
*U3
 10
-158.7352011726184
 20
-798.8823475359051
 30
0.0
 41
1.666666474555139
 42
1.666666474555085
 43
1.666666474555118
  0
INSERT
  5
74EF
330
1E
100
AcDbEntity
  8
30
100
AcDbBlockReference
  2
*U5
 10
-158.7352011726184
 20
-798.8823475359051
 30
0.0
 41
1.666666474555139
 42
1.666666474555085
 43
1.666666474555118
  0
TEXT
  5
74F0
330
1E
100
AcDbEntity
  8
30
100
AcDbText
 10
244.8975648018664
 20
-348.8823994060231
 30
0.0
 40
4.166666186387795
  1
M8 nut
 41
0.8216911764705923
  7
UGMTXT
100
AcDbText
  0
LINE
  5
74F1
330
1E
100
AcDbEntity
  8
10
100
AcDbLine
 10
201.5000000418639
 20
-324.0074489328485
 30
0.0
 11
192.5000176176288
 21
-324.0074489328485
 31
0.0
  0
LINE
  5
74F2
330
1E
100
AcDbEntity
  8
10
100
AcDbLine
 10
205.0000039727664
 20
-323.9999881489083
 30
0.0
 11
191.5000061130889
 21
-323.9999881489083
 31
0.0
  0
LINE
  5
74F3
330
1E
100
AcDbEntity
  8
10
100
AcDbLine
 10
191.5000061130889
 20
-323.6112522376411
 30
0.0
 11
191.5000061130889
 21
-323.4999823966385
 31
0.0
  0
LINE
  5
74F4
330
1E
100
AcDbEntity
  8
10
100
AcDbLine
 10
191.5000061130889
 20
-323.8908984071091
 30
0.0
 11
191.5000061130889
 21
-323.8117365827059
 31
0.0
  0
LINE
  5
74F5
330
1E
100
AcDbEntity
  8
10
100
AcDbLine
 10
191.5000061130889
 20
-321.9999893631534
 30
0.0
 11
191.5000061130889
 21
-323.4999823966385
 31
0.0
  0
LINE
  5
74F6
330
1E
100
AcDbEntity
  8
10
100
AcDbLine
 10
192.0845876027837
 20
-324.0079091760136
 30
0.0
 11
192.2182761305931
 21
-324.0076548311066
 31
0.0
  0
LINE
  5
74F7
330
1E
100
AcDbEntity
  8
10
100
AcDbLine
 10
191.5000061130889
 20
-323.9999881489083
 30
0.0
 11
191.5000061130889
 21
-323.9874525784895
 31
0.0
  0
LINE
  5
74F8
330
1E
100
AcDbEntity
  8
10
100
AcDbLine
 10
191.9593772385423
 20
-324.0082483025561
 30
0.0
 11
192.0845876027837
 21
-324.0079091760136
 31
0.0
  0
LINE
  5
74F9
330
1E
100
AcDbEntity
  8
10
100
AcDbLine
 10
191.5000061130889
 20
-323.7169264906883
 30
0.0
 11
191.5000061130889
 21
-323.6112522376411
 31
0.0
  0
LINE
  5
74FA
330
1E
100
AcDbEntity
  8
10
100
AcDbLine
 10
191.5000061130889
 20
-323.9999881489083
 30
0.0
 11
191.5000061130889
 21
-324.0124268260294
 31
0.0
  0
LINE
  5
74FB
330
1E
100
AcDbEntity
  8
10
100
AcDbLine
 10
191.5000061130889
 20
-323.9504756736696
 30
0.0
 11
191.5000061130889
 21
-323.8908984071091
 31
0.0
  0
LINE
  5
74FC
330
1E
100
AcDbEntity
  8
10
100
AcDbLine
 10
191.5903833367269
 20
-324.0103678434481
 30
0.0
 11
191.6587657817363
 21
-324.0097380370118
 31
0.0
  0
LINE
  5
74FD
330
1E
100
AcDbEntity
  8
10
100
AcDbLine
 10
191.6587657817363
 20
-324.0097380370118
 30
0.0
 11
191.7442498938289
 21
-324.0091687888865
 31
0.0
  0
LINE
  5
74FE
330
1E
100
AcDbEntity
  8
10
100
AcDbLine
 10
191.5000061130889
 20
-324.0124268260294
 30
0.0
 11
191.510179909371
 21
-324.0117243496192
 31
0.0
  0
LINE
  5
74FF
330
1E
100
AcDbEntity
  8
10
100
AcDbLine
 10
191.8451400402914
 20
-324.0086722107347
 30
0.0
 11
191.9593772385423
 21
-324.0082483025561
 31
0.0
  0
LINE
  5
7500
330
1E
100
AcDbEntity
  8
10
100
AcDbLine
 10
191.510179909371
 20
-324.0117243496192
 30
0.0
 11
191.5405075116209
 21
-324.0110339848714
 31
0.0
  0
LINE
  5
7501
330
1E
100
AcDbEntity
  8
10
100
AcDbLine
 10
191.7442498938289
 20
-324.0091687888865
 30
0.0
 11
191.8451400402914
 21
-324.0086722107347
 31
0.0
  0
LINE
  5
7502
330
1E
100
AcDbEntity
  8
10
100
AcDbLine
 10
192.2182761305931
 20
-324.0076548311066
 30
0.0
 11
192.3577055863044
 21
-324.0075094911595
 31
0.0
  0
LINE
  5
7503
330
1E
100
AcDbEntity
  8
10
100
AcDbLine
 10
192.3577055863044
 20
-324.0075094911595
 30
0.0
 11
192.5000176176288
 21
-324.0074489328485
 31
0.0
  0
LINE
  5
7504
330
1E
100
AcDbEntity
  8
10
100
AcDbLine
 10
191.5000061130889
 20
-323.9874525784895
 30
0.0
 11
191.5000061130889
 21
-323.9504756736696
 31
0.0
  0
LINE
  5
7505
330
1E
100
AcDbEntity
  8
10
100
AcDbLine
 10
191.5000061130889
 20
-323.8117365827059
 30
0.0
 11
191.5000061130889
 21
-323.7169264906883
 31
0.0
  0
LINE
  5
7506
330
1E
100
AcDbEntity
  8
10
100
AcDbLine
 10
191.5405075116209
 20
-324.0110339848714
 30
0.0
 11
191.5903833367269
 21
-324.0103678434481
 31
0.0
  0
LINE
  5
7507
330
1E
100
AcDbEntity
  8
10
100
AcDbLine
 10
191.5000061130889
 20
-324.2180289567651
 30
0.0
 11
191.5000061130889
 21
-324.0124268260294
 31
0.0
  0
LINE
  5
7508
330
1E
100
AcDbEntity
  8
10
100
AcDbLine
 10
191.5000061130889
 20
-321.9999893631534
 30
0.0
 11
189.4414377242035
 21
-321.9999893631534
 31
0.0
  0
LINE
  5
7509
330
1E
100
AcDbEntity
  8
10
100
AcDbLine
 10
237.0000087681703
 20
-323.9999881489083
 30
0.0
 11
205.0000039727664
 21
-323.9999881489083
 31
0.0
  0
LINE
  5
750A
330
1E
100
AcDbEntity
  8
10
100
AcDbLine
 10
201.5000000418639
 20
-323.9999881489083
 30
0.0
 11
201.5000000418639
 21
-324.0074489328485
 31
0.0
  0
LINE
  5
750B
330
1E
100
AcDbEntity
  8
10
100
AcDbLine
 10
201.5000000418639
 20
-324.0074489328485
 30
0.0
 11
201.5000000418639
 21
-324.2180289567651
 31
0.0
  0
ARC
  5
750C
330
1E
100
AcDbEntity
  8
10
100
AcDbCircle
 10
205.0000039727664
 20
-323.4999823966385
 30
0.0
 40
0.4999999329946449
100
AcDbArc
 50
180.0
 51
270.0
  0
ARC
  5
750D
330
1E
100
AcDbEntity
  8
0
100
AcDbCircle
 10
237.0000087681703
 20
-323.4999823966385
 30
0.0
 40
0.4999999329946449
100
AcDbArc
 50
270.0
 51
0.0
  0
LINE
  5
750E
330
1E
100
AcDbEntity
  8
0
100
AcDbLine
 10
237.5000024087779
 20
-321.9999893631534
 30
0.0
 11
237.5000024087779
 21
-323.4999823966385
 31
0.0
  0
TEXT
  5
750F
330
1E
100
AcDbEntity
  8
30
100
AcDbText
 10
261.822476045428
 20
-332.2157346604719
 30
0.0
 40
4.166666186387795
  1
22 max. conductor width
 41
0.7999540441176404
  7
UGMTXT
100
AcDbText
  0
INSERT
  5
7510
330
1E
100
AcDbEntity
  8
30
100
AcDbBlockReference
  2
*U2
 10
-158.7352011726184
 20
-798.8823475359051
 30
0.0
 41
1.666666474555139
 42
1.666666474555085
 43
1.666666474555118
  0
LINE
  5
7511
330
1E
100
AcDbEntity
  8
18
100
AcDbLine
 10
221.5000054214873
 20
-293.4999995965659
 30
0.0
 11
265.5000003497426
 21
-293.4999995965659
 31
0.0
  0
LINE
  5
7512
330
1E
100
AcDbEntity
  8
18
100
AcDbLine
 10
221.5000054214873
 20
-318.4999967148929
 30
0.0
 11
265.5000003497426
 21
-318.4999967148929
 31
0.0
  0
LINE
  5
7513
330
1E
100
AcDbEntity
  8
18
100
AcDbLine
 10
221.5000054214873
 20
-321.499996369092
 30
0.0
 11
265.5000003497426
 21
-321.499996369092
 31
0.0
  0
LINE
  5
7514
330
1E
100
AcDbEntity
  8
18
100
AcDbLine
 10
221.5000054214873
 20
-290.4999999423669
 30
0.0
 11
265.5000003497426
 21
-290.4999999423669
 31
0.0
  0
DIMENSION
  5
7515
330
1E
100
AcDbEntity
  8
30
100
AcDbDimension
  2
*D6
 10
215.5000061130889
 20
-276.0
 30
0.0
 11
213.0000064012563
 21
-273.0
 31
0.0
 70
    32
  3
STANDARD
100
AcDbAlignedDimension
 13
210.5000066894235
 23
-283.3055065238226
 33
0.0
 14
215.5000061130889
 24
-296.4999992507652
 34
0.0
100
AcDbRotatedDimension
  0
DIMENSION
  5
7516
330
1E
100
AcDbEntity
  8
30
100
AcDbDimension
  2
*D7
 10
237.5000087011648
 20
-267.6324087746281
 30
0.0
 11
224.0000076952942
 21
-264.6324087746281
 31
0.0
 70
    32
  3
STANDARD
100
AcDbAlignedDimension
 13
210.5000066894235
 23
-283.3055065238226
 33
0.0
 14
237.5000087011648
 24
-286.833325048709
 34
0.0
100
AcDbRotatedDimension
  0
LINE
  5
7517
330
1E
100
AcDbEntity
  8
12
100
AcDbLine
 10
222.1000053523273
 20
-298.799998985651
 30
0.0
 11
228.9000045685119
 21
-298.799998985651
 31
0.0
  0
LINE
  5
7518
330
1E
100
AcDbEntity
  8
12
100
AcDbLine
 10
228.9000045685119
 20
-302.5527753028126
 30
0.0
 11
222.1000053523272
 21
-302.5527753028126
 31
0.0
  0
LINE
  5
7519
330
1E
100
AcDbEntity
  8
12
100
AcDbLine
 10
228.9000045685119
 20
-309.447221008646
 30
0.0
 11
222.1000053523272
 21
-309.447221008646
 31
0.0
  0
LINE
  5
751A
330
1E
100
AcDbEntity
  8
12
100
AcDbLine
 10
222.1000053523273
 20
-313.1999973258073
 30
0.0
 11
228.9000045685119
 21
-313.1999973258073
 31
0.0
  0
LINE
  5
751B
330
1E
100
AcDbEntity
  8
10
100
AcDbLine
 10
237.5000024087779
 20
-290.0
 30
0.0
 11
210.5000066894238
 21
-290.0
 31
0.0
  0
LINE
  5
751C
330
1E
100
AcDbEntity
  8
10
100
AcDbLine
 10
210.5000066894238
 20
-287.999997893657
 30
0.0
 11
237.0000087681703
 21
-287.999997893657
 31
0.0
  0
LINE
  5
751E
330
1E
100
AcDbEntity
  8
10
100
AcDbLine
 10
212.4999999423664
 20
-297.4999918800648
 30
0.0
 11
212.4999999423664
 21
-305.9999909002958
 31
0.0
  0
LINE
  5
751F
330
1E
100
AcDbEntity
  8
12
100
AcDbLine
 10
215.4999995965656
 20
-297.9999918224312
 30
0.0
 11
215.4999995965656
 21
-313.9999899781605
 31
0.0
  0
LINE
  5
7520
330
1E
100
AcDbEntity
  8
12
100
AcDbLine
 10
213.6499998098094
 20
-297.9999918224312
 30
0.0
 11
213.6499998098094
 21
-313.9999899781605
 31
0.0
  0
LINE
  5
7522
330
1E
100
AcDbEntity
  8
12
100
AcDbLine
 10
220.100005582861
 20
-297.4999991354983
 30
0.0
 11
220.100005582861
 21
-314.4999971759604
 31
0.0
  0
LINE
  5
7523
330
1E
100
AcDbEntity
  8
0
100
AcDbLine
 10
218.5000057672883
 20
-296.4999992507652
 30
0.0
 11
218.5000057672883
 21
-315.4999970606936
 31
0.0
  0
LINE
  5
7524
330
1E
100
AcDbEntity
  8
12
100
AcDbLine
 10
222.1000053523273
 20
-298.2999990432846
 30
0.0
 11
222.1000053523273
 21
-313.6999972681742
 31
0.0
  0
LINE
  5
7525
330
1E
100
AcDbEntity
  8
12
100
AcDbLine
 10
218.5000057672882
 20
-297.4999991354983
 30
0.0
 11
218.5000057672882
 21
-314.4999971759604
 31
0.0
  0
LINE
  5
7527
330
1E
100
AcDbEntity
  8
10
100
AcDbLine
 10
212.4999999423664
 20
-305.9999909002958
 30
0.0
 11
212.4999999423664
 21
-314.4999899205271
 31
0.0
  0
LINE
  5
7528
330
1E
100
AcDbEntity
  8
12
100
AcDbLine
 10
212.4999999423664
 20
-313.5999900242673
 30
0.0
 11
213.6499998098094
 21
-313.5999900242673
 31
0.0
  0
LINE
  5
7529
330
1E
100
AcDbEntity
  8
12
100
AcDbLine
 10
213.6499998098094
 20
-313.9999899781605
 30
0.0
 11
215.4999995965656
 21
-313.9999899781605
 31
0.0
  0
LINE
  5
752A
330
1E
100
AcDbEntity
  8
0
100
AcDbLine
 10
215.5000061130889
 20
-313.999997233594
 30
0.0
 11
215.5000061130889
 21
-315.4999970606936
 31
0.0
  0
LINE
  5
752B
330
1E
100
AcDbEntity
  8
10
100
AcDbLine
 10
212.4999999423664
 20
-314.4999899205271
 30
0.0
 11
211.999937500007
 21
-314.4999899205271
 31
0.0
  0
LINE
  5
752C
330
1E
100
AcDbEntity
  8
12
100
AcDbLine
 10
218.5000057672882
 20
-314.4999971759604
 30
0.0
 11
220.100005582861
 21
-314.4999971759604
 31
0.0
  0
LINE
  5
752D
330
1E
100
AcDbEntity
  8
12
100
AcDbLine
 10
220.100005582861
 20
-313.6999972681742
 30
0.0
 11
222.1000053523273
 21
-313.6999972681742
 31
0.0
  0
ARC
  5
752E
330
1E
100
AcDbEntity
  8
18
100
AcDbCircle
 10
221.5000054214873
 20
-315.4999970606936
 30
0.0
 40
2.999999654199211
100
AcDbArc
 50
180.0
 51
270.0
  0
LINE
  5
752F
330
1E
100
AcDbEntity
  8
12
100
AcDbLine
 10
222.1000053523273
 20
-305.2499982421795
 30
0.0
 11
220.100005582861
 21
-307.2499980116456
 31
0.0
  0
LINE
  5
7530
330
1E
100
AcDbEntity
  8
12
100
AcDbLine
 10
222.1000053523273
 20
-304.7499982998131
 30
0.0
 11
220.100005582861
 21
-306.749998069279
 31
0.0
  0
LINE
  5
7534
330
1E
100
AcDbEntity
  8
10
100
AcDbLine
 10
202.6582021495805
 20
-291.4999897128966
 30
0.0
 11
204.5000103321588
 21
-291.4999897128966
 31
0.0
  0
ARC
  5
7535
330
1E
100
AcDbEntity
  8
18
100
AcDbCircle
 10
221.5000054214873
 20
-296.4999992507652
 30
0.0
 40
5.999999308398423
100
AcDbArc
 50
90.0
 51
180.0
  0
LINE
  5
7536
330
1E
100
AcDbEntity
  8
12
100
AcDbLine
 10
213.6499998098094
 20
-298.3999917763245
 30
0.0
 11
212.4999999423664
 21
-298.3999917763245
 31
0.0
  0
LINE
  5
7537
330
1E
100
AcDbEntity
  8
12
100
AcDbLine
 10
215.4999995965656
 20
-297.9999918224312
 30
0.0
 11
213.6499998098094
 21
-297.9999918224312
 31
0.0
  0
LINE
  5
7538
330
1E
100
AcDbEntity
  8
12
100
AcDbLine
 10
215.5000061130889
 20
-296.4999992507652
 30
0.0
 11
215.5000061130889
 21
-298.9999989625979
 31
0.0
  0
LINE
  5
7539
330
1E
100
AcDbEntity
  8
10
100
AcDbLine
 10
212.4999999423664
 20
-297.4999918800648
 30
0.0
 11
211.999937500007
 21
-297.4999918800648
 31
0.0
  0
LINE
  5
753A
330
1E
100
AcDbEntity
  8
12
100
AcDbLine
 10
218.5000057672882
 20
-297.4999991354983
 30
0.0
 11
220.100005582861
 21
-297.4999991354983
 31
0.0
  0
ARC
  5
753B
330
1E
100
AcDbEntity
  8
18
100
AcDbCircle
 10
221.5000054214873
 20
-296.4999992507652
 30
0.0
 40
2.999999654199211
100
AcDbArc
 50
90.0
 51
180.0
  0
LINE
  5
753C
330
1E
100
AcDbEntity
  8
12
100
AcDbLine
 10
220.100005582861
 20
-298.2999990432846
 30
0.0
 11
222.1000053523273
 21
-298.2999990432846
 31
0.0
  0
LINE
  5
753D
330
1E
100
AcDbEntity
  8
10
100
AcDbLine
 10
210.5000066894238
 20
-283.3055065238226
 30
0.0
 11
210.5000066894238
 21
-290.0
 31
0.0
  0
LINE
  5
753E
330
1E
100
AcDbEntity
  8
10
100
AcDbLine
 10
237.5000024087779
 20
-289.4999909271416
 30
0.0
 11
237.5000024087779
 21
-302.8001074746039
 31
0.0
  0
LINE
  5
753F
330
1E
100
AcDbEntity
  8
12
100
AcDbLine
 10
228.9000045685119
 20
-298.799998985651
 30
0.0
 11
228.9000045685119
 21
-313.1999973258073
 31
0.0
  0
LINE
  5
7540
330
1E
100
AcDbEntity
  8
12
100
AcDbLine
 10
228.8998109775694
 20
-309.1999905314419
 30
0.0
 11
241.0754276647441
 21
-309.1999905314419
 31
0.0
  0
LINE
  5
7541
330
1E
100
AcDbEntity
  8
12
100
AcDbLine
 10
241.0754276647441
 20
-302.7999912691501
 30
0.0
 11
228.8998109775694
 21
-302.7999912691501
 31
0.0
  0
ARC
  5
7542
330
1E
100
AcDbEntity
  8
12
100
AcDbCircle
 10
235.9999972335935
 20
-305.9999909002958
 30
0.0
 40
5.999999308398423
100
AcDbArc
 50
5.739170477268022
 51
32.23095263550188
  0
LINE
  5
7543
330
1E
100
AcDbEntity
  8
12
100
AcDbLine
 10
241.9699211680986
 20
-305.3999909694561
 30
0.0
 11
241.0754276647441
 21
-305.3999909694561
 31
0.0
  0
LINE
  5
7544
330
1E
100
AcDbEntity
  8
12
100
AcDbLine
 10
241.0754276647441
 20
-302.7999912691501
 30
0.0
 11
241.0754276647441
 21
-305.3999909694561
 31
0.0
  0
LINE
  5
7545
330
1E
100
AcDbEntity
  8
12
100
AcDbLine
 10
241.0754276647441
 20
-305.3999909694561
 30
0.0
 11
239.4999968301594
 21
-305.3999909694561
 31
0.0
  0
ARC
  5
7546
330
1E
100
AcDbEntity
  8
12
100
AcDbCircle
 10
235.9999972335935
 20
-305.9999909002958
 30
0.0
 40
5.999999308398423
100
AcDbArc
 50
327.7690473644981
 51
354.2608295227318
  0
LINE
  5
7547
330
1E
100
AcDbEntity
  8
12
100
AcDbLine
 10
241.0754276647441
 20
-306.599990831136
 30
0.0
 11
241.9699211680986
 21
-306.599990831136
 31
0.0
  0
LINE
  5
7548
330
1E
100
AcDbEntity
  8
12
100
AcDbLine
 10
241.0754276647441
 20
-306.599990831136
 30
0.0
 11
241.0754276647441
 21
-309.1999905314419
 31
0.0
  0
LINE
  5
7549
330
1E
100
AcDbEntity
  8
12
100
AcDbLine
 10
239.4999968301594
 20
-306.599990831136
 30
0.0
 11
241.0754276647441
 21
-306.599990831136
 31
0.0
  0
LINE
  5
754A
330
1E
100
AcDbEntity
  8
12
100
AcDbLine
 10
239.4999968301594
 20
-305.3999909694561
 30
0.0
 11
239.4999968301594
 21
-306.599990831136
 31
0.0
  0
ARC
  5
754B
330
1E
100
AcDbEntity
  8
10
100
AcDbCircle
 10
237.0000087681703
 20
-288.4999915342641
 30
0.0
 40
0.4999999329946449
100
AcDbArc
 50
0.0
 51
90.0
  0
LINE
  5
754C
330
1E
100
AcDbEntity
  8
10
100
AcDbLine
 10
237.5000024087779
 20
-288.4999915342641
 30
0.0
 11
237.5000024087779
 21
-289.4999909271416
 31
0.0
  0
INSERT
  5
754D
330
1E
100
AcDbEntity
  8
30
100
AcDbBlockReference
  2
*U1
 10
-158.7352011726184
 20
-798.8823475359051
 30
0.0
 41
1.666666474555139
 42
1.666666474555085
 43
1.666666474555118
  0
DIMENSION
  5
75CC
330
1E
100
AcDbEntity
  8
30
100
AcDbDimension
  2
*D8
 10
365.0
 20
-277.0
 30
0.0
 11
353.0
 21
-277.0
 31
0.0
 70
   160
  1
22(max)
  3
STANDARD
100
AcDbAlignedDimension
 13
340.0000000000001
 23
-266.0000000000001
 33
0.0
 14
365.0
 24
-266.0000000000001
 34
0.0
 50
180.0
100
AcDbRotatedDimension
  0
CIRCLE
  5
75D1
330
1E
100
AcDbEntity
  8
24
100
AcDbCircle
 10
352.4999999999998
 20
-256.0000000000001
 30
0.0
 40
4.499999999999997
  0
LINE
  5
75D2
330
1E
100
AcDbEntity
  8
24
100
AcDbLine
 10
340.0
 20
-266.0000000000001
 30
0.0
 11
364.9999999999998
 21
-266.0000000000001
 31
0.0
  0
LINE
  5
75D3
330
1E
100
AcDbEntity
  8
17
100
AcDbLine
 10
346.2499999999998
 20
-256.0000000000001
 30
0.0
 11
358.7499999999998
 21
-256.0000000000001
 31
0.0
  0
LINE
  5
75D5
330
1E
100
AcDbEntity
  8
17
100
AcDbLine
 10
352.4999999999998
 20
-249.75
 30
0.0
 11
352.4999999999998
 21
-262.2500000000001
 31
0.0
  0
LINE
  5
75D6
330
1E
100
AcDbEntity
  8
24
100
AcDbLine
 10
340.0
 20
-234.0000000000002
 30
0.0
 11
340.0
 21
-266.0000000000001
 31
0.0
  0
LINE
  5
75DA
330
1E
100
AcDbEntity
  8
24
100
AcDbLine
 10
365.0
 20
-233.8500965008311
 30
0.0
 11
365.0
 21
-266.0000000000001
 31
0.0
  0
DIMENSION
  5
75DC
330
1E
100
AcDbEntity
  8
30
100
AcDbDimension
  2
*D9
 10
375.322607660254
 20
-256.0000000000001
 30
0.0
 11
381.0
 21
-262.0
 31
0.0
 70
   160
  1
15.5(max)
  3
STANDARD
100
AcDbAlignedDimension
 13
365.0
 23
-266.0000000000001
 33
0.0
 14
355.0000000164997
 24
-256.0000000000001
 34
0.0
 50
270.0
100
AcDbRotatedDimension
1001
ACAD
1000
DSTYLE
1002
{
1070
   287
1070
     5
1070
   287
1070
     5
1070
   287
1070
     5
1070
   287
1070
     5
1070
   279
1070
     2
1002
}
  0
DIMENSION
  5
77D3
330
1E
100
AcDbEntity
  8
30
100
AcDbDimension
  2
*D10
 10
87.50000000000005
 20
-117.1618080185514
 30
0.0
 11
17.50000000000005
 21
-114.1618080185514
 31
0.0
 70
    32
  3
STANDARD
100
AcDbAlignedDimension
 13
-52.49999999999993
 23
-82.50000000000005
 33
0.0
 14
87.50000000000005
 24
-82.50000000000005
 34
0.0
 50
180.0
100
AcDbRotatedDimension
  0
LINE
  5
77D5
330
1E
100
AcDbEntity
  8
10
100
AcDbLine
 10
-52.49999999999993
 20
-82.50000000000005
 30
0.0
 11
87.50000000000005
 21
-82.50000000000005
 31
0.0
  0
LINE
  5
77D6
330
1E
100
AcDbEntity
  8
10
100
AcDbLine
 10
87.50000000000005
 20
82.5
 30
0.0
 11
-52.49999999999993
 21
82.5
 31
0.0
  0
LINE
  5
77D7
330
1E
100
AcDbEntity
  8
10
100
AcDbLine
 10
-52.49999999999993
 20
51.0
 30
0.0
 11
87.50000000000005
 21
51.0
 31
0.0
  0
LINE
  5
77D8
330
1E
100
AcDbEntity
  8
10
100
AcDbLine
 10
-52.49999999999993
 20
-51.0
 30
0.0
 11
87.50000000000005
 21
-51.0
 31
0.0
  0
LINE
  5
77D9
330
1E
100
AcDbEntity
  8
17
100
AcDbLine
 10
-7.0
 20
72.00000000000007
 30
0.0
 11
7.0
 21
72.00000000000007
 31
0.0
  0
LINE
  5
77DA
330
1E
100
AcDbEntity
  8
17
100
AcDbLine
 10
-7.0
 20
-72.0
 30
0.0
 11
7.0
 21
-72.0
 31
0.0
  0
LINE
  5
77DB
330
1E
100
AcDbEntity
  8
10
100
AcDbLine
 10
7.0
 20
60.0
 30
0.0
 11
-7.0
 21
60.0
 31
0.0
  0
LINE
  5
77DC
330
1E
100
AcDbEntity
  8
10
100
AcDbLine
 10
7.0
 20
-60.0
 30
0.0
 11
-7.0
 21
-60.0
 31
0.0
  0
LINE
  5
77DE
330
1E
100
AcDbEntity
  8
10
100
AcDbLine
 10
7.0
 20
15.23995644007664
 30
0.0
 11
-7.0
 21
15.23995644007664
 31
0.0
  0
LINE
  5
77DF
330
1E
100
AcDbEntity
  8
10
100
AcDbLine
 10
7.0
 20
20.15486870581037
 30
0.0
 11
-7.000000000000909
 21
20.15486870581037
 31
0.0
  0
LINE
  5
77E0
330
1E
100
AcDbEntity
  8
10
100
AcDbLine
 10
7.0
 20
6.840789306861492
 30
0.0
 11
-6.99999999999909
 21
6.840789306861492
 31
0.0
  0
LINE
  5
77E1
330
1E
100
AcDbEntity
  8
10
100
AcDbLine
 10
-7.0
 20
-18.5
 30
0.0
 11
7.0
 21
-18.5
 31
0.0
  0
LINE
  5
77E2
330
1E
100
AcDbEntity
  8
10
100
AcDbLine
 10
-52.49999999999993
 20
22.5
 30
0.0
 11
87.50000000000005
 21
22.5
 31
0.0
  0
LINE
  5
77E3
330
1E
100
AcDbEntity
  8
10
100
AcDbLine
 10
-52.49999999999993
 20
-22.5
 30
0.0
 11
87.50000000000005
 21
-22.5
 31
0.0
  0
LINE
  5
77E4
330
1E
100
AcDbEntity
  8
10
100
AcDbLine
 10
-12.49999640344642
 20
-89.99999601728335
 30
0.0
 11
12.5000034118261
 21
-89.99999601728335
 31
0.0
  0
LINE
  5
77E5
330
1E
100
AcDbEntity
  8
10
100
AcDbLine
 10
-12.49999640344642
 20
90.00001234200983
 30
0.0
 11
12.5000034118261
 21
90.00001234200983
 31
0.0
  0
CIRCLE
  5
77E6
330
1E
100
AcDbEntity
  8
24
100
AcDbCircle
 10
0.0
 20
72.00000000000007
 30
0.0
 40
5.0
  0
CIRCLE
  5
77E7
330
1E
100
AcDbEntity
  8
24
100
AcDbCircle
 10
0.0
 20
-72.0
 30
0.0
 40
5.0
  0
LINE
  5
77E8
330
1E
100
AcDbEntity
  8
10
100
AcDbLine
 10
-52.49999999999993
 20
82.5
 30
0.0
 11
-52.49999999999993
 21
-82.50000000000005
 31
0.0
  0
LINE
  5
77E9
330
1E
100
AcDbEntity
  8
17
100
AcDbLine
 10
-35.0
 20
-65.0
 30
0.0
 11
-35.0
 21
-79.0
 31
0.0
  0
LINE
  5
77EA
330
1E
100
AcDbEntity
  8
10
100
AcDbLine
 10
-12.0
 20
-82.50000000000005
 30
0.0
 11
-12.0
 21
-65.0
 31
0.0
  0
LINE
  5
77EB
330
1E
100
AcDbEntity
  8
10
100
AcDbLine
 10
-47.0
 20
-82.50000000000005
 30
0.0
 11
-47.0
 21
-65.0
 31
0.0
  0
LINE
  5
77EC
330
1E
100
AcDbEntity
  8
10
100
AcDbLine
 10
-22.99999999999994
 20
-82.50000000000005
 30
0.0
 11
-22.99999999999994
 21
-65.0
 31
0.0
  0
CIRCLE
  5
77EE
330
1E
100
AcDbEntity
  8
24
100
AcDbCircle
 10
-35.0
 20
-72.0
 30
0.0
 40
5.0
  0
LINE
  5
77EF
330
1E
100
AcDbEntity
  8
10
100
AcDbLine
 10
-52.00000725430754
 20
-89.99999601728335
 30
0.0
 11
-22.50000359655357
 21
-89.99999601728335
 31
0.0
  0
LINE
  5
77F0
330
1E
100
AcDbEntity
  8
10
100
AcDbLine
 10
-52.50000095254796
 20
-85.999997984706
 30
0.0
 11
-52.50000095254796
 21
-89.49999020737939
 31
0.0
  0
ARC
  5
77F1
330
1E
100
AcDbEntity
  8
10
100
AcDbCircle
 10
-52.00000725430754
 20
-89.49999020737939
 30
0.0
 40
0.4999999906281084
100
AcDbArc
 50
180.0
 51
270.0
  0
ARC
  5
77F2
330
1E
100
AcDbEntity
  8
10
100
AcDbCircle
 10
-52.00000725430754
 20
-89.49999020737939
 30
0.0
 40
0.4999999906281084
100
AcDbArc
 50
180.0
 51
270.0
  0
LINE
  5
77F3
330
1E
100
AcDbEntity
  8
17
100
AcDbLine
 10
-42.0
 20
-72.0
 30
0.0
 11
-27.99999999999994
 21
-72.0
 31
0.0
  0
LINE
  5
77F4
330
1E
100
AcDbEntity
  8
10
100
AcDbLine
 10
-52.50000095254796
 20
-84.49999266665756
 30
0.0
 11
-49.99999612635526
 21
-84.49999266665756
 31
0.0
  0
LINE
  5
77F5
330
1E
100
AcDbEntity
  8
10
100
AcDbLine
 10
-49.99999612635526
 20
-84.49999266665756
 30
0.0
 11
-49.99999612635526
 21
-82.4999894022944
 31
0.0
  0
LINE
  5
77F6
330
1E
100
AcDbEntity
  8
10
100
AcDbLine
 10
-52.50000095254796
 20
-85.999997984706
 30
0.0
 11
-52.50000095254796
 21
-84.49999266665756
 31
0.0
  0
LINE
  5
77F7
330
1E
100
AcDbEntity
  8
10
100
AcDbLine
 10
-14.0000017214948
 20
-91.20745621185669
 30
0.0
 11
-12.49999640344642
 21
-93.80554129017747
 31
0.0
  0
LINE
  5
77F8
330
1E
100
AcDbEntity
  8
10
100
AcDbLine
 10
-12.49999640344642
 20
-89.99999601728335
 30
0.0
 11
-14.0000017214948
 21
-90.00745923646849
 31
0.0
  0
ARC
  5
77F9
330
1E
100
AcDbEntity
  8
10
100
AcDbCircle
 10
-13.49999591159074
 20
-98.99999159058261
 30
0.0
 40
0.9999999812562167
100
AcDbArc
 50
270.0
 51
0.0
  0
LINE
  5
77FA
330
1E
100
AcDbEntity
  8
10
100
AcDbLine
 10
-22.50000359655357
 20
-98.99999159058261
 30
0.0
 11
-22.50000359655357
 21
-93.80554129017747
 31
0.0
  0
LINE
  5
77FB
330
1E
100
AcDbEntity
  8
10
100
AcDbLine
 10
-17.49999680181186
 20
-90.99996979717708
 30
0.0
 11
-17.49999680181186
 21
-98.99996979717712
 31
0.0
  0
LINE
  5
77FC
330
1E
100
AcDbEntity
  8
10
100
AcDbLine
 10
-13.49999591159074
 20
-99.99999109872696
 30
0.0
 11
-21.50000408840921
 21
-99.99999109872696
 31
0.0
  0
ARC
  5
77FD
330
1E
100
AcDbEntity
  8
10
100
AcDbCircle
 10
-21.50000408840921
 20
-98.99999159058261
 30
0.0
 40
0.9999999812562167
100
AcDbArc
 50
180.0
 51
270.0
  0
LINE
  5
77FE
330
1E
100
AcDbEntity
  8
10
100
AcDbLine
 10
-21.4999968018119
 20
-94.99996979717709
 30
0.0
 11
-13.49999680181187
 21
-94.99996979717709
 31
0.0
  0
LINE
  5
77FF
330
1E
100
AcDbEntity
  8
10
100
AcDbLine
 10
-20.99999827850527
 20
-91.20745621185669
 30
0.0
 11
-20.99999827850527
 21
-90.00745680208344
 31
0.0
  0
LINE
  5
7800
330
1E
100
AcDbEntity
  8
10
100
AcDbLine
 10
-22.50000359655357
 20
-93.80554129017747
 30
0.0
 11
-20.99999827850527
 21
-91.20745621185669
 31
0.0
  0
LINE
  5
7801
330
1E
100
AcDbEntity
  8
10
100
AcDbLine
 10
-22.50000359655357
 20
-89.99999601728335
 30
0.0
 11
-20.99999827850527
 21
-90.00745923646849
 31
0.0
  0
LINE
  5
7802
330
1E
100
AcDbEntity
  8
10
100
AcDbLine
 10
-14.0000017214948
 20
-90.00745680208344
 30
0.0
 11
-14.0000017214948
 21
-91.20745621185669
 31
0.0
  0
CIRCLE
  5
7803
330
1E
100
AcDbEntity
  8
10
100
AcDbCircle
 10
-17.5
 20
-94.99999242253679
 30
0.0
 40
2.175250057989686
  0
LINE
  5
7804
330
1E
100
AcDbEntity
  8
10
100
AcDbLine
 10
-12.49999640344642
 20
-93.80554129017747
 30
0.0
 11
-12.49999640344642
 21
-98.99999159058261
 31
0.0
  0
LINE
  5
7805
330
1E
100
AcDbEntity
  8
10
100
AcDbLine
 10
-52.50000095254796
 20
90.00001234200983
 30
0.0
 11
-52.50000095254796
 21
86.00001430943242
 31
0.0
  0
LINE
  5
7808
330
1E
100
AcDbEntity
  8
10
100
AcDbLine
 10
-10.99999999999997
 20
22.5
 30
0.0
 11
-10.99999999999997
 21
-22.5
 31
0.0
  0
LINE
  5
7809
330
1E
100
AcDbEntity
  8
10
100
AcDbLine
 10
-7.0
 20
-18.5
 30
0.0
 11
-6.999999999999886
 21
20.15486870581037
 31
0.0
  0
ARC
  5
780A
330
1E
100
AcDbEntity
  8
10
100
AcDbCircle
 10
27.99999999999994
 20
-65.0
 30
0.0
 40
5.0
210
0.0
220
0.0
230
-1.0
100
AcDbArc
 50
90.0
 51
180.0
  0
LINE
  5
780B
330
1E
100
AcDbEntity
  8
10
100
AcDbLine
 10
-27.99999999999994
 20
-60.0
 30
0.0
 11
-42.0
 21
-60.0
 31
0.0
  0
ARC
  5
780C
330
1E
100
AcDbEntity
  8
10
100
AcDbCircle
 10
42.0
 20
-65.0
 30
0.0
 40
5.0
210
0.0
220
0.0
230
-1.0
100
AcDbArc
 50
0.0
 51
90.0
  0
LINE
  5
780D
330
1E
100
AcDbEntity
  8
12
100
AcDbLine
 10
-22.99999999999994
 20
-63.0
 30
0.0
 11
-12.0
 21
-63.0
 31
0.0
  0
LINE
  5
780E
330
1E
100
AcDbEntity
  8
12
100
AcDbLine
 10
-17.5
 20
-68.50000000000004
 30
0.0
 11
-17.5
 21
-57.5
 31
0.0
  0
CIRCLE
  5
780F
330
1E
100
AcDbEntity
  8
12
100
AcDbCircle
 10
17.5
 20
-63.0
 30
0.0
 40
4.0
210
0.0
220
0.0
230
-1.0
  0
ARC
  5
7810
330
1E
100
AcDbEntity
  8
10
100
AcDbCircle
 10
7.0
 20
-65.0
 30
0.0
 40
5.0
210
0.0
220
0.0
230
-1.0
100
AcDbArc
 50
0.0
 51
90.0
  0
ARC
  5
7811
330
1E
100
AcDbEntity
  8
10
100
AcDbCircle
 10
-27.99999999999994
 20
65.0
 30
0.0
 40
5.0
100
AcDbArc
 50
270.0
 51
0.0
  0
LINE
  5
7812
330
1E
100
AcDbEntity
  8
17
100
AcDbLine
 10
-35.0
 20
79.00000000000004
 30
0.0
 11
-35.0
 21
65.0
 31
0.0
  0
LINE
  5
7813
330
1E
100
AcDbEntity
  8
10
100
AcDbLine
 10
-47.0
 20
82.5
 30
0.0
 11
-47.0
 21
65.0
 31
0.0
  0
LINE
  5
7814
330
1E
100
AcDbEntity
  8
10
100
AcDbLine
 10
-27.99999999999994
 20
60.0
 30
0.0
 11
-42.0
 21
60.0
 31
0.0
  0
ARC
  5
7815
330
1E
100
AcDbEntity
  8
10
100
AcDbCircle
 10
-42.0
 20
65.0
 30
0.0
 40
5.0
100
AcDbArc
 50
180.0
 51
270.0
  0
LINE
  5
7816
330
1E
100
AcDbEntity
  8
17
100
AcDbLine
 10
-42.0
 20
72.00000000000007
 30
0.0
 11
-27.99999999999994
 21
72.00000000000007
 31
0.0
  0
CIRCLE
  5
7817
330
1E
100
AcDbEntity
  8
24
100
AcDbCircle
 10
-35.0
 20
72.00000000000007
 30
0.0
 40
5.0
  0
LINE
  5
7818
330
1E
100
AcDbEntity
  8
10
100
AcDbLine
 10
-49.99999612635526
 20
82.50001059770573
 30
0.0
 11
-49.99999612635526
 21
84.50000899138405
 31
0.0
  0
LINE
  5
7819
330
1E
100
AcDbEntity
  8
10
100
AcDbLine
 10
-52.50000095254796
 20
84.50000899138405
 30
0.0
 11
-52.50000095254796
 21
86.00001430943242
 31
0.0
  0
LINE
  5
781A
330
1E
100
AcDbEntity
  8
10
100
AcDbLine
 10
-49.99999612635526
 20
84.50000899138405
 30
0.0
 11
-52.50000095254796
 21
84.50000899138405
 31
0.0
  0
LINE
  5
781B
330
1E
100
AcDbEntity
  8
10
100
AcDbLine
 10
-12.0
 20
82.5
 30
0.0
 11
-12.0
 21
65.0
 31
0.0
  0
LINE
  5
781C
330
1E
100
AcDbEntity
  8
10
100
AcDbLine
 10
-22.99999999999994
 20
82.5
 30
0.0
 11
-22.99999999999994
 21
65.0
 31
0.0
  0
LINE
  5
781D
330
1E
100
AcDbEntity
  8
12
100
AcDbLine
 10
-17.5
 20
68.5
 30
0.0
 11
-17.5
 21
57.5
 31
0.0
  0
CIRCLE
  5
781E
330
1E
100
AcDbEntity
  8
12
100
AcDbCircle
 10
-17.5
 20
63.0
 30
0.0
 40
4.0
  0
LINE
  5
781F
330
1E
100
AcDbEntity
  8
12
100
AcDbLine
 10
-22.99999999999994
 20
63.0
 30
0.0
 11
-12.0
 21
63.0
 31
0.0
  0
ARC
  5
7820
330
1E
100
AcDbEntity
  8
10
100
AcDbCircle
 10
-7.0
 20
65.0
 30
0.0
 40
5.0
100
AcDbArc
 50
180.0
 51
270.0
  0
LINE
  5
7821
330
1E
100
AcDbEntity
  8
10
100
AcDbLine
 10
-52.50000095254796
 20
90.00001234200983
 30
0.0
 11
-22.50000359655357
 21
90.00001234200983
 31
0.0
  0
LINE
  5
7822
330
1E
100
AcDbEntity
  8
10
100
AcDbLine
 10
-12.49999640344642
 20
90.00001234200983
 30
0.0
 11
-14.0000017214948
 21
90.00746829418494
 31
0.0
  0
LINE
  5
7823
330
1E
100
AcDbEntity
  8
10
100
AcDbLine
 10
-12.49999640344642
 20
93.80554550324024
 30
0.0
 11
-14.0000017214948
 21
91.20747253658315
 31
0.0
  0
ARC
  5
7824
330
1E
100
AcDbEntity
  8
10
100
AcDbCircle
 10
-13.49999591159074
 20
98.99999580364536
 30
0.0
 40
0.9999999812562167
100
AcDbArc
 50
0.0
 51
90.0
  0
LINE
  5
7825
330
1E
100
AcDbEntity
  8
10
100
AcDbLine
 10
-22.50000359655357
 20
93.80554550324024
 30
0.0
 11
-22.50000359655357
 21
98.99999580364536
 31
0.0
  0
LINE
  5
7826
330
1E
100
AcDbEntity
  8
10
100
AcDbLine
 10
-17.49999680181186
 20
99.00002191038558
 30
0.0
 11
-17.49999680181186
 21
91.00002191038557
 31
0.0
  0
CIRCLE
  5
7827
330
1E
100
AcDbEntity
  8
10
100
AcDbCircle
 10
-17.5
 20
94.99999928502592
 30
0.0
 40
2.175250057989686
  0
LINE
  5
7828
330
1E
100
AcDbEntity
  8
10
100
AcDbLine
 10
-21.4999968018119
 20
95.0000219103855
 30
0.0
 11
-13.49999680181187
 21
95.0000219103855
 31
0.0
  0
LINE
  5
7829
330
1E
100
AcDbEntity
  8
10
100
AcDbLine
 10
-22.50000359655357
 20
90.00001234200983
 30
0.0
 11
-20.99999827850527
 21
90.00746829418494
 31
0.0
  0
LINE
  5
782A
330
1E
100
AcDbEntity
  8
10
100
AcDbLine
 10
-20.99999827850527
 20
91.20747253658315
 30
0.0
 11
-22.50000359655357
 21
93.80554550324024
 31
0.0
  0
LINE
  5
782B
330
1E
100
AcDbEntity
  8
10
100
AcDbLine
 10
-20.99999827850527
 20
90.00747312680989
 30
0.0
 11
-20.99999827850527
 21
91.20747253658315
 31
0.0
  0
LINE
  5
782C
330
1E
100
AcDbEntity
  8
10
100
AcDbLine
 10
-14.0000017214948
 20
91.20747253658315
 30
0.0
 11
-14.0000017214948
 21
90.00747312680989
 31
0.0
  0
LINE
  5
782D
330
1E
100
AcDbEntity
  8
10
100
AcDbLine
 10
-21.50000408840921
 20
100.0000074234532
 30
0.0
 11
-13.49999591159074
 21
100.0000074234532
 31
0.0
  0
ARC
  5
782E
330
1E
100
AcDbEntity
  8
10
100
AcDbCircle
 10
-21.50000408840921
 20
98.99999580364536
 30
0.0
 40
0.9999999812562167
100
AcDbArc
 50
90.0
 51
180.0
  0
LINE
  5
782F
330
1E
100
AcDbEntity
  8
10
100
AcDbLine
 10
-12.49999640344642
 20
98.99999580364536
 30
0.0
 11
-12.49999640344642
 21
93.80554550324024
 31
0.0
  0
DIMENSION
  5
7830
330
1E
100
AcDbEntity
  8
30
100
AcDbDimension
  2
*D12
 10
125.3720095788777
 20
90.00001234200977
 30
0.0
 11
122.3720095788777
 21
0.0000081623632153
 31
0.0
 70
    32
  3
STANDARD
100
AcDbAlignedDimension
 13
86.99998493607614
 23
-89.99999601728335
 33
0.0
 14
86.99998493607614
 24
90.00001234200977
 34
0.0
 50
270.0
100
AcDbRotatedDimension
  0
DIMENSION
  5
7831
330
1E
100
AcDbEntity
  8
30
100
AcDbDimension
  2
*D13
 10
106.6220095788775
 20
82.49999999999998
 30
0.0
 11
103.6220095788777
 21
-0.0000000000000133
 31
0.0
 70
    32
  3
STANDARD
100
AcDbAlignedDimension
 13
87.50000000000005
 23
-82.50000000000005
 33
0.0
 14
87.50000000000005
 24
82.5
 34
0.0
 50
270.0
100
AcDbRotatedDimension
  0
LINE
  5
7832
330
1E
100
AcDbEntity
  8
10
100
AcDbLine
 10
87.50000000000005
 20
82.5
 30
0.0
 11
87.50000000000005
 21
-82.50000000000005
 31
0.0
  0
LINE
  5
7833
330
1E
100
AcDbEntity
  8
17
100
AcDbLine
 10
35.00000000000003
 20
-65.0
 30
0.0
 11
35.00000000000003
 21
-79.0
 31
0.0
  0
LINE
  5
7834
330
1E
100
AcDbEntity
  8
10
100
AcDbLine
 10
23.00000000000002
 20
-82.50000000000005
 30
0.0
 11
23.00000000000002
 21
-65.0
 31
0.0
  0
LINE
  5
7835
330
1E
100
AcDbEntity
  8
10
100
AcDbLine
 10
47.0
 20
-82.50000000000005
 30
0.0
 11
47.0
 21
-65.0
 31
0.0
  0
LINE
  5
7836
330
1E
100
AcDbEntity
  8
10
100
AcDbLine
 10
12.0
 20
-82.50000000000005
 30
0.0
 11
12.0
 21
-65.0
 31
0.0
  0
LINE
  5
7837
330
1E
100
AcDbEntity
  8
17
100
AcDbLine
 10
70.0
 20
-65.0
 30
0.0
 11
70.0
 21
-79.0
 31
0.0
  0
LINE
  5
7838
330
1E
100
AcDbEntity
  8
10
100
AcDbLine
 10
58.0
 20
-82.50000000000005
 30
0.0
 11
58.0
 21
-65.0
 31
0.0
  0
LINE
  5
7839
330
1E
100
AcDbEntity
  8
10
100
AcDbLine
 10
82.00000000000008
 20
-82.50000000000005
 30
0.0
 11
82.00000000000008
 21
-65.0
 31
0.0
  0
CIRCLE
  5
783A
330
1E
100
AcDbEntity
  8
24
100
AcDbCircle
 10
35.00000000000003
 20
-72.0
 30
0.0
 40
5.0
  0
CIRCLE
  5
783B
330
1E
100
AcDbEntity
  8
24
100
AcDbCircle
 10
-70.0
 20
-72.0
 30
0.0
 40
5.0
210
0.0
220
0.0
230
-1.0
  0
LINE
  5
783C
330
1E
100
AcDbEntity
  8
10
100
AcDbLine
 10
56.50000599350505
 20
-99.99999109872696
 30
0.0
 11
48.49998570502293
 21
-99.99999109872696
 31
0.0
  0
LINE
  5
783D
330
1E
100
AcDbEntity
  8
10
100
AcDbLine
 10
48.50000190509581
 20
-94.99999242253679
 30
0.0
 11
56.50000190509587
 21
-94.99999242253679
 31
0.0
  0
CIRCLE
  5
783E
330
1E
100
AcDbEntity
  8
10
100
AcDbCircle
 10
52.50000190509581
 20
-94.99999242253679
 30
0.0
 40
2.175250057989686
  0
LINE
  5
783F
330
1E
100
AcDbEntity
  8
10
100
AcDbLine
 10
22.49999849326973
 20
-89.99999601728335
 30
0.0
 11
47.4999983085422
 21
-89.99999601728335
 31
0.0
  0
LINE
  5
7840
330
1E
100
AcDbEntity
  8
10
100
AcDbLine
 10
21.49998687346175
 20
-99.99999109872696
 30
0.0
 11
13.4999908083069
 21
-99.99999109872696
 31
0.0
  0
LINE
  5
7841
330
1E
100
AcDbEntity
  8
10
100
AcDbLine
 10
12.5000034118261
 20
-93.80554129017747
 30
0.0
 11
14.00000872987453
 21
-91.20745621185669
 31
0.0
  0
LINE
  5
7842
330
1E
100
AcDbEntity
  8
10
100
AcDbLine
 10
12.5000034118261
 20
-89.99999601728335
 30
0.0
 11
14.00000872987453
 21
-90.00745927262533
 31
0.0
  0
LINE
  5
7843
330
1E
100
AcDbEntity
  8
10
100
AcDbLine
 10
21.49998687346175
 20
-99.99999109872696
 30
0.0
 11
13.4999908083069
 21
-99.99999109872696
 31
0.0
  0
LINE
  5
7844
330
1E
100
AcDbEntity
  8
10
100
AcDbLine
 10
13.50000255164194
 20
-94.99998110985693
 30
0.0
 11
21.50000255164192
 21
-94.99998110985693
 31
0.0
  0
LINE
  5
7845
330
1E
100
AcDbEntity
  8
10
100
AcDbLine
 10
12.5000034118261
 20
-98.99999159058261
 30
0.0
 11
12.5000034118261
 21
-93.80554129017747
 31
0.0
  0
ARC
  5
7846
330
1E
100
AcDbEntity
  8
10
100
AcDbCircle
 10
13.4999908083069
 20
-98.99999159058261
 30
0.0
 40
0.9999999812562167
100
AcDbArc
 50
180.0
 51
270.0
  0
LINE
  5
7847
330
1E
100
AcDbEntity
  8
10
100
AcDbLine
 10
22.49999849326973
 20
-93.80554129017747
 30
0.0
 11
22.49999849326973
 21
-98.99999159058261
 31
0.0
  0
LINE
  5
7848
330
1E
100
AcDbEntity
  8
10
100
AcDbLine
 10
17.50000255164193
 20
-90.99998110985692
 30
0.0
 11
17.50000255164193
 21
-98.99998110985693
 31
0.0
  0
ARC
  5
7849
330
1E
100
AcDbEntity
  8
10
100
AcDbCircle
 10
21.49998687346175
 20
-98.99999159058261
 30
0.0
 40
0.9999999812562167
100
AcDbArc
 50
270.0
 51
0.0
  0
LINE
  5
784A
330
1E
100
AcDbEntity
  8
10
100
AcDbLine
 10
14.00000872987453
 20
-91.20745621185669
 30
0.0
 11
14.00000872987453
 21
-90.00745680208344
 31
0.0
  0
CIRCLE
  5
784B
330
1E
100
AcDbEntity
  8
10
100
AcDbCircle
 10
17.49998884088427
 20
-94.99999355800516
 30
0.0
 40
2.250000028793265
  0
LINE
  5
784C
330
1E
100
AcDbEntity
  8
10
100
AcDbLine
 10
22.49999849326973
 20
-89.99999601728335
 30
0.0
 11
20.99999317522128
 21
-90.00745927262533
 31
0.0
  0
LINE
  5
784D
330
1E
100
AcDbEntity
  8
10
100
AcDbLine
 10
20.99999317522128
 20
-90.00745680208344
 30
0.0
 11
20.99999317522128
 21
-91.20745621185669
 31
0.0
  0
LINE
  5
784E
330
1E
100
AcDbEntity
  8
10
100
AcDbLine
 10
20.99999317522128
 20
-91.20745621185669
 30
0.0
 11
22.49999849326973
 21
-93.80554129017747
 31
0.0
  0
LINE
  5
784F
330
1E
100
AcDbEntity
  8
10
100
AcDbLine
 10
47.4999983085422
 20
-98.99999159058261
 30
0.0
 11
47.4999983085422
 21
-93.80554129017747
 31
0.0
  0
LINE
  5
7850
330
1E
100
AcDbEntity
  8
10
100
AcDbLine
 10
52.50000190509581
 20
-90.99999242253678
 30
0.0
 11
52.50000190509581
 21
-98.99999242253677
 31
0.0
  0
ARC
  5
7851
330
1E
100
AcDbEntity
  8
10
100
AcDbCircle
 10
48.49998570502293
 20
-98.99999159058261
 30
0.0
 40
0.9999999812562167
100
AcDbArc
 50
180.0
 51
270.0
  0
LINE
  5
7852
330
1E
100
AcDbEntity
  8
10
100
AcDbLine
 10
49.00000362659056
 20
-91.20745621185669
 30
0.0
 11
49.00000362659056
 21
-90.00745680208344
 31
0.0
  0
LINE
  5
7853
330
1E
100
AcDbEntity
  8
10
100
AcDbLine
 10
47.4999983085422
 20
-89.99999601728335
 30
0.0
 11
49.00000362659056
 21
-90.00745927262533
 31
0.0
  0
LINE
  5
7854
330
1E
100
AcDbEntity
  8
10
100
AcDbLine
 10
47.4999983085422
 20
-93.80554129017747
 30
0.0
 11
49.00000362659056
 21
-91.20745621185669
 31
0.0
  0
LINE
  5
7855
330
1E
100
AcDbEntity
  8
17
100
AcDbLine
 10
28.00000000000002
 20
-72.0
 30
0.0
 11
42.0
 21
-72.0
 31
0.0
  0
LINE
  5
7856
330
1E
100
AcDbEntity
  8
10
100
AcDbLine
 10
57.49999338998581
 20
-89.99999601728335
 30
0.0
 11
83.74998956252278
 21
-89.99999601728335
 31
0.0
  0
LINE
  5
7857
330
1E
100
AcDbEntity
  8
10
100
AcDbLine
 10
57.49999338998581
 20
-93.80554129017747
 30
0.0
 11
57.49999338998581
 21
-98.99999159058261
 31
0.0
  0
ARC
  5
7858
330
1E
100
AcDbEntity
  8
10
100
AcDbCircle
 10
56.50000599350505
 20
-98.99999159058261
 30
0.0
 40
0.9999999812562167
100
AcDbArc
 50
270.0
 51
0.0
  0
LINE
  5
7859
330
1E
100
AcDbEntity
  8
10
100
AcDbLine
 10
55.99998807193742
 20
-90.00745680208344
 30
0.0
 11
55.99998807193742
 21
-91.20745621185669
 31
0.0
  0
LINE
  5
785A
330
1E
100
AcDbEntity
  8
10
100
AcDbLine
 10
55.99998807193742
 20
-91.20745621185669
 30
0.0
 11
57.49999338998581
 21
-93.80554129017747
 31
0.0
  0
LINE
  5
785B
330
1E
100
AcDbEntity
  8
10
100
AcDbLine
 10
57.49999338998581
 20
-89.99999601728335
 30
0.0
 11
55.99998807193742
 21
-90.00745927262533
 31
0.0
  0
LINE
  5
785C
330
1E
100
AcDbEntity
  8
17
100
AcDbLine
 10
77.00000000000007
 20
-72.0
 30
0.0
 11
63.0
 21
-72.0
 31
0.0
  0
LINE
  5
785D
330
1E
100
AcDbEntity
  8
10
100
AcDbLine
 10
87.50000285764375
 20
-82.4999894022944
 30
0.0
 11
87.50000285764375
 21
-89.49999020737939
 31
0.0
  0
ARC
  5
785E
330
1E
100
AcDbEntity
  8
10
100
AcDbCircle
 10
86.99998493607614
 20
-89.49999020737939
 30
0.0
 40
0.4999999906281084
100
AcDbArc
 50
270.0
 51
0.0
  0
ARC
  5
785F
330
1E
100
AcDbEntity
  8
10
100
AcDbCircle
 10
86.99998493607614
 20
-89.49999020737939
 30
0.0
 40
0.4999999906281084
100
AcDbArc
 50
270.0
 51
0.0
  0
LINE
  5
7860
330
1E
100
AcDbEntity
  8
10
100
AcDbLine
 10
86.99998493607614
 20
-89.99999601728335
 30
0.0
 11
83.74998956252278
 21
-89.99999601728335
 31
0.0
  0
LINE
  5
7861
330
1E
100
AcDbEntity
  8
10
100
AcDbLine
 10
87.50000285764375
 20
89.49999442044218
 30
0.0
 11
87.50000285764375
 21
82.50001059770573
 31
0.0
  0
LINE
  5
7863
330
1E
100
AcDbEntity
  8
10
100
AcDbLine
 10
11.00000000000002
 20
22.5
 30
0.0
 11
11.00000000000002
 21
-22.5
 31
0.0
  0
LINE
  5
7864
330
1E
100
AcDbEntity
  8
10
100
AcDbLine
 10
7.0
 20
-18.5
 30
0.0
 11
7.000000000000082
 21
20.15486870581037
 31
0.0
  0
ARC
  5
7865
330
1E
100
AcDbEntity
  8
10
100
AcDbCircle
 10
-28.00000000000002
 20
-65.0
 30
0.0
 40
5.0
210
0.0
220
0.0
230
-1.0
100
AcDbArc
 50
0.0
 51
90.0
  0
LINE
  5
7866
330
1E
100
AcDbEntity
  8
12
100
AcDbLine
 10
12.0
 20
-63.0
 30
0.0
 11
23.00000000000002
 21
-63.0
 31
0.0
  0
CIRCLE
  5
7867
330
1E
100
AcDbEntity
  8
12
100
AcDbCircle
 10
17.5
 20
-63.0
 30
0.0
 40
4.0
  0
ARC
  5
7868
330
1E
100
AcDbEntity
  8
10
100
AcDbCircle
 10
-7.0
 20
-65.0
 30
0.0
 40
5.0
210
0.0
220
0.0
230
-1.0
100
AcDbArc
 50
90.0
 51
180.0
  0
LINE
  5
7869
330
1E
100
AcDbEntity
  8
12
100
AcDbLine
 10
17.5
 20
-68.50000000000004
 30
0.0
 11
17.5
 21
-57.5
 31
0.0
  0
LINE
  5
786A
330
1E
100
AcDbEntity
  8
10
100
AcDbLine
 10
42.0
 20
-60.0
 30
0.0
 11
28.00000000000002
 21
-60.0
 31
0.0
  0
ARC
  5
786B
330
1E
100
AcDbEntity
  8
10
100
AcDbCircle
 10
-42.0
 20
-65.0
 30
0.0
 40
5.0
210
0.0
220
0.0
230
-1.0
100
AcDbArc
 50
90.0
 51
180.0
  0
ARC
  5
786C
330
1E
100
AcDbEntity
  8
10
100
AcDbCircle
 10
77.00000000000007
 20
-65.0
 30
0.0
 40
5.0
100
AcDbArc
 50
0.0
 51
90.0
  0
LINE
  5
786D
330
1E
100
AcDbEntity
  8
10
100
AcDbLine
 10
63.0
 20
-60.0
 30
0.0
 11
77.00000000000007
 21
-60.0
 31
0.0
  0
ARC
  5
786E
330
1E
100
AcDbEntity
  8
10
100
AcDbCircle
 10
63.0
 20
-65.0
 30
0.0
 40
5.0
100
AcDbArc
 50
90.0
 51
180.0
  0
ARC
  5
786F
330
1E
100
AcDbEntity
  8
10
100
AcDbCircle
 10
28.00000000000002
 20
65.0
 30
0.0
 40
5.0
100
AcDbArc
 50
180.0
 51
270.0
  0
LINE
  5
7870
330
1E
100
AcDbEntity
  8
10
100
AcDbLine
 10
23.00000000000002
 20
82.5
 30
0.0
 11
23.00000000000002
 21
65.0
 31
0.0
  0
LINE
  5
7871
330
1E
100
AcDbEntity
  8
10
100
AcDbLine
 10
12.0
 20
82.5
 30
0.0
 11
12.0
 21
65.0
 31
0.0
  0
LINE
  5
7872
330
1E
100
AcDbEntity
  8
12
100
AcDbLine
 10
17.5
 20
68.5
 30
0.0
 11
17.5
 21
57.5
 31
0.0
  0
CIRCLE
  5
7873
330
1E
100
AcDbEntity
  8
12
100
AcDbCircle
 10
-17.5
 20
63.0
 30
0.0
 40
4.0
210
0.0
220
0.0
230
-1.0
  0
LINE
  5
7874
330
1E
100
AcDbEntity
  8
12
100
AcDbLine
 10
12.0
 20
63.0
 30
0.0
 11
23.00000000000002
 21
63.0
 31
0.0
  0
ARC
  5
7875
330
1E
100
AcDbEntity
  8
10
100
AcDbCircle
 10
7.0
 20
65.0
 30
0.0
 40
5.0
100
AcDbArc
 50
270.0
 51
0.0
  0
LINE
  5
7876
330
1E
100
AcDbEntity
  8
17
100
AcDbLine
 10
35.00000000000003
 20
79.00000000000004
 30
0.0
 11
35.00000000000003
 21
65.0
 31
0.0
  0
LINE
  5
7877
330
1E
100
AcDbEntity
  8
10
100
AcDbLine
 10
47.0
 20
82.5
 30
0.0
 11
47.0
 21
65.0
 31
0.0
  0
LINE
  5
7878
330
1E
100
AcDbEntity
  8
10
100
AcDbLine
 10
42.0
 20
60.0
 30
0.0
 11
28.00000000000002
 21
60.0
 31
0.0
  0
ARC
  5
7879
330
1E
100
AcDbEntity
  8
10
100
AcDbCircle
 10
42.0
 20
65.0
 30
0.0
 40
5.0
100
AcDbArc
 50
270.0
 51
0.0
  0
LINE
  5
787A
330
1E
100
AcDbEntity
  8
17
100
AcDbLine
 10
28.00000000000002
 20
72.00000000000007
 30
0.0
 11
42.0
 21
72.00000000000007
 31
0.0
  0
CIRCLE
  5
787B
330
1E
100
AcDbEntity
  8
24
100
AcDbCircle
 10
35.00000000000003
 20
72.00000000000007
 30
0.0
 40
5.0
  0
LINE
  5
787C
330
1E
100
AcDbEntity
  8
10
100
AcDbLine
 10
66.5
 20
35.28553390593242
 30
0.0
 11
67.5
 21
36.28553390593248
 31
0.0
  0
LINE
  5
787D
330
1E
100
AcDbEntity
  8
10
100
AcDbLine
 10
66.5
 20
37.76040764008516
 30
0.0
 11
67.5
 21
38.76040764008518
 31
0.0
  0
LINE
  5
787E
330
1E
100
AcDbEntity
  8
10
100
AcDbLine
 10
66.5
 20
40.23528137423793
 30
0.0
 11
67.48272401107067
 21
41.21800538530862
 31
0.0
  0
LINE
  5
787F
330
1E
100
AcDbEntity
  8
10
100
AcDbLine
 10
66.5
 20
36.34619407771225
 30
0.0
 11
67.5
 21
37.34619407771219
 31
0.0
  0
LINE
  5
7880
330
1E
100
AcDbEntity
  8
10
100
AcDbLine
 10
66.5
 20
32.45710678118655
 30
0.0
 11
67.5
 21
33.45710678118649
 31
0.0
  0
LINE
  5
7881
330
1E
100
AcDbEntity
  8
10
100
AcDbLine
 10
66.5
 20
38.82106781186485
 30
0.0
 11
68.06504724263607
 21
40.38611505450091
 31
0.0
  0
LINE
  5
7882
330
1E
100
AcDbEntity
  8
10
100
AcDbLine
 10
66.5
 20
34.93198051533919
 30
0.0
 11
67.5
 21
35.93198051533915
 31
0.0
  0
LINE
  5
7883
330
1E
100
AcDbEntity
  8
10
100
AcDbLine
 10
66.5
 20
37.40685424949197
 30
0.0
 11
67.5
 21
38.40685424949197
 31
0.0
  0
LINE
  5
7884
330
1E
100
AcDbEntity
  8
10
100
AcDbLine
 10
66.5
 20
33.51776695296621
 30
0.0
 11
67.5
 21
34.51776695296621
 31
0.0
  0
LINE
  5
7885
330
1E
100
AcDbEntity
  8
10
100
AcDbLine
 10
66.5
 20
39.88172798364473
 30
0.0
 11
67.62830481896196
 21
41.0100328026067
 31
0.0
  0
LINE
  5
7886
330
1E
100
AcDbEntity
  8
10
100
AcDbLine
 10
66.5
 20
35.99264068711898
 30
0.0
 11
67.5
 21
36.99264068711897
 31
0.0
  0
LINE
  5
7887
330
1E
100
AcDbEntity
  8
10
100
AcDbLine
 10
66.5
 20
39.52817459305146
 30
0.0
 11
67.77388562685337
 21
40.80206021990477
 31
0.0
  0
LINE
  5
7888
330
1E
100
AcDbEntity
  8
10
100
AcDbLine
 10
66.5
 20
32.10355339059328
 30
0.0
 11
67.5
 21
33.10355339059327
 31
0.0
  0
LINE
  5
7889
330
1E
100
AcDbEntity
  8
10
100
AcDbLine
 10
66.5
 20
36.69974746830542
 30
0.0
 11
67.5
 21
37.6997474683054
 31
0.0
  0
LINE
  5
788A
330
1E
100
AcDbEntity
  8
10
100
AcDbLine
 10
66.5
 20
32.81066017177977
 30
0.0
 11
67.5
 21
33.81066017177971
 31
0.0
  0
LINE
  5
788B
330
1E
100
AcDbEntity
  8
10
100
AcDbLine
 10
66.5
 20
37.05330085889869
 30
0.0
 11
67.5
 21
38.05330085889869
 31
0.0
  0
LINE
  5
788C
330
1E
100
AcDbEntity
  8
10
100
AcDbLine
 10
66.5
 20
39.17462120245811
 30
0.0
 11
67.91946643474478
 21
40.59408763720284
 31
0.0
  0
LINE
  5
788D
330
1E
100
AcDbEntity
  8
10
100
AcDbLine
 10
66.5
 20
33.87132034355937
 30
0.0
 11
67.5
 21
34.87132034355937
 31
0.0
  0
LINE
  5
788E
330
1E
100
AcDbEntity
  8
10
100
AcDbLine
 10
66.5
 20
40.58883476483114
 30
0.0
 11
67.33714320317933
 21
41.4259779680105
 31
0.0
  0
LINE
  5
788F
330
1E
100
AcDbEntity
  8
10
100
AcDbLine
 10
66.5
 20
38.11396103067846
 30
0.0
 11
67.5
 21
39.11396103067835
 31
0.0
  0
LINE
  5
7890
330
1E
100
AcDbEntity
  8
10
100
AcDbLine
 10
66.5
 20
40.94238815542438
 30
0.0
 11
67.19156239528803
 21
41.63395055071243
 31
0.0
  0
LINE
  5
7891
330
1E
100
AcDbEntity
  8
10
100
AcDbLine
 10
66.5
 20
38.46751442127168
 30
0.0
 11
68.21062805052746
 21
40.17814247179904
 31
0.0
  0
LINE
  5
7892
330
1E
100
AcDbEntity
  8
10
100
AcDbLine
 10
66.5
 20
34.57842712474592
 30
0.0
 11
67.5
 21
35.57842712474593
 31
0.0
  0
LINE
  5
7893
330
1E
100
AcDbEntity
  8
10
100
AcDbLine
 10
66.5
 20
31.74999999999994
 30
0.0
 11
67.5
 21
32.74999999999987
 31
0.0
  0
LINE
  5
7894
330
1E
100
AcDbEntity
  8
10
100
AcDbLine
 10
66.5
 20
33.16421356237305
 30
0.0
 11
67.5
 21
34.16421356237293
 31
0.0
  0
LINE
  5
7895
330
1E
100
AcDbEntity
  8
10
100
AcDbLine
 10
66.5
 20
35.63908729652563
 30
0.0
 11
67.5
 21
36.63908729652575
 31
0.0
  0
LINE
  5
7896
330
1E
100
AcDbEntity
  8
10
100
AcDbLine
 10
66.85355339059339
 20
31.75000000000006
 30
0.0
 11
67.5
 21
32.39644660940664
 31
0.0
  0
LINE
  5
7897
330
1E
100
AcDbEntity
  8
10
100
AcDbLine
 10
66.5
 20
41.74999999999992
 30
0.0
 11
67.11032778078674
 21
41.74999999999992
 31
0.0
  0
LINE
  5
7898
330
1E
100
AcDbEntity
  8
10
100
AcDbLine
 10
66.5
 20
31.74999999999994
 30
0.0
 11
67.5
 21
31.74999999999994
 31
0.0
  0
LINE
  5
7899
330
1E
100
AcDbEntity
  8
10
100
AcDbLine
 10
66.5
 20
34.2248737341527
 30
0.0
 11
67.5
 21
35.22487373415271
 31
0.0
  0
CIRCLE
  5
789A
330
1E
100
AcDbEntity
  8
10
100
AcDbCircle
 10
70.0
 20
36.74999999999993
 30
0.0
 40
8.000000000000001
  0
LINE
  5
789B
330
1E
100
AcDbEntity
  8
10
100
AcDbLine
 10
66.5
 20
31.74999999999994
 30
0.0
 11
66.5
 21
41.74999999999992
 31
0.0
  0
LINE
  5
789C
330
1E
100
AcDbEntity
  8
10
100
AcDbLine
 10
66.5
 20
41.64949493661089
 30
0.0
 11
66.60050506338916
 21
41.74999999999992
 31
0.0
  0
LINE
  5
789D
330
1E
100
AcDbEntity
  8
10
100
AcDbLine
 10
66.5
 20
41.29594154601773
 30
0.0
 11
66.95405845398238
 21
41.74999999999992
 31
0.0
  0
LINE
  5
789E
330
1E
100
AcDbEntity
  8
10
100
AcDbLine
 10
69.09398425405356
 20
37.17241137879947
 30
0.0
 11
69.81201693733209
 21
37.89044406207784
 31
0.0
  0
LINE
  5
789F
330
1E
100
AcDbEntity
  8
10
100
AcDbLine
 10
72.5
 20
37.39644660940683
 30
0.0
 11
73.50000000000004
 21
38.39644660940683
 31
0.0
  0
LINE
  5
78A0
330
1E
100
AcDbEntity
  8
10
100
AcDbLine
 10
72.5
 20
34.05046825826655
 30
0.0
 11
72.5
 21
41.74999999999992
 31
0.0
  0
LINE
  5
78A1
330
1E
100
AcDbEntity
  8
10
100
AcDbLine
 10
72.5
 20
36.68933982822021
 30
0.0
 11
73.50000000000004
 21
37.68933982822017
 31
0.0
  0
LINE
  5
78A2
330
1E
100
AcDbEntity
  8
10
100
AcDbLine
 10
67.5
 20
39.44953174173326
 30
0.0
 11
72.88967221921336
 21
31.75000000000006
 31
0.0
  0
LINE
  5
78A3
330
1E
100
AcDbEntity
  8
10
100
AcDbLine
 10
67.5
 20
39.44953174173326
 30
0.0
 11
67.5
 21
31.74999999999994
 31
0.0
  0
LINE
  5
78A4
330
1E
100
AcDbEntity
  8
10
100
AcDbLine
 10
68.94840344616238
 20
37.38038396150153
 30
0.0
 11
69.66643612944074
 21
38.09841664477993
 31
0.0
  0
LINE
  5
78A5
330
1E
100
AcDbEntity
  8
10
100
AcDbLine
 10
73.50000000000004
 20
31.74999999999994
 30
0.0
 11
73.50000000000004
 21
41.74999999999992
 31
0.0
  0
LINE
  5
78A6
330
1E
100
AcDbEntity
  8
10
100
AcDbLine
 10
69.23956506194503
 20
36.96443879609768
 30
0.0
 11
69.95759774522344
 21
37.68247147937609
 31
0.0
  0
LINE
  5
78A7
330
1E
100
AcDbEntity
  8
10
100
AcDbLine
 10
69.38514586983638
 20
36.75646621339581
 30
0.0
 11
70.10317855311484
 21
37.4744988966742
 31
0.0
  0
LINE
  5
78A8
330
1E
100
AcDbEntity
  8
10
100
AcDbLine
 10
72.5
 20
37.04289321881342
 30
0.0
 11
73.50000000000004
 21
38.04289321881339
 31
0.0
  0
LINE
  5
78A9
330
1E
100
AcDbEntity
  8
10
100
AcDbLine
 10
67.11032778078674
 20
41.74999999999992
 30
0.0
 11
72.5
 21
34.05046825826655
 31
0.0
  0
LINE
  5
78AA
330
1E
100
AcDbEntity
  8
10
100
AcDbLine
 10
72.86396103067852
 20
31.74999999999994
 30
0.0
 11
73.50000000000004
 21
32.38603896932147
 31
0.0
  0
LINE
  5
78AB
330
1E
100
AcDbEntity
  8
10
100
AcDbLine
 10
72.5
 20
35.27512626584718
 30
0.0
 11
73.50000000000004
 21
36.27512626584717
 31
0.0
  0
LINE
  5
78AC
330
1E
100
AcDbEntity
  8
10
100
AcDbLine
 10
71.86001960398908
 20
33.22093230746332
 30
0.0
 11
73.50000000000004
 21
34.86091270347429
 31
0.0
  0
LINE
  5
78AD
330
1E
100
AcDbEntity
  8
10
100
AcDbLine
 10
69.67630748561908
 20
36.34052104799201
 30
0.0
 11
70.39434016889742
 21
37.05855373127036
 31
0.0
  0
LINE
  5
78AE
330
1E
100
AcDbEntity
  8
10
100
AcDbLine
 10
72.5
 20
34.21446609406739
 30
0.0
 11
73.50000000000004
 21
35.2144660940675
 31
0.0
  0
LINE
  5
78AF
330
1E
100
AcDbEntity
  8
10
100
AcDbLine
 10
70.69537314085835
 20
34.88471296907857
 30
0.0
 11
71.4134058241367
 21
35.60274565235696
 31
0.0
  0
LINE
  5
78B0
330
1E
100
AcDbEntity
  8
10
100
AcDbLine
 10
72.5
 20
36.335786437627
 30
0.0
 11
73.50000000000004
 21
37.33578643762706
 31
0.0
  0
LINE
  5
78B1
330
1E
100
AcDbEntity
  8
10
100
AcDbLine
 10
72.29676202766312
 20
32.59701455935754
 30
0.0
 11
73.50000000000004
 21
33.80025253169447
 31
0.0
  0
LINE
  5
78B2
330
1E
100
AcDbEntity
  8
10
100
AcDbLine
 10
70.113049909293
 20
35.71660329988617
 30
0.0
 11
70.83108259257149
 21
36.43463598316464
 31
0.0
  0
LINE
  5
78B3
330
1E
100
AcDbEntity
  8
10
100
AcDbLine
 10
73.50000000000004
 20
31.74999999999994
 30
0.0
 11
72.88967221921343
 21
31.74999999999994
 31
0.0
  0
LINE
  5
78B4
330
1E
100
AcDbEntity
  8
10
100
AcDbLine
 10
71.13211556453234
 20
34.26079522097278
 30
0.0
 11
71.85014824781081
 21
34.97882790425119
 31
0.0
  0
LINE
  5
78B5
330
1E
100
AcDbEntity
  8
10
100
AcDbLine
 10
71.71443879609779
 20
33.4289048901652
 30
0.0
 11
72.43247147937609
 21
34.14693757344348
 31
0.0
  0
LINE
  5
78B6
330
1E
100
AcDbEntity
  8
10
100
AcDbLine
 10
72.5
 20
34.92157287525401
 30
0.0
 11
73.50000000000004
 21
35.92157287525401
 31
0.0
  0
LINE
  5
78B7
330
1E
100
AcDbEntity
  8
10
100
AcDbLine
 10
69.53072667772767
 20
36.54849363069393
 30
0.0
 11
70.24875936100613
 21
37.26652631397228
 31
0.0
  0
LINE
  5
78B8
330
1E
100
AcDbEntity
  8
10
100
AcDbLine
 10
72.73350445133712
 20
31.97309681125182
 30
0.0
 11
73.50000000000004
 21
32.73959235991475
 31
0.0
  0
LINE
  5
78B9
330
1E
100
AcDbEntity
  8
10
100
AcDbLine
 10
70.54979233296704
 20
35.09268555178039
 30
0.0
 11
71.26782501624539
 21
35.81071823505885
 31
0.0
  0
LINE
  5
78BA
330
1E
100
AcDbEntity
  8
10
100
AcDbLine
 10
67.20710678118661
 20
31.74999999999994
 30
0.0
 11
67.5
 21
32.04289321881342
 31
0.0
  0
LINE
  5
78BB
330
1E
100
AcDbEntity
  8
10
100
AcDbLine
 10
72.44234283555441
 20
32.3890419766556
 30
0.0
 11
73.50000000000004
 21
33.44669914110125
 31
0.0
  0
LINE
  5
78BC
330
1E
100
AcDbEntity
  8
10
100
AcDbLine
 10
70.25863071718436
 20
35.50863071718429
 30
0.0
 11
70.9766634004627
 21
36.22666340046271
 31
0.0
  0
LINE
  5
78BD
330
1E
100
AcDbEntity
  8
10
100
AcDbLine
 10
71.27769637242375
 20
34.05282263827098
 30
0.0
 11
71.9957290557022
 21
34.77085532154926
 31
0.0
  0
LINE
  5
78BE
330
1E
100
AcDbEntity
  8
10
100
AcDbLine
 10
72.5
 20
35.6286796564405
 30
0.0
 11
73.50000000000004
 21
36.6286796564405
 31
0.0
  0
LINE
  5
78BF
330
1E
100
AcDbEntity
  8
10
100
AcDbLine
 10
72.15118121977184
 20
32.80498714205946
 30
0.0
 11
73.50000000000004
 21
34.15380592228768
 31
0.0
  0
LINE
  5
78C0
330
1E
100
AcDbEntity
  8
10
100
AcDbLine
 10
69.96746910140178
 20
35.9245758825881
 30
0.0
 11
70.68550178468019
 21
36.64260856586651
 31
0.0
  0
LINE
  5
78C1
330
1E
100
AcDbEntity
  8
10
100
AcDbLine
 10
70.98653475664105
 20
34.46876780367471
 30
0.0
 11
71.70456743991945
 21
35.18680048695313
 31
0.0
  0
LINE
  5
78C2
330
1E
100
AcDbEntity
  8
10
100
AcDbLine
 10
72.5
 20
34.56801948466079
 30
0.0
 11
73.50000000000004
 21
35.56801948466072
 31
0.0
  0
LINE
  5
78C3
330
1E
100
AcDbEntity
  8
10
100
AcDbLine
 10
71.56885798820633
 20
33.63687747286695
 30
0.0
 11
72.28689067148479
 21
34.35491015614559
 31
0.0
  0
LINE
  5
78C4
330
1E
100
AcDbEntity
  8
10
100
AcDbLine
 10
72.58792364344571
 20
32.18106939395374
 30
0.0
 11
73.50000000000004
 21
33.09314575050803
 31
0.0
  0
LINE
  5
78C5
330
1E
100
AcDbEntity
  8
10
100
AcDbLine
 10
70.40421152507576
 20
35.30065813448243
 30
0.0
 11
71.12224420835412
 21
36.01869081776084
 31
0.0
  0
LINE
  5
78C6
330
1E
100
AcDbEntity
  8
10
100
AcDbLine
 10
70.84095394874975
 20
34.67674038637665
 30
0.0
 11
71.55898663202816
 21
35.39477306965506
 31
0.0
  0
LINE
  5
78C7
330
1E
100
AcDbEntity
  8
10
100
AcDbLine
 10
72.5
 20
35.98223304703372
 30
0.0
 11
73.50000000000004
 21
36.98223304703372
 31
0.0
  0
LINE
  5
78C8
330
1E
100
AcDbEntity
  8
10
100
AcDbLine
 10
73.21751442127172
 20
31.74999999999994
 30
0.0
 11
73.50000000000004
 21
32.03248557872825
 31
0.0
  0
LINE
  5
78C9
330
1E
100
AcDbEntity
  8
10
100
AcDbLine
 10
71.42327718031499
 20
33.84485005556894
 30
0.0
 11
72.14130986359339
 21
34.56288273884752
 31
0.0
  0
LINE
  5
78CA
330
1E
100
AcDbEntity
  8
10
100
AcDbLine
 10
72.00560041188044
 20
33.0129597247614
 30
0.0
 11
73.50000000000004
 21
34.50735931288113
 31
0.0
  0
LINE
  5
78CB
330
1E
100
AcDbEntity
  8
10
100
AcDbLine
 10
69.82188829351037
 20
36.13254846529002
 30
0.0
 11
70.53992097678872
 21
36.85058114856843
 31
0.0
  0
LINE
  5
78CC
330
1E
100
AcDbEntity
  8
10
100
AcDbLine
 10
68.65724183037968
 20
37.79632912690527
 30
0.0
 11
69.37527451365804
 21
38.51436181018367
 31
0.0
  0
LINE
  5
78CD
330
1E
100
AcDbEntity
  8
10
100
AcDbLine
 10
72.5
 20
41.63908729652574
 30
0.0
 11
72.61091270347434
 21
41.74999999999992
 31
0.0
  0
LINE
  5
78CE
330
1E
100
AcDbEntity
  8
10
100
AcDbLine
 10
67.929337790923
 20
38.83619204041485
 30
0.0
 11
68.64737047420135
 21
39.55422472369326
 31
0.0
  0
LINE
  5
78CF
330
1E
100
AcDbEntity
  8
10
100
AcDbLine
 10
72.5
 20
38.81066017177971
 30
0.0
 11
73.50000000000004
 21
39.81066017177964
 31
0.0
  0
LINE
  5
78D0
330
1E
100
AcDbEntity
  8
10
100
AcDbLine
 10
68.07491859881435
 20
38.62821945771297
 30
0.0
 11
68.79295128209264
 21
39.34625214099138
 31
0.0
  0
LINE
  5
78D1
330
1E
100
AcDbEntity
  8
10
100
AcDbLine
 10
72.5
 20
37.75000000000005
 30
0.0
 11
73.50000000000004
 21
38.75
 31
0.0
  0
LINE
  5
78D2
330
1E
100
AcDbEntity
  8
10
100
AcDbLine
 10
68.36608021459699
 20
38.21227429230913
 30
0.0
 11
69.0841128978754
 21
38.93030697558754
 31
0.0
  0
LINE
  5
78D3
330
1E
100
AcDbEntity
  8
10
100
AcDbLine
 10
72.5
 20
39.16421356237305
 30
0.0
 11
73.50000000000004
 21
40.16421356237299
 31
0.0
  0
LINE
  5
78D4
330
1E
100
AcDbEntity
  8
10
100
AcDbLine
 10
72.5
 20
41.28553390593237
 30
0.0
 11
72.96446609406769
 21
41.74999999999992
 31
0.0
  0
LINE
  5
78D5
330
1E
100
AcDbEntity
  8
10
100
AcDbLine
 10
72.5
 20
40.22487373415271
 30
0.0
 11
73.50000000000004
 21
41.22487373415276
 31
0.0
  0
LINE
  5
78D6
330
1E
100
AcDbEntity
  8
10
100
AcDbLine
 10
72.5
 20
41.74999999999992
 30
0.0
 11
73.50000000000004
 21
41.74999999999992
 31
0.0
  0
LINE
  5
78D7
330
1E
100
AcDbEntity
  8
10
100
AcDbLine
 10
72.5
 20
40.57842712474593
 30
0.0
 11
73.50000000000004
 21
41.57842712474597
 31
0.0
  0
LINE
  5
78D8
330
1E
100
AcDbEntity
  8
10
100
AcDbLine
 10
68.2204994067057
 20
38.42024687501106
 30
0.0
 11
68.93853208998405
 21
39.13827955828939
 31
0.0
  0
LINE
  5
78D9
330
1E
100
AcDbEntity
  8
10
100
AcDbLine
 10
72.5
 20
39.87132034355949
 30
0.0
 11
73.50000000000004
 21
40.87132034355943
 31
0.0
  0
LINE
  5
78DA
330
1E
100
AcDbEntity
  8
10
100
AcDbLine
 10
72.5
 20
39.51776695296621
 30
0.0
 11
73.50000000000004
 21
40.51776695296621
 31
0.0
  0
LINE
  5
78DB
330
1E
100
AcDbEntity
  8
10
100
AcDbLine
 10
72.5
 20
38.45710678118649
 30
0.0
 11
73.50000000000004
 21
39.45710678118649
 31
0.0
  0
LINE
  5
78DC
330
1E
100
AcDbEntity
  8
10
100
AcDbLine
 10
72.5
 20
38.10355339059303
 30
0.0
 11
73.50000000000004
 21
39.10355339059321
 31
0.0
  0
LINE
  5
78DD
330
1E
100
AcDbEntity
  8
10
100
AcDbLine
 10
68.51166102248839
 20
38.0043017096072
 30
0.0
 11
69.22969370576675
 21
38.7223343928856
 31
0.0
  0
LINE
  5
78DE
330
1E
100
AcDbEntity
  8
10
100
AcDbLine
 10
72.5
 20
40.93198051533931
 30
0.0
 11
73.31801948466069
 21
41.74999999999992
 31
0.0
  0
LINE
  5
78DF
330
1E
100
AcDbEntity
  8
10
100
AcDbLine
 10
68.80282263827098
 20
37.58835654420335
 30
0.0
 11
69.52085532154945
 21
38.30638922748185
 31
0.0
  0
LINE
  5
78E0
330
1E
100
AcDbEntity
  8
10
100
AcDbLine
 10
67.78375698303159
 20
39.04416462311678
 30
0.0
 11
68.50178966631006
 21
39.76219730639535
 31
0.0
  0
LINE
  5
78E1
330
1E
100
AcDbEntity
  8
10
100
AcDbLine
 10
67.6381761751403
 20
39.25213720581871
 30
0.0
 11
68.35620885841875
 21
39.97016988909712
 31
0.0
  0
ARC
  5
78E2
330
1E
100
AcDbEntity
  8
10
100
AcDbCircle
 10
-77.00000000000007
 20
65.0
 30
0.0
 40
5.0
210
0.0
220
0.0
230
-1.0
100
AcDbArc
 50
180.0
 51
270.0
  0
LINE
  5
78E3
330
1E
100
AcDbEntity
  8
17
100
AcDbLine
 10
70.0
 20
79.00000000000004
 30
0.0
 11
70.0
 21
65.0
 31
0.0
  0
LINE
  5
78E4
330
1E
100
AcDbEntity
  8
10
100
AcDbLine
 10
58.0
 20
82.5
 30
0.0
 11
58.0
 21
65.0
 31
0.0
  0
LINE
  5
78E5
330
1E
100
AcDbEntity
  8
10
100
AcDbLine
 10
63.0
 20
60.0
 30
0.0
 11
77.00000000000007
 21
60.0
 31
0.0
  0
ARC
  5
78E6
330
1E
100
AcDbEntity
  8
10
100
AcDbCircle
 10
-63.0
 20
65.0
 30
0.0
 40
5.0
210
0.0
220
0.0
230
-1.0
100
AcDbArc
 50
270.0
 51
0.0
  0
LINE
  5
78E7
330
1E
100
AcDbEntity
  8
17
100
AcDbLine
 10
77.00000000000007
 20
72.00000000000007
 30
0.0
 11
63.0
 21
72.00000000000007
 31
0.0
  0
CIRCLE
  5
78E8
330
1E
100
AcDbEntity
  8
24
100
AcDbCircle
 10
-70.0
 20
72.00000000000007
 30
0.0
 40
5.0
210
0.0
220
0.0
230
-1.0
  0
LINE
  5
78E9
330
1E
100
AcDbEntity
  8
10
100
AcDbLine
 10
82.00000000000008
 20
82.5
 30
0.0
 11
82.00000000000008
 21
65.0
 31
0.0
  0
LINE
  5
78EA
330
1E
100
AcDbEntity
  8
10
100
AcDbLine
 10
48.49998570502293
 20
100.0000074234532
 30
0.0
 11
56.50000599350505
 21
100.0000074234532
 31
0.0
  0
LINE
  5
78EB
330
1E
100
AcDbEntity
  8
10
100
AcDbLine
 10
48.50000190509581
 20
94.99999928502592
 30
0.0
 11
56.50000190509587
 21
94.99999928502592
 31
0.0
  0
CIRCLE
  5
78EC
330
1E
100
AcDbEntity
  8
10
100
AcDbCircle
 10
52.50000190509581
 20
94.99999928502592
 30
0.0
 40
2.175250057989686
  0
LINE
  5
78ED
330
1E
100
AcDbEntity
  8
10
100
AcDbLine
 10
22.49999849326973
 20
90.00001234200983
 30
0.0
 11
47.4999983085422
 21
90.00001234200983
 31
0.0
  0
LINE
  5
78EE
330
1E
100
AcDbEntity
  8
10
100
AcDbLine
 10
12.5000034118261
 20
90.00001234200983
 30
0.0
 11
14.00000872987453
 21
90.00746833030655
 31
0.0
  0
LINE
  5
78EF
330
1E
100
AcDbEntity
  8
10
100
AcDbLine
 10
14.00000872987453
 20
91.20747253658315
 30
0.0
 11
12.5000034118261
 21
93.80554550324024
 31
0.0
  0
LINE
  5
78F0
330
1E
100
AcDbEntity
  8
10
100
AcDbLine
 10
13.4999908083069
 20
100.0000074234532
 30
0.0
 11
21.49998687346175
 21
100.0000074234532
 31
0.0
  0
LINE
  5
78F1
330
1E
100
AcDbEntity
  8
10
100
AcDbLine
 10
13.50000255164194
 20
95.0000105977058
 30
0.0
 11
21.50000255164192
 21
95.0000105977058
 31
0.0
  0
LINE
  5
78F2
330
1E
100
AcDbEntity
  8
10
100
AcDbLine
 10
12.5000034118261
 20
93.80554550324024
 30
0.0
 11
12.5000034118261
 21
98.99999580364536
 31
0.0
  0
ARC
  5
78F3
330
1E
100
AcDbEntity
  8
10
100
AcDbCircle
 10
13.4999908083069
 20
98.99999580364536
 30
0.0
 40
0.9999999812562167
100
AcDbArc
 50
90.0
 51
180.0
  0
LINE
  5
78F4
330
1E
100
AcDbEntity
  8
10
100
AcDbLine
 10
22.49999849326973
 20
98.99999580364536
 30
0.0
 11
22.49999849326973
 21
93.80554550324024
 31
0.0
  0
LINE
  5
78F5
330
1E
100
AcDbEntity
  8
10
100
AcDbLine
 10
17.50000255164193
 20
99.00001059770573
 30
0.0
 11
17.50000255164193
 21
91.00001059770582
 31
0.0
  0
CIRCLE
  5
78F6
330
1E
100
AcDbEntity
  8
10
100
AcDbCircle
 10
17.49998884088427
 20
94.99999777106792
 30
0.0
 40
2.250000028793265
  0
LINE
  5
78F7
330
1E
100
AcDbEntity
  8
10
100
AcDbLine
 10
14.00000872987453
 20
90.00747312680989
 30
0.0
 11
14.00000872987453
 21
91.20747253658315
 31
0.0
  0
LINE
  5
78F8
330
1E
100
AcDbEntity
  8
10
100
AcDbLine
 10
22.49999849326973
 20
90.00001234200983
 30
0.0
 11
20.99999317522128
 21
90.00746833030655
 31
0.0
  0
LINE
  5
78F9
330
1E
100
AcDbEntity
  8
10
100
AcDbLine
 10
22.49999849326973
 20
93.80554550324024
 30
0.0
 11
20.99999317522128
 21
91.20747253658315
 31
0.0
  0
LINE
  5
78FA
330
1E
100
AcDbEntity
  8
10
100
AcDbLine
 10
20.99999317522128
 20
91.20747253658315
 30
0.0
 11
20.99999317522128
 21
90.00747312680989
 31
0.0
  0
ARC
  5
78FB
330
1E
100
AcDbEntity
  8
10
100
AcDbCircle
 10
21.49998687346175
 20
98.99999580364536
 30
0.0
 40
0.9999999812562167
100
AcDbArc
 50
0.0
 51
90.0
  0
LINE
  5
78FC
330
1E
100
AcDbEntity
  8
10
100
AcDbLine
 10
47.4999983085422
 20
93.80554550324024
 30
0.0
 11
47.4999983085422
 21
98.99999580364536
 31
0.0
  0
LINE
  5
78FD
330
1E
100
AcDbEntity
  8
10
100
AcDbLine
 10
52.50000190509581
 20
98.99999928502593
 30
0.0
 11
52.50000190509581
 21
90.99999928502588
 31
0.0
  0
LINE
  5
78FE
330
1E
100
AcDbEntity
  8
10
100
AcDbLine
 10
49.00000362659056
 20
90.00747312680989
 30
0.0
 11
49.00000362659056
 21
91.20747253658315
 31
0.0
  0
LINE
  5
78FF
330
1E
100
AcDbEntity
  8
10
100
AcDbLine
 10
47.4999983085422
 20
90.00001234200983
 30
0.0
 11
49.00000362659056
 21
90.00746833030655
 31
0.0
  0
LINE
  5
7900
330
1E
100
AcDbEntity
  8
10
100
AcDbLine
 10
49.00000362659056
 20
91.20747253658315
 30
0.0
 11
47.4999983085422
 21
93.80554550324024
 31
0.0
  0
ARC
  5
7901
330
1E
100
AcDbEntity
  8
10
100
AcDbCircle
 10
48.49998570502293
 20
98.99999580364536
 30
0.0
 40
0.9999999812562167
100
AcDbArc
 50
90.0
 51
180.0
  0
LINE
  5
7902
330
1E
100
AcDbEntity
  8
10
100
AcDbLine
 10
57.49999338998581
 20
90.00001234200983
 30
0.0
 11
83.74998956252278
 21
90.00001234200983
 31
0.0
  0
LINE
  5
7903
330
1E
100
AcDbEntity
  8
10
100
AcDbLine
 10
57.49999338998581
 20
98.99999580364536
 30
0.0
 11
57.49999338998581
 21
93.80554550324024
 31
0.0
  0
LINE
  5
7904
330
1E
100
AcDbEntity
  8
10
100
AcDbLine
 10
57.49999338998581
 20
98.99999580364536
 30
0.0
 11
57.49999338998581
 21
93.80554550324024
 31
0.0
  0
LINE
  5
7905
330
1E
100
AcDbEntity
  8
10
100
AcDbLine
 10
55.99998807193742
 20
91.20747253658315
 30
0.0
 11
55.99998807193742
 21
90.00747312680989
 31
0.0
  0
LINE
  5
7906
330
1E
100
AcDbEntity
  8
10
100
AcDbLine
 10
57.49999338998581
 20
93.80554550324024
 30
0.0
 11
55.99998807193742
 21
91.20747253658315
 31
0.0
  0
LINE
  5
7907
330
1E
100
AcDbEntity
  8
10
100
AcDbLine
 10
57.49999338998581
 20
90.00001234200983
 30
0.0
 11
55.99998807193742
 21
90.00746833030655
 31
0.0
  0
ARC
  5
7908
330
1E
100
AcDbEntity
  8
10
100
AcDbCircle
 10
56.50000599350505
 20
98.99999580364536
 30
0.0
 40
0.9999999812562167
100
AcDbArc
 50
0.0
 51
90.0
  0
ARC
  5
7909
330
1E
100
AcDbEntity
  8
10
100
AcDbCircle
 10
86.99998493607614
 20
89.49999442044218
 30
0.0
 40
0.4999999906281084
100
AcDbArc
 50
0.0
 51
90.0
  0
ARC
  5
790A
330
1E
100
AcDbEntity
  8
10
100
AcDbCircle
 10
86.99998493607614
 20
89.49999442044218
 30
0.0
 40
0.4999999906281084
100
AcDbArc
 50
0.0
 51
90.0
  0
LINE
  5
790B
330
1E
100
AcDbEntity
  8
10
100
AcDbLine
 10
83.74998956252278
 20
90.00001234200983
 30
0.0
 11
86.99998493607614
 21
90.00001234200983
 31
0.0
  0
DIMENSION
  5
7E90
330
1E
100
AcDbEntity
  8
30
100
AcDbDimension
  2
*D16
 10
354.8314483638288
 20
-130.0
 30
0.0
 11
267.3314480567007
 21
-127.0
 31
0.0
 70
    32
  3
STANDARD
100
AcDbAlignedDimension
 13
179.8314477495724
 23
-2.500000016499996
 33
0.0
 14
354.8314483638288
 24
-89.99999206798291
 34
0.0
 50
180.0
100
AcDbRotatedDimension
  0
DIMENSION
  5
7E91
330
1E
100
AcDbEntity
  8
30
100
AcDbDimension
  2
*D17
 10
354.8314483638288
 20
-120.0
 30
0.0
 11
277.3314480567007
 21
-117.0
 31
0.0
 70
    32
  3
STANDARD
100
AcDbAlignedDimension
 13
199.8314477495726
 23
-22.5
 33
0.0
 14
354.8314483638288
 24
-89.99999206798291
 34
0.0
 50
180.0
100
AcDbRotatedDimension
  0
DIMENSION
  5
7E92
330
1E
100
AcDbEntity
  8
30
100
AcDbDimension
  2
*D18
 10
199.8314477495726
 20
-120.0
 30
0.0
 11
206.1647810829059
 21
-117.0
 31
0.0
 70
    32
  3
STANDARD
100
AcDbAlignedDimension
 13
195.8314477495724
 23
-22.5
 33
0.0
 14
199.8314477495726
 24
-22.5
 34
0.0
 50
180.0
100
AcDbRotatedDimension
  0
DIMENSION
  5
7E93
330
1E
100
AcDbEntity
  8
30
100
AcDbDimension
  2
*D19
 10
381.83144719539
 20
-108.9999999999996
 30
0.0
 11
368.3314477796096
 21
-105.9999999999996
 31
0.0
 70
    32
  3
STANDARD
100
AcDbAlignedDimension
 13
354.8314483638288
 23
-52.9999976631225
 33
0.0
 14
381.83144719539
 24
-86.99999305169422
 34
0.0
 50
180.0
100
AcDbRotatedDimension
  0
DIMENSION
  5
7E94
330
1E
100
AcDbEntity
  8
30
100
AcDbDimension
  2
*D20
 10
354.8314483638288
 20
-110.0
 30
0.0
 11
279.3314480567008
 21
-107.0
 31
0.0
 70
    32
  3
STANDARD
100
AcDbAlignedDimension
 13
203.8314477495724
 23
-51.0
 33
0.0
 14
354.8314483638288
 24
-89.99999206798291
 34
0.0
 50
180.0
100
AcDbRotatedDimension
  0
DIMENSION
  5
7E9D
330
1E
100
AcDbEntity
  8
30
100
AcDbDimension
  2
*D21
 10
306.8314477495726
 20
-100.0
 30
0.0
 11
258.8314477495726
 21
-97.0
 31
0.0
 70
    32
  3
STANDARD
100
AcDbAlignedDimension
 13
210.8314477495726
 23
-82.50000000000005
 33
0.0
 14
306.8314477495726
 24
-82.5
 34
0.0
 50
180.0
100
AcDbRotatedDimension
  0
DIMENSION
  5
7F2B
330
1E
100
AcDbEntity
  8
30
100
AcDbDimension
  2
*D14
 10
-80.25299098005456
 20
51.00000000000001
 30
0.0
 11
-83.25299098005457
 21
-0.0000000000000089
 31
0.0
 70
    32
  3
STANDARD
100
AcDbAlignedDimension
 13
-52.49999999999993
 23
-51.0
 33
0.0
 14
-52.49999999999993
 24
51.0
 34
0.0
 50
90.0
100
AcDbRotatedDimension
  0
DIMENSION
  5
7F2C
330
1E
100
AcDbEntity
  8
30
100
AcDbDimension
  2
*D15
 10
-65.5029909800545
 20
-22.49999999999999
 30
0.0
 11
-68.5029909800545
 21
-0.0000000000000063
 31
0.0
 70
    32
  3
STANDARD
100
AcDbAlignedDimension
 13
-51.5
 23
22.5
 33
0.0
 14
-51.5
 24
-22.5
 34
0.0
 50
90.0
100
AcDbRotatedDimension
  0
DIMENSION
  5
84A7
330
1E
100
AcDbEntity
  8
30
100
AcDbDimension
  2
*D24
 10
59.99999999999978
 20
-439.1618080185514
 30
0.0
 11
52.5
 21
-436.1618080185514
 31
0.0
 70
    32
  3
STANDARD
100
AcDbAlignedDimension
 13
45.00000000000023
 23
-335.0
 33
0.0
 14
59.99999999999978
 24
-335.0
 34
0.0
 50
180.0
100
AcDbRotatedDimension
  0
DIMENSION
  5
84A8
330
1E
100
AcDbEntity
  8
30
100
AcDbDimension
  2
*D25
 10
52.49999999999978
 20
-457.9118080185515
 30
0.0
 11
17.5
 21
-454.9118080185515
 31
0.0
 70
    32
  3
STANDARD
100
AcDbAlignedDimension
 13
-17.49999999999976
 23
-350.0000000165001
 33
0.0
 14
52.49999999999978
 24
-350.0000000165001
 34
0.0
 50
180.0
100
AcDbRotatedDimension
  0
LINE
  5
84AA
330
1E
100
AcDbEntity
  8
18
 48
2.0
100
AcDbLine
 10
-49.99999547980928
 20
-394.5000032643633
 30
0.0
 11
-49.99999547980928
 21
-369.0000097508505
 31
0.0
  0
LINE
  5
84AC
330
1E
100
AcDbEntity
  8
18
 48
2.0
100
AcDbLine
 10
87.50000350418963
 20
-219.9999982556959
 30
0.0
 11
87.50000350418963
 21
-399.5000066149891
 31
0.0
  0
INSERT
  5
84AD
330
1E
100
AcDbEntity
  8
30
100
AcDbBlockReference
  2
*U22
 10
-1233.627990430622
 20
-614.1618080090514
 30
0.0
 41
2.5
 42
2.5
 43
2.5
  0
INSERT
  5
84AE
330
1E
100
AcDbEntity
  8
30
100
AcDbBlockReference
  2
*U23
 10
-1233.627990430622
 20
-614.1618080090514
 30
0.0
 41
2.5
 42
2.5
 43
2.5
  0
TEXT
  5
84AF
330
1E
100
AcDbEntity
  8
30
100
AcDbText
 10
74.0893065963876
 20
-424.4116046251979
 30
0.0
 40
6.25
  1
Mounting plate
 41
0.7125304878048843
  7
UGMTXT
100
AcDbText
  0
LINE
  5
84B0
330
1E
100
AcDbEntity
  8
18
 48
2.0
100
AcDbLine
 10
-12.99999999999974
 20
-400.0
 30
0.0
 11
13.0
 21
-400.0
 31
0.0
  0
LINE
  5
84B1
330
1E
100
AcDbEntity
  8
18
 48
2.0
100
AcDbLine
 10
-48.0
 20
-400.0
 30
0.0
 11
-22.0
 21
-400.0
 31
0.0
  0
LINE
  5
84B2
330
1E
100
AcDbEntity
  8
18
 48
2.0
100
AcDbLine
 10
-52.50000030600197
 20
-394.5000032643633
 30
0.0
 11
-52.50000030600197
 21
-399.5000008050851
 31
0.0
  0
LINE
  5
84B3
330
1E
100
AcDbEntity
  8
18
 48
2.0
100
AcDbLine
 10
-52.5
 20
-398.0000000000001
 30
0.0
 11
-52.5
 21
-400.0
 31
0.0
  0
LINE
  5
84B4
330
1E
100
AcDbEntity
  8
18
 48
2.0
100
AcDbLine
 10
-52.5
 20
-400.0
 30
0.0
 11
-48.0
 21
-400.0
 31
0.0
  0
LINE
  5
84B5
330
1E
100
AcDbEntity
  8
18
 48
2.0
100
AcDbLine
 10
-52.50000030600197
 20
-394.5000032643633
 30
0.0
 11
-49.99999547980928
 21
-394.5000032643633
 31
0.0
  0
LINE
  5
84B6
330
1E
100
AcDbEntity
  8
18
 48
2.0
100
AcDbLine
 10
-21.00000000000022
 20
-401.2074660790678
 30
0.0
 11
-22.5
 21
-403.8055422904212
 31
0.0
  0
LINE
  5
84B7
330
1E
100
AcDbEntity
  8
18
 48
2.0
100
AcDbLine
 10
-22.5
 20
-400.0
 30
0.0
 11
-21.00000000000022
 21
-400.0074660790678
 31
0.0
  0
ARC
  5
84B8
330
1E
100
AcDbEntity
  8
18
 48
2.0
100
AcDbCircle
 10
21.49999999999999
 20
-409.0000000000001
 30
0.0
 40
1.0
210
0.0
220
0.0
230
-1.0
100
AcDbArc
 50
270.0
 51
0.0
  0
LINE
  5
84B9
330
1E
100
AcDbEntity
  8
18
 48
2.0
100
AcDbLine
 10
-22.5
 20
-403.8055422904212
 30
0.0
 11
-22.5
 21
-409.0000000000001
 31
0.0
  0
LINE
  5
84BA
330
1E
100
AcDbEntity
  8
18
 48
2.0
100
AcDbLine
 10
-12.5
 20
-403.8055422904212
 30
0.0
 11
-12.5
 21
-409.0000000000001
 31
0.0
  0
LINE
  5
84BB
330
1E
100
AcDbEntity
  8
18
 48
2.0
100
AcDbLine
 10
-21.49999999999999
 20
-410.0000000000001
 30
0.0
 11
-13.50000000000022
 21
-410.0000000000001
 31
0.0
  0
ARC
  5
84BC
330
1E
100
AcDbEntity
  8
18
 48
2.0
100
AcDbCircle
 10
13.50000000000022
 20
-409.0000000000001
 30
0.0
 40
1.0
210
0.0
220
0.0
230
-1.0
100
AcDbArc
 50
180.0
 51
270.0
  0
LINE
  5
84BD
330
1E
100
AcDbEntity
  8
18
 48
2.0
100
AcDbLine
 10
-21.00000000000022
 20
-400.0074660790678
 30
0.0
 11
-21.00000000000022
 21
-401.2074660790678
 31
0.0
  0
CIRCLE
  5
84BE
330
1E
100
AcDbEntity
  8
18
 48
2.0
100
AcDbCircle
 10
-17.49999935345408
 20
-405.0000030202424
 30
0.0
 40
2.175250057989686
  0
LINE
  5
84BF
330
1E
100
AcDbEntity
  8
18
 48
2.0
100
AcDbLine
 10
-12.5
 20
-400.0
 30
0.0
 11
-14.0
 21
-400.0074660790678
 31
0.0
  0
LINE
  5
84C0
330
1E
100
AcDbEntity
  8
18
 48
2.0
100
AcDbLine
 10
-14.0
 20
-400.0074660790678
 30
0.0
 11
-14.0
 21
-401.2074660790678
 31
0.0
  0
LINE
  5
84C1
330
1E
100
AcDbEntity
  8
18
 48
2.0
100
AcDbLine
 10
-14.0
 20
-401.2074660790678
 30
0.0
 11
-12.5
 21
-403.8055422904212
 31
0.0
  0
LINE
  5
84C2
330
1E
100
AcDbEntity
  8
18
 48
2.0
100
AcDbLine
 10
22.00000000000021
 20
-400.0
 30
0.0
 11
48.00000000000022
 21
-400.0
 31
0.0
  0
LINE
  5
84C3
330
1E
100
AcDbEntity
  8
18
 48
2.0
100
AcDbLine
 10
13.5
 20
-410.0000000000001
 30
0.0
 11
21.49999999999977
 21
-410.0000000000001
 31
0.0
  0
CIRCLE
  5
84C4
330
1E
100
AcDbEntity
  8
18
 48
2.0
100
AcDbCircle
 10
-17.5
 20
-405.0000000000001
 30
0.0
 40
2.25
210
0.0
220
0.0
230
-1.0
  0
LINE
  5
84C5
330
1E
100
AcDbEntity
  8
18
 48
2.0
100
AcDbLine
 10
12.5
 20
-403.8055422904212
 30
0.0
 11
12.5
 21
-409.0000000000001
 31
0.0
  0
ARC
  5
84C6
330
1E
100
AcDbEntity
  8
18
 48
2.0
100
AcDbCircle
 10
-13.5
 20
-409.0000000000001
 30
0.0
 40
1.0
210
0.0
220
0.0
230
-1.0
100
AcDbArc
 50
270.0
 51
0.0
  0
LINE
  5
84C7
330
1E
100
AcDbEntity
  8
18
 48
2.0
100
AcDbLine
 10
12.5
 20
-400.0
 30
0.0
 11
13.99999999999977
 21
-400.0074660790678
 31
0.0
  0
LINE
  5
84C8
330
1E
100
AcDbEntity
  8
18
 48
2.0
100
AcDbLine
 10
13.99999999999977
 20
-400.0074660790678
 30
0.0
 11
13.99999999999977
 21
-401.2074660790678
 31
0.0
  0
LINE
  5
84C9
330
1E
100
AcDbEntity
  8
18
 48
2.0
100
AcDbLine
 10
13.99999999999977
 20
-401.2074660790678
 30
0.0
 11
12.5
 21
-403.8055422904212
 31
0.0
  0
LINE
  5
84CA
330
1E
100
AcDbEntity
  8
18
 48
2.0
100
AcDbLine
 10
22.5
 20
-403.8055422904212
 30
0.0
 11
22.5
 21
-409.0000000000001
 31
0.0
  0
ARC
  5
84CB
330
1E
100
AcDbEntity
  8
18
 48
2.0
100
AcDbCircle
 10
-21.49999999999977
 20
-409.0000000000001
 30
0.0
 40
1.0
210
0.0
220
0.0
230
-1.0
100
AcDbArc
 50
180.0
 51
270.0
  0
LINE
  5
84CC
330
1E
100
AcDbEntity
  8
18
 48
2.0
100
AcDbLine
 10
21.0
 20
-401.2074660790678
 30
0.0
 11
22.5
 21
-403.8055422904212
 31
0.0
  0
LINE
  5
84CD
330
1E
100
AcDbEntity
  8
18
 48
2.0
100
AcDbLine
 10
22.5
 20
-400.0
 30
0.0
 11
21.0
 21
-400.0074660790678
 31
0.0
  0
LINE
  5
84CE
330
1E
100
AcDbEntity
  8
18
 48
2.0
100
AcDbLine
 10
21.0
 20
-400.0074660790678
 30
0.0
 11
21.0
 21
-401.2074660790678
 31
0.0
  0
LINE
  5
84CF
330
1E
100
AcDbEntity
  8
18
 48
2.0
100
AcDbLine
 10
57.0
 20
-400.0
 30
0.0
 11
83.00000000000023
 21
-400.0
 31
0.0
  0
LINE
  5
84D0
330
1E
100
AcDbEntity
  8
18
 48
2.0
100
AcDbLine
 10
47.49999999999977
 20
-403.8055422904212
 30
0.0
 11
47.49999999999977
 21
-409.0000000000001
 31
0.0
  0
LINE
  5
84D1
330
1E
100
AcDbEntity
  8
18
 48
2.0
100
AcDbLine
 10
57.49999999999977
 20
-403.8055422904212
 30
0.0
 11
57.49999999999977
 21
-409.0000000000001
 31
0.0
  0
LINE
  5
84D2
330
1E
100
AcDbEntity
  8
18
 48
2.0
100
AcDbLine
 10
48.5
 20
-410.0000000000001
 30
0.0
 11
56.49999999999955
 21
-410.0000000000001
 31
0.0
  0
ARC
  5
84D3
330
1E
100
AcDbEntity
  8
18
 48
2.0
100
AcDbCircle
 10
-48.5
 20
-409.0000000000001
 30
0.0
 40
1.0
210
0.0
220
0.0
230
-1.0
100
AcDbArc
 50
270.0
 51
0.0
  0
ARC
  5
84D4
330
1E
100
AcDbEntity
  8
18
 48
2.0
100
AcDbCircle
 10
-56.49999999999955
 20
-409.0000000000001
 30
0.0
 40
1.0
210
0.0
220
0.0
230
-1.0
100
AcDbArc
 50
180.0
 51
270.0
  0
CIRCLE
  5
84D5
330
1E
100
AcDbEntity
  8
18
 48
2.0
100
AcDbCircle
 10
52.50000255164173
 20
-405.0000030202424
 30
0.0
 40
2.175250057989686
  0
LINE
  5
84D6
330
1E
100
AcDbEntity
  8
18
 48
2.0
100
AcDbLine
 10
47.49999999999977
 20
-400.0
 30
0.0
 11
48.99999999999955
 21
-400.0074660790678
 31
0.0
  0
LINE
  5
84D7
330
1E
100
AcDbEntity
  8
18
 48
2.0
100
AcDbLine
 10
48.99999999999955
 20
-401.2074660790678
 30
0.0
 11
47.49999999999977
 21
-403.8055422904212
 31
0.0
  0
LINE
  5
84D8
330
1E
100
AcDbEntity
  8
18
 48
2.0
100
AcDbLine
 10
48.99999999999955
 20
-400.0074660790678
 30
0.0
 11
48.99999999999955
 21
-401.2074660790678
 31
0.0
  0
LINE
  5
84D9
330
1E
100
AcDbEntity
  8
18
 48
2.0
100
AcDbLine
 10
57.49999999999977
 20
-400.0
 30
0.0
 11
56.0
 21
-400.0074660790678
 31
0.0
  0
LINE
  5
84DA
330
1E
100
AcDbEntity
  8
18
 48
2.0
100
AcDbLine
 10
56.0
 20
-401.2074660790678
 30
0.0
 11
57.49999999999977
 21
-403.8055422904212
 31
0.0
  0
LINE
  5
84DB
330
1E
100
AcDbEntity
  8
18
 48
2.0
100
AcDbLine
 10
56.0
 20
-400.0074660790678
 30
0.0
 11
56.0
 21
-401.2074660790678
 31
0.0
  0
LINE
  5
84DC
330
1E
100
AcDbEntity
  8
18
 48
2.0
100
AcDbLine
 10
87.49999999999976
 20
-400.0
 30
0.0
 11
87.49999999999976
 21
-398.0000000000001
 31
0.0
  0
LINE
  5
84DD
330
1E
100
AcDbEntity
  8
18
 48
2.0
100
AcDbLine
 10
83.00000000000023
 20
-400.0
 30
0.0
 11
87.49999999999976
 21
-400.0
 31
0.0
  0
DIMENSION
  5
84DE
330
1E
100
AcDbEntity
  8
30
100
AcDbDimension
  2
*D26
 10
100.747009574128
 20
-285.0
 30
0.0
 11
97.74700957412807
 21
-310.0
 31
0.0
 70
    32
  3
STANDARD
100
AcDbAlignedDimension
 13
59.99999999999978
 23
-335.0
 33
0.0
 14
59.99999999999978
 24
-285.0
 34
0.0
 50
270.0
100
AcDbRotatedDimension
  0
DIMENSION
  5
84DF
330
1E
100
AcDbEntity
  8
30
100
AcDbDimension
  2
*D27
 10
120.2470095741279
 20
-272.5
 30
0.0
 11
117.247009574128
 21
-310.0000000000001
 31
0.0
 70
    32
  3
STANDARD
100
AcDbAlignedDimension
 13
55.00000001649985
 23
-347.5000000000001
 33
0.0
 14
55.00000001649985
 24
-272.5
 34
0.0
 50
270.0
100
AcDbRotatedDimension
  0
LINE
  5
84E1
330
1E
100
AcDbEntity
  8
18
 48
2.0
100
AcDbLine
 10
-52.50000030600197
 20
-219.9999982556959
 30
0.0
 11
-52.50000030600197
 21
-225.5000016063215
 31
0.0
  0
LINE
  5
84E3
330
1E
100
AcDbEntity
  8
18
 48
2.0
100
AcDbLine
 10
-57.5
 20
-310.0
 30
0.0
 11
92.49999999999976
 21
-310.0
 31
0.0
  0
LINE
  5
84E4
330
1E
100
AcDbEntity
  8
18
 48
2.0
100
AcDbLine
 10
-57.5
 20
-362.5
 30
0.0
 11
92.49999999999976
 21
-362.5000000000001
 31
0.0
  0
LINE
  5
84E5
330
1E
100
AcDbEntity
  8
18
 48
2.0
100
AcDbLine
 10
-57.5
 20
-257.5
 30
0.0
 11
92.49999999999976
 21
-257.5
 31
0.0
  0
LINE
  5
84E6
330
1E
100
AcDbEntity
  8
18
 48
2.0
100
AcDbLine
 10
-57.5
 20
-360.0
 30
0.0
 11
92.49999999999976
 21
-360.0000000000001
 31
0.0
  0
LINE
  5
84E7
330
1E
100
AcDbEntity
  8
18
 48
2.0
100
AcDbLine
 10
-57.5
 20
-260.0
 30
0.0
 11
92.49999999999976
 21
-260.0
 31
0.0
  0
LINE
  5
84E8
330
1E
100
AcDbEntity
  8
18
 48
2.0
100
AcDbLine
 10
-52.5
 20
-364.0000000000001
 30
0.0
 11
-52.5
 21
-256.0
 31
0.0
  0
LINE
  5
84E9
330
1E
100
AcDbEntity
  8
18
 48
2.0
100
AcDbLine
 10
-52.5
 20
-369.0000000000001
 30
0.0
 11
-50.0
 21
-369.0000000000001
 31
0.0
  0
LINE
  5
84EA
330
1E
100
AcDbEntity
  8
18
 48
2.0
100
AcDbLine
 10
-52.5
 20
-364.0000000000001
 30
0.0
 11
-52.5
 21
-365.5000000000001
 31
0.0
  0
LINE
  5
84EB
330
1E
100
AcDbEntity
  8
18
 48
2.0
100
AcDbLine
 10
-52.5
 20
-369.0000000000001
 30
0.0
 11
-52.5
 21
-365.5000000000001
 31
0.0
  0
LINE
  5
84EC
330
1E
100
AcDbEntity
  8
12
100
AcDbLine
 10
-22.5
 20
-347.5000000000001
 30
0.0
 11
-12.5
 21
-347.5000000000001
 31
0.0
  0
LINE
  5
84ED
330
1E
100
AcDbEntity
  8
12
100
AcDbLine
 10
-17.5
 20
-342.5000000000001
 30
0.0
 11
-17.5
 21
-352.5000000000001
 31
0.0
  0
CIRCLE
  5
84EE
330
1E
100
AcDbEntity
  8
12
100
AcDbCircle
 10
-17.5
 20
-347.5000000000001
 30
0.0
 40
3.000000000000001
  0
LINE
  5
84EF
330
1E
100
AcDbEntity
  8
12
100
AcDbLine
 10
-22.5
 20
-272.5
 30
0.0
 11
-12.5
 21
-272.5
 31
0.0
  0
LINE
  5
84F0
330
1E
100
AcDbEntity
  8
12
100
AcDbLine
 10
-17.5
 20
-267.5
 30
0.0
 11
-17.5
 21
-277.4999999999999
 31
0.0
  0
CIRCLE
  5
84F1
330
1E
100
AcDbEntity
  8
12
100
AcDbCircle
 10
-17.5
 20
-272.5
 30
0.0
 40
3.000000000000001
  0
LINE
  5
84F2
330
1E
100
AcDbEntity
  8
18
 48
2.0
100
AcDbLine
 10
-49.99999547980928
 20
-250.9999951198345
 30
0.0
 11
-49.99999547980928
 21
-225.5000016063215
 31
0.0
  0
LINE
  5
84F3
330
1E
100
AcDbEntity
  8
18
 48
2.0
100
AcDbLine
 10
-52.5
 20
-254.4999999999999
 30
0.0
 11
-52.5
 21
-251.0
 31
0.0
  0
LINE
  5
84F4
330
1E
100
AcDbEntity
  8
18
 48
2.0
100
AcDbLine
 10
-52.5
 20
-254.4999999999999
 30
0.0
 11
-52.5
 21
-256.0
 31
0.0
  0
LINE
  5
84F5
330
1E
100
AcDbEntity
  8
18
 48
2.0
100
AcDbLine
 10
-52.5
 20
-251.0
 30
0.0
 11
-50.0
 21
-251.0
 31
0.0
  0
LINE
  5
84F6
330
1E
100
AcDbEntity
  8
18
 48
2.0
100
AcDbLine
 10
-49.99999547980928
 20
-225.5000016063215
 30
0.0
 11
-52.50000030600197
 21
-225.5000016063215
 31
0.0
  0
LINE
  5
84F7
330
1E
100
AcDbEntity
  8
11
100
AcDbLine
 10
45.0
 20
-284.9999999999998
 30
0.0
 11
45.0
 21
-335.0
 31
0.0
  0
LINE
  5
84F8
330
1E
100
AcDbEntity
  8
11
100
AcDbLine
 10
59.99999999999977
 20
-284.9999999999998
 30
0.0
 11
59.99999999999977
 21
-335.0
 31
0.0
  0
LINE
  5
84F9
330
1E
100
AcDbEntity
  8
18
 48
2.0
100
AcDbLine
 10
87.49999999999976
 20
-364.0000000000001
 30
0.0
 11
87.49999999999976
 21
-256.0
 31
0.0
  0
LINE
  5
84FA
330
1E
100
AcDbEntity
  8
11
100
AcDbLine
 10
45.0
 20
-335.0
 30
0.0
 11
59.99999999999977
 21
-335.0
 31
0.0
  0
LINE
  5
84FB
330
1E
100
AcDbEntity
  8
12
100
AcDbLine
 10
12.5
 20
-347.5000000000001
 30
0.0
 11
22.5
 21
-347.5000000000001
 31
0.0
  0
LINE
  5
84FC
330
1E
100
AcDbEntity
  8
12
100
AcDbLine
 10
17.5
 20
-342.5000000000001
 30
0.0
 11
17.5
 21
-352.5000000000001
 31
0.0
  0
LINE
  5
84FD
330
1E
100
AcDbEntity
  8
12
100
AcDbLine
 10
52.49999999999977
 20
-342.5000000000001
 30
0.0
 11
52.49999999999977
 21
-352.5000000000001
 31
0.0
  0
CIRCLE
  5
84FE
330
1E
100
AcDbEntity
  8
12
100
AcDbCircle
 10
52.49999999999977
 20
-347.5000000000001
 30
0.0
 40
3.000000000000001
  0
LINE
  5
84FF
330
1E
100
AcDbEntity
  8
12
100
AcDbLine
 10
47.49999999999977
 20
-347.5000000000001
 30
0.0
 11
57.49999999999977
 21
-347.5000000000001
 31
0.0
  0
LINE
  5
8500
330
1E
100
AcDbEntity
  8
18
 48
2.0
100
AcDbLine
 10
87.49999999999976
 20
-365.5000000000001
 30
0.0
 11
87.49999999999976
 21
-364.0000000000001
 31
0.0
  0
LINE
  5
8501
330
1E
100
AcDbEntity
  8
18
 48
2.0
100
AcDbLine
 10
87.49999999999976
 20
-369.5
 30
0.0
 11
87.49999999999976
 21
-365.5000000000001
 31
0.0
  0
LINE
  5
8502
330
1E
100
AcDbEntity
  8
11
100
AcDbLine
 10
45.0
 20
-285.0
 30
0.0
 11
59.99999999999977
 21
-285.0
 31
0.0
  0
LINE
  5
8503
330
1E
100
AcDbEntity
  8
12
100
AcDbLine
 10
12.5
 20
-272.5
 30
0.0
 11
22.5
 21
-272.5
 31
0.0
  0
LINE
  5
8504
330
1E
100
AcDbEntity
  8
12
100
AcDbLine
 10
17.5
 20
-267.5
 30
0.0
 11
17.5
 21
-277.4999999999999
 31
0.0
  0
LINE
  5
8505
330
1E
100
AcDbEntity
  8
12
100
AcDbLine
 10
52.49999999999977
 20
-267.5
 30
0.0
 11
52.49999999999977
 21
-277.4999999999999
 31
0.0
  0
CIRCLE
  5
8506
330
1E
100
AcDbEntity
  8
12
100
AcDbCircle
 10
52.49999999999977
 20
-272.5
 30
0.0
 40
3.000000000000001
  0
LINE
  5
8507
330
1E
100
AcDbEntity
  8
12
100
AcDbLine
 10
47.49999999999977
 20
-272.5
 30
0.0
 11
57.49999999999977
 21
-272.5
 31
0.0
  0
LINE
  5
8508
330
1E
100
AcDbEntity
  8
18
 48
2.0
100
AcDbLine
 10
-12.99999999999974
 20
-220.0
 30
0.0
 11
13.0
 21
-220.0
 31
0.0
  0
LINE
  5
8509
330
1E
100
AcDbEntity
  8
18
 48
2.0
100
AcDbLine
 10
-48.0
 20
-220.0
 30
0.0
 11
-22.0
 21
-220.0
 31
0.0
  0
LINE
  5
850A
330
1E
100
AcDbEntity
  8
18
 48
2.0
100
AcDbLine
 10
-48.0
 20
-220.0
 30
0.0
 11
-52.5
 21
-220.0
 31
0.0
  0
LINE
  5
850B
330
1E
100
AcDbEntity
  8
18
 48
2.0
100
AcDbLine
 10
-52.5
 20
-220.0
 30
0.0
 11
-52.5
 21
-222.0
 31
0.0
  0
LINE
  5
850C
330
1E
100
AcDbEntity
  8
18
 48
2.0
100
AcDbLine
 10
-22.5
 20
-220.0
 30
0.0
 11
-21.00000000000022
 21
-219.992533920932
 31
0.0
  0
LINE
  5
850D
330
1E
100
AcDbEntity
  8
18
 48
2.0
100
AcDbLine
 10
-20.99999999999976
 20
-218.7925339209323
 30
0.0
 11
-22.5
 21
-216.1944577095787
 31
0.0
  0
ARC
  5
850E
330
1E
100
AcDbEntity
  8
18
 48
2.0
100
AcDbCircle
 10
21.49999999999999
 20
-211.0
 30
0.0
 40
1.0
210
0.0
220
0.0
230
-1.0
100
AcDbArc
 50
0.0
 51
90.0
  0
LINE
  5
850F
330
1E
100
AcDbEntity
  8
18
 48
2.0
100
AcDbLine
 10
-22.5
 20
-211.0
 30
0.0
 11
-22.5
 21
-216.1944577095787
 31
0.0
  0
LINE
  5
8510
330
1E
100
AcDbEntity
  8
18
 48
2.0
100
AcDbLine
 10
-12.5
 20
-211.0
 30
0.0
 11
-12.5
 21
-216.1944577095788
 31
0.0
  0
CIRCLE
  5
8511
330
1E
100
AcDbEntity
  8
18
 48
2.0
100
AcDbCircle
 10
-17.49999935345408
 20
-215.0000113126798
 30
0.0
 40
2.175250057989686
  0
LINE
  5
8512
330
1E
100
AcDbEntity
  8
18
 48
2.0
100
AcDbLine
 10
-21.00000000000022
 20
-219.992533920932
 30
0.0
 11
-20.99999999999976
 21
-218.7925339209323
 31
0.0
  0
LINE
  5
8513
330
1E
100
AcDbEntity
  8
18
 48
2.0
100
AcDbLine
 10
-14.0
 20
-219.992533920932
 30
0.0
 11
-14.0
 21
-218.7925339209323
 31
0.0
  0
LINE
  5
8514
330
1E
100
AcDbEntity
  8
18
 48
2.0
100
AcDbLine
 10
-14.0
 20
-218.792533920932
 30
0.0
 11
-12.5
 21
-216.1944577095788
 31
0.0
  0
LINE
  5
8515
330
1E
100
AcDbEntity
  8
18
 48
2.0
100
AcDbLine
 10
-12.5
 20
-220.0
 30
0.0
 11
-14.0
 21
-219.992533920932
 31
0.0
  0
LINE
  5
8516
330
1E
100
AcDbEntity
  8
18
 48
2.0
100
AcDbLine
 10
-21.49999999999999
 20
-210.0
 30
0.0
 11
-13.50000000000022
 21
-210.0
 31
0.0
  0
ARC
  5
8517
330
1E
100
AcDbEntity
  8
18
 48
2.0
100
AcDbCircle
 10
13.50000000000022
 20
-211.0
 30
0.0
 40
1.0
210
0.0
220
0.0
230
-1.0
100
AcDbArc
 50
90.0
 51
180.0
  0
LINE
  5
8518
330
1E
100
AcDbEntity
  8
18
 48
2.0
100
AcDbLine
 10
22.00000000000021
 20
-220.0
 30
0.0
 11
48.00000000000022
 21
-220.0
 31
0.0
  0
LINE
  5
851A
330
1E
100
AcDbEntity
  8
18
 48
2.0
100
AcDbLine
 10
13.5
 20
-210.0
 30
0.0
 11
21.49999999999977
 21
-210.0
 31
0.0
  0
CIRCLE
  5
851B
330
1E
100
AcDbEntity
  8
18
 48
2.0
100
AcDbCircle
 10
-17.5
 20
-215.0
 30
0.0
 40
2.25
210
0.0
220
0.0
230
-1.0
  0
LINE
  5
851C
330
1E
100
AcDbEntity
  8
18
 48
2.0
100
AcDbLine
 10
12.5
 20
-211.0
 30
0.0
 11
12.5
 21
-216.1944577095787
 31
0.0
  0
LINE
  5
851D
330
1E
100
AcDbEntity
  8
18
 48
2.0
100
AcDbLine
 10
13.99999999999977
 20
-218.7925339209323
 30
0.0
 11
12.5
 21
-216.1944577095787
 31
0.0
  0
LINE
  5
851E
330
1E
100
AcDbEntity
  8
18
 48
2.0
100
AcDbLine
 10
12.5
 20
-220.0
 30
0.0
 11
13.99999999999977
 21
-219.992533920932
 31
0.0
  0
LINE
  5
851F
330
1E
100
AcDbEntity
  8
18
 48
2.0
100
AcDbLine
 10
13.99999999999977
 20
-219.992533920932
 30
0.0
 11
13.99999999999977
 21
-218.7925339209323
 31
0.0
  0
ARC
  5
8520
330
1E
100
AcDbEntity
  8
18
 48
2.0
100
AcDbCircle
 10
-13.5
 20
-211.0
 30
0.0
 40
1.0
210
0.0
220
0.0
230
-1.0
100
AcDbArc
 50
0.0
 51
90.0
  0
LINE
  5
8523
330
1E
100
AcDbEntity
  8
18
 48
2.0
100
AcDbLine
 10
22.5
 20
-211.0
 30
0.0
 11
22.5
 21
-216.1944577095788
 31
0.0
  0
LINE
  5
8524
330
1E
100
AcDbEntity
  8
18
 48
2.0
100
AcDbLine
 10
21.0
 20
-218.792533920932
 30
0.0
 11
22.5
 21
-216.1944577095788
 31
0.0
  0
LINE
  5
8525
330
1E
100
AcDbEntity
  8
18
 48
2.0
100
AcDbLine
 10
22.5
 20
-220.0
 30
0.0
 11
21.0
 21
-219.992533920932
 31
0.0
  0
LINE
  5
8526
330
1E
100
AcDbEntity
  8
18
 48
2.0
100
AcDbLine
 10
21.0
 20
-219.992533920932
 30
0.0
 11
21.0
 21
-218.7925339209323
 31
0.0
  0
ARC
  5
8527
330
1E
100
AcDbEntity
  8
18
 48
2.0
100
AcDbCircle
 10
-21.49999999999977
 20
-211.0
 30
0.0
 40
1.0
210
0.0
220
0.0
230
-1.0
100
AcDbArc
 50
90.0
 51
180.0
  0
LINE
  5
8528
330
1E
100
AcDbEntity
  8
18
 48
2.0
100
AcDbLine
 10
57.49999403653169
 20
-219.9999982556959
 30
0.0
 11
83.74999020906875
 21
-219.9999982556959
 31
0.0
  0
LINE
  5
8529
330
1E
100
AcDbEntity
  8
18
 48
2.0
100
AcDbLine
 10
57.0
 20
-220.0
 30
0.0
 11
83.00000000000023
 21
-220.0
 31
0.0
  0
LINE
  5
852A
330
1E
100
AcDbEntity
  8
18
 48
2.0
100
AcDbLine
 10
47.49999999999977
 20
-211.0
 30
0.0
 11
47.49999999999977
 21
-216.1944577095788
 31
0.0
  0
LINE
  5
852B
330
1E
100
AcDbEntity
  8
18
 48
2.0
100
AcDbLine
 10
57.49999999999977
 20
-211.0
 30
0.0
 11
57.49999999999977
 21
-216.1944577095788
 31
0.0
  0
CIRCLE
  5
852C
330
1E
100
AcDbEntity
  8
18
 48
2.0
100
AcDbCircle
 10
52.50000255164173
 20
-215.0000113126798
 30
0.0
 40
2.175250057989686
  0
LINE
  5
852D
330
1E
100
AcDbEntity
  8
18
 48
2.0
100
AcDbLine
 10
47.49999999999977
 20
-220.0
 30
0.0
 11
48.99999999999955
 21
-219.992533920932
 31
0.0
  0
LINE
  5
852E
330
1E
100
AcDbEntity
  8
18
 48
2.0
100
AcDbLine
 10
48.99999999999955
 20
-219.992533920932
 30
0.0
 11
49.00000000000023
 21
-218.7925339209323
 31
0.0
  0
LINE
  5
852F
330
1E
100
AcDbEntity
  8
18
 48
2.0
100
AcDbLine
 10
49.00000000000023
 20
-218.792533920932
 30
0.0
 11
47.49999999999977
 21
-216.1944577095788
 31
0.0
  0
LINE
  5
8530
330
1E
100
AcDbEntity
  8
18
 48
2.0
100
AcDbLine
 10
57.49999999999977
 20
-220.0
 30
0.0
 11
56.0
 21
-219.992533920932
 31
0.0
  0
LINE
  5
8531
330
1E
100
AcDbEntity
  8
18
 48
2.0
100
AcDbLine
 10
56.0
 20
-219.992533920932
 30
0.0
 11
56.0
 21
-218.7925339209323
 31
0.0
  0
LINE
  5
8532
330
1E
100
AcDbEntity
  8
18
 48
2.0
100
AcDbLine
 10
56.0
 20
-218.792533920932
 30
0.0
 11
57.49999999999977
 21
-216.1944577095788
 31
0.0
  0
LINE
  5
8533
330
1E
100
AcDbEntity
  8
18
 48
2.0
100
AcDbLine
 10
48.5
 20
-210.0
 30
0.0
 11
56.49999999999955
 21
-210.0
 31
0.0
  0
ARC
  5
8534
330
1E
100
AcDbEntity
  8
18
 48
2.0
100
AcDbCircle
 10
-48.5
 20
-211.0
 30
0.0
 40
1.0
210
0.0
220
0.0
230
-1.0
100
AcDbArc
 50
0.0
 51
90.0
  0
ARC
  5
8535
330
1E
100
AcDbEntity
  8
18
 48
2.0
100
AcDbCircle
 10
-56.49999999999955
 20
-211.0
 30
0.0
 40
1.0
210
0.0
220
0.0
230
-1.0
100
AcDbArc
 50
90.0
 51
180.0
  0
LINE
  5
8537
330
1E
100
AcDbEntity
  8
18
 48
2.0
100
AcDbLine
 10
83.74999020906875
 20
-219.9999982556959
 30
0.0
 11
86.99998558262198
 21
-219.9999982556959
 31
0.0
  0
ARC
  5
8538
330
1E
100
AcDbEntity
  8
18
 48
2.0
100
AcDbCircle
 10
86.99998558262198
 20
-220.5000161772636
 30
0.0
 40
0.4999999906281084
100
AcDbArc
 50
0.0
 51
90.0
  0
SPLINE
  5
859F
330
1E
100
AcDbEntity
  8
30
  6
CONTINUOUS
100
AcDbSpline
210
0.0
220
0.0
230
1.0
 70
     8
 71
     3
 72
    10
 73
     6
 74
     4
 42
0.0000000001
 43
0.0000000001
 44
0.0000000001
 40
0.0
 40
0.0
 40
0.0
 40
0.0
 40
8.602325267042626
 40
24.75781968844613
 40
36.79941426723843
 40
36.79941426723843
 40
36.79941426723843
 40
36.79941426723843
 10
336.0
 20
-237.0
 30
0.0
 10
338.2417750636664
 20
-234.6467902362618
 30
0.0
 10
344.6936890619604
 20
-227.8741629278145
 30
0.0
 10
357.6653968919886
 20
-243.1652419320124
 30
0.0
 10
364.2065809270335
 20
-233.9397537835902
 30
0.0
 10
367.0
 20
-230.0
 30
0.0
 11
336.0
 21
-237.0
 31
0.0
 11
343.0
 21
-232.0
 31
0.0
 11
358.0
 21
-238.0
 31
0.0
 11
367.0
 21
-230.0
 31
0.0
  0
LEADER
  5
85EE
330
1E
100
AcDbEntity
  8
30
100
AcDbLeader
  3
STANDARD
 76
     3
 10
347.9999999999998
 20
-256.0000000000001
 30
0.0
 10
333.1458822902714
 20
-262.8593533752838
 30
0.0
 10
321.1458822902713
 20
-262.8593533752838
 30
0.0
211
-1.0
221
0.0
231
0.0
210
0.0
220
0.0
230
-1.0
1001
ACAD
1000
DSTYLE
1002
{
1070
     5
1000
OPEN
1070
   342
1005
3B2
1002
}
  0
TEXT
  5
8850
330
1E
100
AcDbEntity
  8
30
100
AcDbText
 10
63.30990602563986
 20
-250.6896589982217
 30
0.0
 40
5.0
  1
%%c6
100
AcDbText
  0
LEADER
  5
8851
330
1E
100
AcDbEntity
  8
30
100
AcDbLeader
  3
STANDARD
 76
     3
 10
54.83250471314653
 20
-267.8195794911141
 30
0.0
 10
60.07653568015297
 20
-253.0302348442181
 30
0.0
 10
73.64932376570499
 20
-253.0302348442181
 30
0.0
1001
ACAD
1000
DSTYLE
1002
{
1070
     5
1000
OPEN
1070
    77
1070
     0
1070
   147
1040
1.0
1070
   342
1005
3B2
1002
}
  0
LINE
  5
8B9F
330
1E
100
AcDbEntity
  8
10
100
AcDbLine
 10
311.831457401958
 20
49.50000593230466
 30
0.0
 11
348.8314513149628
 21
49.50000593230466
 31
0.0
  0
LINE
  5
8BA0
330
1E
100
AcDbEntity
  8
10
100
AcDbLine
 10
348.8314513149628
 20
49.99999963054503
 30
0.0
 11
313.8314564182467
 21
49.99999963054503
 31
0.0
  0
LINE
  5
8BA1
330
1E
100
AcDbEntity
  8
10
100
AcDbLine
 10
348.8314513149628
 20
57.50000199745958
 30
0.0
 11
312.3314511001983
 21
57.50000199745958
 31
0.0
  0
LINE
  5
8BA2
330
1E
100
AcDbEntity
  8
10
100
AcDbLine
 10
312.3314511001983
 20
88.00000516335785
 30
0.0
 11
335.8314455974225
 21
88.00000516335785
 31
0.0
  0
LINE
  5
8BA3
330
1E
100
AcDbEntity
  8
10
100
AcDbLine
 10
328.8314611520756
 20
-48.49999431249671
 30
0.0
 11
311.831457401958
 21
-48.49999431249671
 31
0.0
  0
LINE
  5
8BA4
330
1E
100
AcDbEntity
  8
10
100
AcDbLine
 10
311.831457401958
 20
48.49999431249671
 30
0.0
 11
328.8314611520756
 21
48.49999431249671
 31
0.0
  0
LINE
  5
8BA5
330
1E
100
AcDbEntity
  8
10
100
AcDbLine
 10
335.8314455974225
 20
-87.9999930516942
 30
0.0
 11
312.3314511001983
 21
-87.9999930516942
 31
0.0
  0
LINE
  5
8BA6
330
1E
100
AcDbEntity
  8
10
100
AcDbLine
 10
347.6243544702986
 20
-49.49999382064106
 30
0.0
 11
311.831457401958
 21
-49.49999382064106
 31
0.0
  0
LINE
  5
8BA7
330
1E
100
AcDbEntity
  8
10
100
AcDbLine
 10
312.3314511001983
 20
-57.49998988579591
 30
0.0
 11
348.8314513149628
 21
-57.49998988579591
 31
0.0
  0
LINE
  5
8BA8
330
1E
100
AcDbEntity
  8
10
100
AcDbLine
 10
313.8314564182467
 20
-49.99998751888142
 30
0.0
 11
348.8312333050174
 21
-49.99998751888142
 31
0.0
  0
LINE
  5
8BA9
330
1E
100
AcDbEntity
  8
17
100
AcDbLine
 10
391.83144719539
 20
-72.0
 30
0.0
 11
296.8314471953902
 21
-72.0
 31
0.0
  0
LINE
  5
8BAA
330
1E
100
AcDbEntity
  8
17
100
AcDbLine
 10
391.83144719539
 20
72.0
 30
0.0
 11
296.8314471953902
 21
72.0
 31
0.0
  0
ARC
  5
8BAB
330
1E
100
AcDbEntity
  8
30
100
AcDbCircle
 10
210.8314477495726
 20
0.0
 30
0.0
 40
31.0
100
AcDbArc
 50
150.5534441956585
 51
180.0
  0
LINE
  5
8BAC
330
1E
100
AcDbEntity
  8
10
100
AcDbLine
 10
306.8314477495726
 20
82.5
 30
0.0
 11
306.8314477495726
 21
-82.5
 31
0.0
  0
LINE
  5
8BAD
330
1E
100
AcDbEntity
  8
10
100
AcDbLine
 10
199.8314477495726
 20
22.5
 30
0.0
 11
199.8314477495726
 21
-22.5
 31
0.0
  0
LINE
  5
8BAE
330
1E
100
AcDbEntity
  8
10
100
AcDbLine
 10
203.8314477495724
 20
51.0
 30
0.0
 11
203.8314477495724
 21
-51.0
 31
0.0
  0
LINE
  5
8BAF
330
1E
100
AcDbEntity
  8
10
100
AcDbLine
 10
195.8314477495726
 20
22.5
 30
0.0
 11
195.8314477495726
 21
-22.5
 31
0.0
  0
LINE
  5
8BB1
330
1E
100
AcDbEntity
  8
10
100
AcDbLine
 10
195.8314477495726
 20
-22.5
 30
0.0
 11
203.8314477495724
 21
-22.5
 31
0.0
  0
LINE
  5
8BB2
330
1E
100
AcDbEntity
  8
10
100
AcDbLine
 10
210.8314477495726
 20
-51.0
 30
0.0
 11
210.8314477495726
 21
-82.5
 31
0.0
  0
LINE
  5
8BB3
330
1E
100
AcDbEntity
  8
10
100
AcDbLine
 10
311.831457401958
 20
-48.49999431249671
 30
0.0
 11
311.831457401958
 21
-84.49998871735715
 31
0.0
  0
LINE
  5
8BB4
330
1E
100
AcDbEntity
  8
10
100
AcDbLine
 10
210.8314477495726
 20
-82.5
 30
0.0
 11
306.8314477495726
 21
-82.5
 31
0.0
  0
LINE
  5
8BB5
330
1E
100
AcDbEntity
  8
10
100
AcDbLine
 10
306.8314477495726
 20
-84.69998861898607
 30
0.0
 11
306.8314477495726
 21
-82.5
 31
0.0
  0
LINE
  5
8BB6
330
1E
100
AcDbEntity
  8
10
100
AcDbLine
 10
311.831457401958
 20
-84.49998871735715
 30
0.0
 11
311.831457401958
 21
-84.68079163212223
 31
0.0
  0
LINE
  5
8BB7
330
1E
100
AcDbEntity
  8
10
100
AcDbLine
 10
306.8314477495726
 20
-84.69998861898607
 30
0.0
 11
306.8314477495726
 21
-84.49998871735715
 31
0.0
  0
LINE
  5
8BB8
330
1E
100
AcDbEntity
  8
10
100
AcDbLine
 10
300.331457002466
 20
-84.69998861898607
 30
0.0
 11
306.8314477495726
 21
-84.69998861898607
 31
0.0
  0
LINE
  5
8BB9
330
1E
100
AcDbEntity
  8
10
100
AcDbLine
 10
300.331457002466
 20
-89.99999206798291
 30
0.0
 11
311.3314394803903
 21
-89.99999206798291
 31
0.0
  0
LINE
  5
8BBA
330
1E
100
AcDbEntity
  8
10
100
AcDbLine
 10
311.3314394803903
 20
-92.49999689417569
 30
0.0
 11
300.331457002466
 21
-92.49999689417569
 31
0.0
  0
LINE
  5
8BBB
330
1E
100
AcDbEntity
  8
10
100
AcDbLine
 10
306.8314477495726
 20
-86.49998773364588
 30
0.0
 11
300.331457002466
 21
-86.49998773364588
 31
0.0
  0
ARC
  5
8BBC
330
1E
100
AcDbEntity
  8
10
100
AcDbCircle
 10
300.331457002466
 20
-90.49999787788692
 30
0.0
 40
0.4999999906281083
100
AcDbArc
 50
90.0
 51
180.0
  0
ARC
  5
8BBD
330
1E
100
AcDbEntity
  8
10
100
AcDbCircle
 10
300.331457002466
 20
-85.99999403540552
 30
0.0
 40
0.4999999906281083
100
AcDbArc
 50
180.0
 51
270.0
  0
ARC
  5
8BBE
330
1E
100
AcDbEntity
  8
10
100
AcDbCircle
 10
300.331457002466
 20
-85.19999442889005
 30
0.0
 40
0.4999999906281083
100
AcDbArc
 50
90.0
 51
180.0
  0
ARC
  5
8BBF
330
1E
100
AcDbEntity
  8
10
100
AcDbCircle
 10
300.331457002466
 20
-91.99999108427164
 30
0.0
 40
0.4999999906281083
100
AcDbArc
 50
180.0
 51
270.0
  0
LINE
  5
8BC0
330
1E
100
AcDbEntity
  8
10
100
AcDbLine
 10
299.8314633042257
 20
-89.78172777759027
 30
0.0
 11
299.8314633042257
 21
-89.64231041747101
 31
0.0
  0
LINE
  5
8BC1
330
1E
100
AcDbEntity
  8
10
100
AcDbLine
 10
299.8314633042257
 20
-90.40962064383164
 30
0.0
 11
299.8314633042257
 21
-90.34125030260383
 31
0.0
  0
LINE
  5
8BC2
330
1E
100
AcDbEntity
  8
10
100
AcDbLine
 10
299.8314633042257
 20
-86.24423784429836
 30
0.0
 11
299.8314633042257
 21
-86.15874161068859
 31
0.0
  0
LINE
  5
8BC3
330
1E
100
AcDbEntity
  8
10
100
AcDbLine
 10
299.8314633042257
 20
-90.25574195733044
 30
0.0
 11
299.8314633042257
 21
-90.15485179923871
 31
0.0
  0
LINE
  5
8BC4
330
1E
100
AcDbEntity
  8
10
100
AcDbLine
 10
299.8314633042257
 20
-90.49999787788692
 30
0.0
 11
299.8314633042257
 21
-90.48981196876869
 31
0.0
  0
LINE
  5
8BC5
330
1E
100
AcDbEntity
  8
10
100
AcDbLine
 10
299.8314633042257
 20
-86.85768149582145
 30
0.0
 11
299.8314633042257
 21
-86.71826413570215
 31
0.0
  0
LINE
  5
8BC6
330
1E
100
AcDbEntity
  8
10
100
AcDbLine
 10
299.8314633042257
 20
-86.15874161068859
 30
0.0
 11
299.8314633042257
 21
-86.09035915779717
 31
0.0
  0
LINE
  5
8BC7
330
1E
100
AcDbEntity
  8
10
100
AcDbLine
 10
299.8314633042257
 20
-89.64231041747101
 30
0.0
 11
299.8314633042257
 21
-89.49998625807893
 31
0.0
  0
LINE
  5
8BC8
330
1E
100
AcDbEntity
  8
10
100
AcDbLine
 10
299.8314633042257
 20
-86.09035915779717
 30
0.0
 11
299.8314633042257
 21
-86.04049543860581
 31
0.0
  0
LINE
  5
8BC9
330
1E
100
AcDbEntity
  8
10
100
AcDbLine
 10
299.8314633042257
 20
-86.01016783286016
 30
0.0
 11
299.8314633042257
 21
-85.99999403540552
 31
0.0
  0
LINE
  5
8BCA
330
1E
100
AcDbEntity
  8
10
100
AcDbLine
 10
299.8314633042257
 20
-90.45948436302294
 30
0.0
 11
299.8314633042257
 21
-90.40962064383164
 31
0.0
  0
LINE
  5
8BCB
330
1E
100
AcDbEntity
  8
10
100
AcDbLine
 10
299.8314633042257
 20
-90.48981196876869
 30
0.0
 11
299.8314633042257
 21
-90.45948436302294
 31
0.0
  0
LINE
  5
8BCC
330
1E
100
AcDbEntity
  8
10
100
AcDbLine
 10
299.8314633042257
 20
-90.34125030260383
 30
0.0
 11
299.8314633042257
 21
-90.25574195733044
 31
0.0
  0
LINE
  5
8BCD
330
1E
100
AcDbEntity
  8
10
100
AcDbLine
 10
299.8314633042257
 20
-86.34512800239008
 30
0.0
 11
299.8314633042257
 21
-86.24423784429836
 31
0.0
  0
LINE
  5
8BCE
330
1E
100
AcDbEntity
  8
10
100
AcDbLine
 10
299.8314633042257
 20
-86.58457559248294
 30
0.0
 11
299.8314633042257
 21
-86.45935310214554
 31
0.0
  0
LINE
  5
8BCF
330
1E
100
AcDbEntity
  8
10
100
AcDbLine
 10
299.8314633042257
 20
-89.91540420914587
 30
0.0
 11
299.8314633042257
 21
-89.78172777759027
 31
0.0
  0
LINE
  5
8BD0
330
1E
100
AcDbEntity
  8
10
100
AcDbLine
 10
299.8314633042257
 20
-87.0000419902044
 30
0.0
 11
299.8314633042257
 21
-85.69998812713041
 31
0.0
  0
LINE
  5
8BD1
330
1E
100
AcDbEntity
  8
10
100
AcDbLine
 10
299.8314633042257
 20
-86.99999354354988
 30
0.0
 11
299.8314633042257
 21
-86.85768149582145
 31
0.0
  0
LINE
  5
8BD2
330
1E
100
AcDbEntity
  8
10
100
AcDbLine
 10
299.8314633042257
 20
-85.99999403540552
 30
0.0
 11
299.8314633042257
 21
-85.19999442889005
 31
0.0
  0
LINE
  5
8BD3
330
1E
100
AcDbEntity
  8
10
100
AcDbLine
 10
299.8314633042257
 20
-90.15485179923871
 30
0.0
 11
299.8314633042257
 21
-90.04063881114687
 31
0.0
  0
LINE
  5
8BD4
330
1E
100
AcDbEntity
  8
10
100
AcDbLine
 10
299.8314633042257
 20
-86.71826413570215
 30
0.0
 11
299.8314633042257
 21
-86.58457559248294
 31
0.0
  0
LINE
  5
8BD5
330
1E
100
AcDbEntity
  8
10
100
AcDbLine
 10
299.8314633042257
 20
-86.45935310214554
 30
0.0
 11
299.8314633042257
 21
-86.34512800239008
 31
0.0
  0
LINE
  5
8BD6
330
1E
100
AcDbEntity
  8
10
100
AcDbLine
 10
299.8314633042257
 20
-86.04049543860581
 30
0.0
 11
299.8314633042257
 21
-86.01016783286016
 31
0.0
  0
LINE
  5
8BD7
330
1E
100
AcDbEntity
  8
10
100
AcDbLine
 10
299.8314633042257
 20
-90.04063881114687
 30
0.0
 11
299.8314633042257
 21
-89.91540420914587
 31
0.0
  0
LINE
  5
8BD8
330
1E
100
AcDbEntity
  8
10
100
AcDbLine
 10
299.8314633042257
 20
-89.49998625807893
 30
0.0
 11
299.8314633042257
 21
-86.99999354354988
 31
0.0
  0
LINE
  5
8BD9
330
1E
100
AcDbEntity
  8
10
100
AcDbLine
 10
299.8314633042257
 20
-91.99999108427164
 30
0.0
 11
299.8314633042257
 21
-90.49999787788692
 31
0.0
  0
ARC
  5
8BDA
330
1E
100
AcDbEntity
  8
10
100
AcDbCircle
 10
312.3314511001983
 20
-87.49998724179024
 30
0.0
 40
0.4999999906281083
100
AcDbArc
 50
180.0
 51
270.0
  0
ARC
  5
8BDB
330
1E
100
AcDbEntity
  8
10
100
AcDbCircle
 10
311.3314394803903
 20
-90.49999787788692
 30
0.0
 40
0.4999999906281083
100
AcDbArc
 50
0.0
 51
90.0
  0
ARC
  5
8BDC
330
1E
100
AcDbEntity
  8
10
100
AcDbCircle
 10
311.3314394803903
 20
-85.99999403540552
 30
0.0
 40
0.4999999906281083
100
AcDbArc
 50
270.0
 51
0.0
  0
ARC
  5
8BDD
330
1E
100
AcDbEntity
  8
10
100
AcDbCircle
 10
311.3314394803903
 20
-91.99999108427164
 30
0.0
 40
0.4999999906281083
100
AcDbArc
 50
270.0
 51
0.0
  0
LINE
  5
8BDE
330
1E
100
AcDbEntity
  8
10
100
AcDbLine
 10
311.831457401958
 20
-85.9890572031418
 30
0.0
 11
311.831457401958
 21
-85.99999403540552
 31
0.0
  0
LINE
  5
8BDF
330
1E
100
AcDbEntity
  8
10
100
AcDbLine
 10
311.831457401958
 20
-89.78172777759027
 30
0.0
 11
311.831457401958
 21
-89.91540420914587
 31
0.0
  0
LINE
  5
8BE0
330
1E
100
AcDbEntity
  8
10
100
AcDbLine
 10
311.831457401958
 20
-90.49999787788692
 30
0.0
 11
311.831457401958
 21
-91.99999108427164
 31
0.0
  0
LINE
  5
8BE1
330
1E
100
AcDbEntity
  8
10
100
AcDbLine
 10
311.831457401958
 20
-89.49998625807893
 30
0.0
 11
311.831457401958
 21
-89.64231041747101
 31
0.0
  0
LINE
  5
8BE2
330
1E
100
AcDbEntity
  8
10
100
AcDbLine
 10
311.831457401958
 20
-85.35209270083669
 30
0.0
 11
311.831457401958
 21
-85.49467120516514
 31
0.0
  0
LINE
  5
8BE3
330
1E
100
AcDbEntity
  8
10
100
AcDbLine
 10
311.831457401958
 20
-85.73447003350342
 30
0.0
 11
311.831457401958
 21
-85.82817797505869
 31
0.0
  0
LINE
  5
8BE4
330
1E
100
AcDbEntity
  8
10
100
AcDbLine
 10
311.831457401958
 20
-90.25574195733044
 30
0.0
 11
311.831457401958
 21
-90.34125030260383
 31
0.0
  0
LINE
  5
8BE5
330
1E
100
AcDbEntity
  8
10
100
AcDbLine
 10
311.831457401958
 20
-85.62276415978431
 30
0.0
 11
311.831457401958
 21
-85.73447003350342
 31
0.0
  0
LINE
  5
8BE6
330
1E
100
AcDbEntity
  8
10
100
AcDbLine
 10
311.831457401958
 20
-87.49998724179024
 30
0.0
 11
311.831457401958
 21
-85.99964279716004
 31
0.0
  0
LINE
  5
8BE7
330
1E
100
AcDbEntity
  8
10
100
AcDbLine
 10
311.831457401958
 20
-90.48981196876869
 30
0.0
 11
311.831457401958
 21
-90.49999787788692
 31
0.0
  0
LINE
  5
8BE8
330
1E
100
AcDbEntity
  8
10
100
AcDbLine
 10
311.831457401958
 20
-84.8589663158782
 30
0.0
 11
311.831457401958
 21
-85.03189664927957
 31
0.0
  0
LINE
  5
8BE9
330
1E
100
AcDbEntity
  8
10
100
AcDbLine
 10
311.831457401958
 20
-86.99998143188624
 30
0.0
 11
311.831457401958
 21
-85.36632390560955
 31
0.0
  0
LINE
  5
8BEA
330
1E
100
AcDbEntity
  8
10
100
AcDbLine
 10
311.831457401958
 20
-85.90251936645927
 30
0.0
 11
311.831457401958
 21
-85.95640415797786
 31
0.0
  0
LINE
  5
8BEB
330
1E
100
AcDbEntity
  8
10
100
AcDbLine
 10
311.831457401958
 20
-90.34125030260383
 30
0.0
 11
311.831457401958
 21
-90.40962064383164
 31
0.0
  0
LINE
  5
8BEC
330
1E
100
AcDbEntity
  8
10
100
AcDbLine
 10
311.3314394803903
 20
-86.49998773364588
 30
0.0
 11
306.8314477495726
 21
-86.49998773364588
 31
0.0
  0
LINE
  5
8BED
330
1E
100
AcDbEntity
  8
10
100
AcDbLine
 10
311.831457401958
 20
-90.40962064383164
 30
0.0
 11
311.831457401958
 21
-90.45948436302294
 31
0.0
  0
LINE
  5
8BEE
330
1E
100
AcDbEntity
  8
10
100
AcDbLine
 10
311.831457401958
 20
-90.45948436302294
 30
0.0
 11
311.831457401958
 21
-90.48981196876869
 31
0.0
  0
LINE
  5
8BEF
330
1E
100
AcDbEntity
  8
10
100
AcDbLine
 10
311.831457401958
 20
-89.91540420914587
 30
0.0
 11
311.831457401958
 21
-90.04063881114687
 31
0.0
  0
LINE
  5
8BF0
330
1E
100
AcDbEntity
  8
10
100
AcDbLine
 10
311.831457401958
 20
-85.19707551795365
 30
0.0
 11
311.831457401958
 21
-85.35209270083669
 31
0.0
  0
LINE
  5
8BF1
330
1E
100
AcDbEntity
  8
10
100
AcDbLine
 10
311.831457401958
 20
-85.03189664927957
 30
0.0
 11
311.831457401958
 21
-85.19707551795365
 31
0.0
  0
LINE
  5
8BF2
330
1E
100
AcDbEntity
  8
10
100
AcDbLine
 10
311.831457401958
 20
-90.15485179923871
 30
0.0
 11
311.831457401958
 21
-90.25574195733044
 31
0.0
  0
LINE
  5
8BF3
330
1E
100
AcDbEntity
  8
10
100
AcDbLine
 10
311.831457401958
 20
-89.64231041747101
 30
0.0
 11
311.831457401958
 21
-89.78172777759027
 31
0.0
  0
LINE
  5
8BF4
330
1E
100
AcDbEntity
  8
10
100
AcDbLine
 10
311.831457401958
 20
-87.49998724179024
 30
0.0
 11
311.831457401958
 21
-89.49998625807893
 31
0.0
  0
LINE
  5
8BF5
330
1E
100
AcDbEntity
  8
10
100
AcDbLine
 10
311.831457401958
 20
-90.04063881114687
 30
0.0
 11
311.831457401958
 21
-90.15485179923871
 31
0.0
  0
LINE
  5
8BF6
330
1E
100
AcDbEntity
  8
10
100
AcDbLine
 10
311.831457401958
 20
-85.82817797505869
 30
0.0
 11
311.831457401958
 21
-85.90251936645927
 31
0.0
  0
LINE
  5
8BF7
330
1E
100
AcDbEntity
  8
10
100
AcDbLine
 10
311.831457401958
 20
-84.68079163212223
 30
0.0
 11
311.831457401958
 21
-84.8589663158782
 31
0.0
  0
LINE
  5
8BF8
330
1E
100
AcDbEntity
  8
10
100
AcDbLine
 10
311.831457401958
 20
-85.95640415797786
 30
0.0
 11
311.831457401958
 21
-85.9890572031418
 31
0.0
  0
LINE
  5
8BF9
330
1E
100
AcDbEntity
  8
10
100
AcDbLine
 10
311.831457401958
 20
-85.49467120516514
 30
0.0
 11
311.831457401958
 21
-85.62276415978431
 31
0.0
  0
LINE
  5
8BFA
330
1E
100
AcDbEntity
  8
10
100
AcDbLine
 10
203.8314477495724
 20
-51.0
 30
0.0
 11
210.8314477495726
 21
-51.0
 31
0.0
  0
ARC
  5
8BFB
330
1E
100
AcDbEntity
  8
10
100
AcDbCircle
 10
313.8314564182467
 20
-51.99999864683377
 30
0.0
 40
1.999999962512431
100
AcDbArc
 50
90.0
 51
180.0
  0
ARC
  5
8BFC
330
1E
100
AcDbEntity
  8
10
100
AcDbCircle
 10
312.3314511001983
 20
-50.49999332878542
 30
0.0
 40
0.4999999906281083
100
AcDbArc
 50
90.0
 51
180.0
  0
ARC
  5
8BFD
330
1E
100
AcDbEntity
  8
10
100
AcDbCircle
 10
312.3314511001983
 20
-57.99999569569992
 30
0.0
 40
0.4999999906281083
100
AcDbArc
 50
90.0
 51
180.0
  0
ARC
  5
8BFE
330
1E
100
AcDbEntity
  8
10
100
AcDbCircle
 10
312.3314511001983
 20
-51.49999283692977
 30
0.0
 40
0.4999999906281083
100
AcDbArc
 50
180.0
 51
199.7746885488351
  0
LINE
  5
8BFF
330
1E
100
AcDbEntity
  8
10
100
AcDbLine
 10
311.831457401958
 20
-56.49989348434246
 30
0.0
 11
311.831457401958
 21
-53.00005871329631
 31
0.0
  0
LINE
  5
8C00
330
1E
100
AcDbEntity
  8
10
100
AcDbLine
 10
313.6506535034816
 20
-49.99998751888142
 30
0.0
 11
313.8314564182467
 21
-49.99998751888142
 31
0.0
  0
LINE
  5
8C01
330
1E
100
AcDbEntity
  8
10
100
AcDbLine
 10
312.3314511001983
 20
-49.99998751888142
 30
0.0
 11
312.3424000441256
 21
-49.99998751888142
 31
0.0
  0
LINE
  5
8C02
330
1E
100
AcDbEntity
  8
10
100
AcDbLine
 10
312.8367739304387
 20
-49.99998751888142
 30
0.0
 11
312.9793524347671
 21
-49.99998751888142
 31
0.0
  0
LINE
  5
8C03
330
1E
100
AcDbEntity
  8
10
100
AcDbLine
 10
313.4724667080618
 20
-49.99998751888142
 30
0.0
 11
313.6506535034816
 21
-49.99998751888142
 31
0.0
  0
LINE
  5
8C04
330
1E
100
AcDbEntity
  8
10
100
AcDbLine
 10
312.3424000441256
 20
-49.99998751888142
 30
0.0
 11
312.3750288659623
 21
-49.99998751888142
 31
0.0
  0
LINE
  5
8C05
330
1E
100
AcDbEntity
  8
10
100
AcDbLine
 10
312.7086809758193
 20
-49.99998751888142
 30
0.0
 11
312.8367739304387
 21
-49.99998751888142
 31
0.0
  0
LINE
  5
8C06
330
1E
100
AcDbEntity
  8
10
100
AcDbLine
 10
313.2995363746605
 20
-49.99998751888142
 30
0.0
 11
313.4724667080618
 21
-49.99998751888142
 31
0.0
  0
LINE
  5
8C07
330
1E
100
AcDbEntity
  8
10
100
AcDbLine
 10
312.5032671605452
 20
-49.99998751888142
 30
0.0
 11
312.5969872137641
 21
-49.99998751888142
 31
0.0
  0
LINE
  5
8C08
330
1E
100
AcDbEntity
  8
10
100
AcDbLine
 10
312.5969872137641
 20
-49.99998751888142
 30
0.0
 11
312.7086809758193
 21
-49.99998751888142
 31
0.0
  0
LINE
  5
8C09
330
1E
100
AcDbEntity
  8
10
100
AcDbLine
 10
312.9793524347671
 20
-49.99998751888142
 30
0.0
 11
313.1343575059866
 21
-49.99998751888142
 31
0.0
  0
LINE
  5
8C0A
330
1E
100
AcDbEntity
  8
10
100
AcDbLine
 10
312.3750288659623
 20
-49.99998751888142
 30
0.0
 11
312.4289257691446
 21
-49.99998751888142
 31
0.0
  0
LINE
  5
8C0B
330
1E
100
AcDbEntity
  8
10
100
AcDbLine
 10
313.1343575059866
 20
-49.99998751888142
 30
0.0
 11
313.2995363746605
 21
-49.99998751888142
 31
0.0
  0
LINE
  5
8C0C
330
1E
100
AcDbEntity
  8
10
100
AcDbLine
 10
312.4289257691446
 20
-49.99998751888142
 30
0.0
 11
312.5032671605452
 21
-49.99998751888142
 31
0.0
  0
LINE
  5
8C0D
330
1E
100
AcDbEntity
  8
10
100
AcDbLine
 10
195.8314477495726
 20
22.5
 30
0.0
 11
203.8314477495724
 21
22.5
 31
0.0
  0
LINE
  5
8C0E
330
1E
100
AcDbEntity
  8
10
100
AcDbLine
 10
183.8361939499773
 20
15.23995644007664
 30
0.0
 11
187.2776525680836
 21
20.15486870581057
 31
0.0
  0
LINE
  5
8C0F
330
1E
100
AcDbEntity
  8
10
100
AcDbLine
 10
195.8314477495726
 20
14.16543683943007
 30
0.0
 11
187.2776525680836
 21
20.15486870581057
 31
0.0
  0
LINE
  5
8C10
330
1E
100
AcDbEntity
  8
10
100
AcDbLine
 10
195.8314477495726
 20
6.840789306861267
 30
0.0
 11
183.8361939499773
 21
15.23995644007664
 31
0.0
  0
LINE
  5
8C11
330
1E
100
AcDbEntity
  8
10
100
AcDbLine
 10
210.8314477495726
 20
82.5
 30
0.0
 11
210.8314477495726
 21
51.0
 31
0.0
  0
LINE
  5
8C12
330
1E
100
AcDbEntity
  8
10
100
AcDbLine
 10
311.831457401958
 20
90.00000417964656
 30
0.0
 11
311.831457401958
 21
48.49999431249671
 31
0.0
  0
LINE
  5
8C13
330
1E
100
AcDbEntity
  8
10
100
AcDbLine
 10
203.8314477495724
 20
51.0
 30
0.0
 11
210.8314477495726
 21
51.0
 31
0.0
  0
ARC
  5
8C14
330
1E
100
AcDbEntity
  8
10
100
AcDbCircle
 10
312.3314511001983
 20
50.50001755211269
 30
0.0
 40
0.4999999906281083
100
AcDbArc
 50
180.0
 51
270.0
  0
ARC
  5
8C15
330
1E
100
AcDbEntity
  8
10
100
AcDbCircle
 10
313.8314564182467
 20
51.99999864683377
 30
0.0
 40
1.999999962512431
100
AcDbArc
 50
180.0
 51
270.0
  0
LINE
  5
8C16
330
1E
100
AcDbEntity
  8
10
100
AcDbLine
 10
312.8367739304387
 20
49.99999963054503
 30
0.0
 11
312.7086809758193
 21
49.99999963054503
 31
0.0
  0
LINE
  5
8C17
330
1E
100
AcDbEntity
  8
10
100
AcDbLine
 10
313.8314564182467
 20
49.99999963054503
 30
0.0
 11
313.6506535034816
 21
49.99999963054503
 31
0.0
  0
LINE
  5
8C18
330
1E
100
AcDbEntity
  8
10
100
AcDbLine
 10
312.9793524347671
 20
49.99999963054503
 30
0.0
 11
312.8367739304387
 21
49.99999963054503
 31
0.0
  0
LINE
  5
8C19
330
1E
100
AcDbEntity
  8
10
100
AcDbLine
 10
313.1343575059866
 20
49.99999963054503
 30
0.0
 11
312.9793524347671
 21
49.99999963054503
 31
0.0
  0
LINE
  5
8C1A
330
1E
100
AcDbEntity
  8
10
100
AcDbLine
 10
312.7086809758193
 20
49.99999963054503
 30
0.0
 11
312.5969872137641
 21
49.99999963054503
 31
0.0
  0
LINE
  5
8C1B
330
1E
100
AcDbEntity
  8
10
100
AcDbLine
 10
313.6506535034816
 20
49.99999963054503
 30
0.0
 11
313.4724667080618
 21
49.99999963054503
 31
0.0
  0
LINE
  5
8C1C
330
1E
100
AcDbEntity
  8
10
100
AcDbLine
 10
312.4289257691446
 20
49.99999963054503
 30
0.0
 11
312.3750288659623
 21
49.99999963054503
 31
0.0
  0
LINE
  5
8C1D
330
1E
100
AcDbEntity
  8
10
100
AcDbLine
 10
312.5032671605452
 20
49.99999963054503
 30
0.0
 11
312.4289257691446
 21
49.99999963054503
 31
0.0
  0
LINE
  5
8C1E
330
1E
100
AcDbEntity
  8
10
100
AcDbLine
 10
312.3424000441256
 20
49.99999963054503
 30
0.0
 11
312.3314511001983
 21
49.99999963054503
 31
0.0
  0
LINE
  5
8C1F
330
1E
100
AcDbEntity
  8
10
100
AcDbLine
 10
313.4724667080618
 20
49.99999963054503
 30
0.0
 11
313.2995363746605
 21
49.99999963054503
 31
0.0
  0
LINE
  5
8C20
330
1E
100
AcDbEntity
  8
10
100
AcDbLine
 10
312.5969872137641
 20
49.99999963054503
 30
0.0
 11
312.5032671605452
 21
49.99999963054503
 31
0.0
  0
LINE
  5
8C21
330
1E
100
AcDbEntity
  8
10
100
AcDbLine
 10
313.2995363746605
 20
49.99999963054503
 30
0.0
 11
313.1343575059866
 21
49.99999963054503
 31
0.0
  0
LINE
  5
8C22
330
1E
100
AcDbEntity
  8
10
100
AcDbLine
 10
312.3750288659623
 20
49.99999963054503
 30
0.0
 11
312.3424000441256
 21
49.99999963054503
 31
0.0
  0
ARC
  5
8C23
330
1E
100
AcDbEntity
  8
10
100
AcDbCircle
 10
312.3314511001983
 20
57.9999956956999
 30
0.0
 40
0.4999999906281083
100
AcDbArc
 50
180.0
 51
270.0
  0
LINE
  5
8C24
330
1E
100
AcDbEntity
  8
10
100
AcDbLine
 10
306.8314477495726
 20
82.5
 30
0.0
 11
210.8314477495726
 21
82.5
 31
0.0
  0
ARC
  5
8C25
330
1E
100
AcDbEntity
  8
10
100
AcDbCircle
 10
312.3314511001983
 20
87.50001146511749
 30
0.0
 40
0.4999999906281083
100
AcDbArc
 50
90.0
 51
180.0
  0
LINE
  5
8C26
330
1E
100
AcDbEntity
  8
10
100
AcDbLine
 10
311.831457401958
 20
87.49998724179022
 30
0.0
 11
311.831457401958
 21
89.49998625807893
 31
0.0
  0
LINE
  5
8C27
330
1E
100
AcDbEntity
  8
10
100
AcDbLine
 10
299.8314633042257
 20
89.49998625807893
 30
0.0
 11
299.8314633042257
 21
86.99999354354986
 31
0.0
  0
LINE
  5
8C28
330
1E
100
AcDbEntity
  8
10
100
AcDbLine
 10
300.331457002466
 20
84.699988618986
 30
0.0
 11
306.8314477495726
 21
84.699988618986
 31
0.0
  0
LINE
  5
8C29
330
1E
100
AcDbEntity
  8
10
100
AcDbLine
 10
306.8314477495726
 20
86.49998773364584
 30
0.0
 11
300.331457002466
 21
86.49998773364584
 31
0.0
  0
ARC
  5
8C2A
330
1E
100
AcDbEntity
  8
10
100
AcDbCircle
 10
-300.331457002466
 20
85.99999403540556
 30
0.0
 40
0.4999999906281083
210
0.0
220
0.0
230
-1.0
100
AcDbArc
 50
0.0
 51
90.0
  0
ARC
  5
8C2B
330
1E
100
AcDbEntity
  8
10
100
AcDbCircle
 10
-300.331457002466
 20
85.19999442889002
 30
0.0
 40
0.4999999906281083
210
0.0
220
0.0
230
-1.0
100
AcDbArc
 50
270.0
 51
0.0
  0
LINE
  5
8C2C
330
1E
100
AcDbEntity
  8
10
100
AcDbLine
 10
299.8314633042257
 20
86.24423784429842
 30
0.0
 11
299.8314633042257
 21
86.15874161068855
 31
0.0
  0
LINE
  5
8C2D
330
1E
100
AcDbEntity
  8
10
100
AcDbLine
 10
299.8314633042257
 20
86.85768149582139
 30
0.0
 11
299.8314633042257
 21
86.71826413570215
 31
0.0
  0
LINE
  5
8C2E
330
1E
100
AcDbEntity
  8
10
100
AcDbLine
 10
299.8314633042257
 20
86.15874161068855
 30
0.0
 11
299.8314633042257
 21
86.09035915779712
 31
0.0
  0
LINE
  5
8C2F
330
1E
100
AcDbEntity
  8
10
100
AcDbLine
 10
299.8314633042257
 20
86.09035915779712
 30
0.0
 11
299.8314633042257
 21
86.04049543860581
 31
0.0
  0
LINE
  5
8C30
330
1E
100
AcDbEntity
  8
10
100
AcDbLine
 10
299.8314633042257
 20
86.01016783286011
 30
0.0
 11
299.8314633042257
 21
85.99999403540556
 31
0.0
  0
LINE
  5
8C31
330
1E
100
AcDbEntity
  8
10
100
AcDbLine
 10
299.8314633042257
 20
86.34512800239008
 30
0.0
 11
299.8314633042257
 21
86.24423784429842
 31
0.0
  0
LINE
  5
8C32
330
1E
100
AcDbEntity
  8
10
100
AcDbLine
 10
299.8314633042257
 20
86.58457559248285
 30
0.0
 11
299.8314633042257
 21
86.45935310214559
 31
0.0
  0
LINE
  5
8C33
330
1E
100
AcDbEntity
  8
10
100
AcDbLine
 10
299.8314633042257
 20
87.0000419902044
 30
0.0
 11
299.8314633042257
 21
85.69998812713036
 31
0.0
  0
LINE
  5
8C34
330
1E
100
AcDbEntity
  8
10
100
AcDbLine
 10
299.8314633042257
 20
86.99999354354986
 30
0.0
 11
299.8314633042257
 21
86.85768149582139
 31
0.0
  0
LINE
  5
8C35
330
1E
100
AcDbEntity
  8
10
100
AcDbLine
 10
299.8314633042257
 20
85.99999403540556
 30
0.0
 11
299.8314633042257
 21
85.19999442889002
 31
0.0
  0
LINE
  5
8C36
330
1E
100
AcDbEntity
  8
10
100
AcDbLine
 10
299.8314633042257
 20
86.71826413570215
 30
0.0
 11
299.8314633042257
 21
86.58457559248285
 31
0.0
  0
LINE
  5
8C37
330
1E
100
AcDbEntity
  8
10
100
AcDbLine
 10
299.8314633042257
 20
86.45935310214559
 30
0.0
 11
299.8314633042257
 21
86.34512800239008
 31
0.0
  0
LINE
  5
8C38
330
1E
100
AcDbEntity
  8
10
100
AcDbLine
 10
299.8314633042257
 20
86.04049543860581
 30
0.0
 11
299.8314633042257
 21
86.01016783286011
 31
0.0
  0
ARC
  5
8C39
330
1E
100
AcDbEntity
  8
10
100
AcDbCircle
 10
-311.3314394803903
 20
85.99999403540556
 30
0.0
 40
0.4999999906281083
210
0.0
220
0.0
230
-1.0
100
AcDbArc
 50
90.0
 51
180.0
  0
LINE
  5
8C3A
330
1E
100
AcDbEntity
  8
10
100
AcDbLine
 10
306.8314477495726
 20
86.49998773364584
 30
0.0
 11
306.8314477495726
 21
82.5
 31
0.0
  0
LINE
  5
8C3B
330
1E
100
AcDbEntity
  8
10
100
AcDbLine
 10
306.8314477495726
 20
84.699988618986
 30
0.0
 11
306.8314477495726
 21
84.49998871735715
 31
0.0
  0
LINE
  5
8C3C
330
1E
100
AcDbEntity
  8
10
100
AcDbLine
 10
311.3314394803903
 20
86.49998773364584
 30
0.0
 11
306.8314477495726
 21
86.49998773364584
 31
0.0
  0
LINE
  5
8C3D
330
1E
100
AcDbEntity
  8
10
100
AcDbLine
 10
300.331457002466
 20
89.99999206798294
 30
0.0
 11
311.3314394803903
 21
89.99999206798294
 31
0.0
  0
LINE
  5
8C3E
330
1E
100
AcDbEntity
  8
10
100
AcDbLine
 10
311.3314394803903
 20
92.49999689417563
 30
0.0
 11
300.331457002466
 21
92.49999689417563
 31
0.0
  0
ARC
  5
8C3F
330
1E
100
AcDbEntity
  8
10
100
AcDbCircle
 10
-300.331457002466
 20
90.49999787788692
 30
0.0
 40
0.4999999906281083
210
0.0
220
0.0
230
-1.0
100
AcDbArc
 50
270.0
 51
0.0
  0
ARC
  5
8C40
330
1E
100
AcDbEntity
  8
10
100
AcDbCircle
 10
-300.331457002466
 20
91.99999108427164
 30
0.0
 40
0.4999999906281083
210
0.0
220
0.0
230
-1.0
100
AcDbArc
 50
0.0
 51
90.0
  0
LINE
  5
8C41
330
1E
100
AcDbEntity
  8
10
100
AcDbLine
 10
299.8314633042257
 20
89.78172777759027
 30
0.0
 11
299.8314633042257
 21
89.64231041747099
 31
0.0
  0
LINE
  5
8C42
330
1E
100
AcDbEntity
  8
10
100
AcDbLine
 10
299.8314633042257
 20
90.40962064383164
 30
0.0
 11
299.8314633042257
 21
90.34125030260383
 31
0.0
  0
LINE
  5
8C43
330
1E
100
AcDbEntity
  8
10
100
AcDbLine
 10
299.8314633042257
 20
90.25574195733041
 30
0.0
 11
299.8314633042257
 21
90.15485179923871
 31
0.0
  0
LINE
  5
8C44
330
1E
100
AcDbEntity
  8
10
100
AcDbLine
 10
299.8314633042257
 20
90.49999787788692
 30
0.0
 11
299.8314633042257
 21
90.48981196876859
 31
0.0
  0
LINE
  5
8C45
330
1E
100
AcDbEntity
  8
10
100
AcDbLine
 10
299.8314633042257
 20
89.64231041747099
 30
0.0
 11
299.8314633042257
 21
89.49998625807893
 31
0.0
  0
LINE
  5
8C46
330
1E
100
AcDbEntity
  8
10
100
AcDbLine
 10
299.8314633042257
 20
90.45948436302294
 30
0.0
 11
299.8314633042257
 21
90.40962064383164
 31
0.0
  0
LINE
  5
8C47
330
1E
100
AcDbEntity
  8
10
100
AcDbLine
 10
299.8314633042257
 20
90.48981196876859
 30
0.0
 11
299.8314633042257
 21
90.45948436302294
 31
0.0
  0
LINE
  5
8C48
330
1E
100
AcDbEntity
  8
10
100
AcDbLine
 10
299.8314633042257
 20
90.34125030260383
 30
0.0
 11
299.8314633042257
 21
90.25574195733041
 31
0.0
  0
LINE
  5
8C49
330
1E
100
AcDbEntity
  8
10
100
AcDbLine
 10
299.8314633042257
 20
89.91540420914589
 30
0.0
 11
299.8314633042257
 21
89.78172777759027
 31
0.0
  0
LINE
  5
8C4A
330
1E
100
AcDbEntity
  8
10
100
AcDbLine
 10
299.8314633042257
 20
90.15485179923871
 30
0.0
 11
299.8314633042257
 21
90.04063881114689
 31
0.0
  0
LINE
  5
8C4B
330
1E
100
AcDbEntity
  8
10
100
AcDbLine
 10
299.8314633042257
 20
90.04063881114689
 30
0.0
 11
299.8314633042257
 21
89.91540420914589
 31
0.0
  0
LINE
  5
8C4C
330
1E
100
AcDbEntity
  8
10
100
AcDbLine
 10
299.8314633042257
 20
91.99999108427164
 30
0.0
 11
299.8314633042257
 21
90.49999787788692
 31
0.0
  0
LINE
  5
8C4D
330
1E
100
AcDbEntity
  8
10
100
AcDbLine
 10
302.2464079166993
 20
89.05187892685717
 30
0.0
 11
302.2463110233907
 21
89.05321120985719
 31
0.0
  0
ARC
  5
8C4E
330
1E
100
AcDbEntity
  8
10
100
AcDbCircle
 10
-311.3314394803903
 20
90.49999787788692
 30
0.0
 40
0.4999999906281083
210
0.0
220
0.0
230
-1.0
100
AcDbArc
 50
180.0
 51
270.0
  0
ARC
  5
8C4F
330
1E
100
AcDbEntity
  8
10
100
AcDbCircle
 10
-311.3314394803903
 20
91.99999108427164
 30
0.0
 40
0.4999999906281083
210
0.0
220
0.0
230
-1.0
100
AcDbArc
 50
90.0
 51
180.0
  0
LINE
  5
8C50
330
1E
100
AcDbEntity
  8
10
100
AcDbLine
 10
311.831457401958
 20
89.78172777759027
 30
0.0
 11
311.831457401958
 21
89.91540420914589
 31
0.0
  0
LINE
  5
8C51
330
1E
100
AcDbEntity
  8
10
100
AcDbLine
 10
311.831457401958
 20
90.49999787788692
 30
0.0
 11
311.831457401958
 21
91.99999108427164
 31
0.0
  0
LINE
  5
8C52
330
1E
100
AcDbEntity
  8
10
100
AcDbLine
 10
311.831457401958
 20
89.49998625807893
 30
0.0
 11
311.831457401958
 21
89.64231041747099
 31
0.0
  0
LINE
  5
8C53
330
1E
100
AcDbEntity
  8
10
100
AcDbLine
 10
311.831457401958
 20
90.25574195733041
 30
0.0
 11
311.831457401958
 21
90.34125030260383
 31
0.0
  0
LINE
  5
8C54
330
1E
100
AcDbEntity
  8
10
100
AcDbLine
 10
311.831457401958
 20
90.48981196876859
 30
0.0
 11
311.831457401958
 21
90.49999787788692
 31
0.0
  0
LINE
  5
8C55
330
1E
100
AcDbEntity
  8
10
100
AcDbLine
 10
311.831457401958
 20
90.34125030260383
 30
0.0
 11
311.831457401958
 21
90.40962064383164
 31
0.0
  0
LINE
  5
8C56
330
1E
100
AcDbEntity
  8
10
100
AcDbLine
 10
311.831457401958
 20
90.40962064383164
 30
0.0
 11
311.831457401958
 21
90.45948436302294
 31
0.0
  0
LINE
  5
8C57
330
1E
100
AcDbEntity
  8
10
100
AcDbLine
 10
311.831457401958
 20
90.45948436302294
 30
0.0
 11
311.831457401958
 21
90.48981196876859
 31
0.0
  0
LINE
  5
8C58
330
1E
100
AcDbEntity
  8
10
100
AcDbLine
 10
311.831457401958
 20
89.91540420914589
 30
0.0
 11
311.831457401958
 21
90.04063881114689
 31
0.0
  0
LINE
  5
8C59
330
1E
100
AcDbEntity
  8
10
100
AcDbLine
 10
311.831457401958
 20
90.15485179923871
 30
0.0
 11
311.831457401958
 21
90.25574195733041
 31
0.0
  0
LINE
  5
8C5A
330
1E
100
AcDbEntity
  8
10
100
AcDbLine
 10
311.831457401958
 20
89.64231041747099
 30
0.0
 11
311.831457401958
 21
89.78172777759027
 31
0.0
  0
LINE
  5
8C5B
330
1E
100
AcDbEntity
  8
10
100
AcDbLine
 10
311.831457401958
 20
90.04063881114689
 30
0.0
 11
311.831457401958
 21
90.15485179923871
 31
0.0
  0
LINE
  5
8C5C
330
1E
100
AcDbEntity
  8
18
100
AcDbLine
 10
357.3314483638288
 20
49.0
 30
0.0
 11
357.3314483638288
 21
-49.0
 31
0.0
  0
LINE
  5
8C5D
330
1E
100
AcDbEntity
  8
10
100
AcDbLine
 10
335.3314518991822
 20
-45.49999578806364
 30
0.0
 11
335.3314518991822
 21
45.50000789972727
 31
0.0
  0
LINE
  5
8C5E
330
1E
100
AcDbEntity
  8
10
100
AcDbLine
 10
354.8314483638288
 20
53.99999766312247
 30
0.0
 11
354.8314483638288
 21
-53.99999766312247
 31
0.0
  0
LINE
  5
8C5F
330
1E
100
AcDbEntity
  8
10
100
AcDbLine
 10
334.8314582009418
 20
45.76384838038399
 30
0.0
 11
334.8314582009418
 21
-45.76383626872028
 31
0.0
  0
LINE
  5
8C60
330
1E
100
AcDbEntity
  8
10
100
AcDbLine
 10
381.83144719539
 20
-55.4999908695072
 30
0.0
 11
381.83144719539
 21
-87.9999930516942
 31
0.0
  0
LINE
  5
8C61
330
1E
100
AcDbEntity
  8
10
100
AcDbLine
 10
348.8314513149628
 20
-89.49998625807893
 30
0.0
 11
348.8314513149628
 21
-49.49999382064106
 31
0.0
  0
LINE
  5
8C62
330
1E
100
AcDbEntity
  8
10
100
AcDbLine
 10
381.3314534971498
 20
-89.99999206798291
 30
0.0
 11
349.3314450132031
 21
-89.99999206798291
 31
0.0
  0
LINE
  5
8C63
330
1E
100
AcDbEntity
  8
10
100
AcDbLine
 10
349.3314450132031
 20
-89.99999206798291
 30
0.0
 11
335.8314455974225
 21
-89.99999206798291
 31
0.0
  0
ARC
  5
8C64
330
1E
100
AcDbEntity
  8
10
100
AcDbCircle
 10
336.8314572172303
 20
-98.99998764128213
 30
0.0
 40
0.9999999812562164
100
AcDbArc
 50
180.0
 51
270.0
  0
LINE
  5
8C65
330
1E
100
AcDbEntity
  8
10
100
AcDbLine
 10
336.6891451695023
 20
-93.80826246519518
 30
0.0
 11
336.8314572172303
 21
-93.80553734087698
 31
0.0
  0
LINE
  5
8C66
330
1E
100
AcDbEntity
  8
10
100
AcDbLine
 10
335.8314455974225
 20
-89.61125611190709
 30
0.0
 11
335.8314455974225
 21
-89.49998625807893
 31
0.0
  0
LINE
  5
8C67
330
1E
100
AcDbEntity
  8
10
100
AcDbLine
 10
345.8314406788661
 20
-99.90962202703485
 30
0.0
 11
345.8314406788661
 21
-99.95948574622619
 31
0.0
  0
LINE
  5
8C68
330
1E
100
AcDbEntity
  8
10
100
AcDbLine
 10
335.8314455974225
 20
-89.89090231360931
 30
0.0
 11
335.8314455974225
 21
-89.81174048008144
 31
0.0
  0
LINE
  5
8C69
330
1E
100
AcDbEntity
  8
10
100
AcDbLine
 10
335.8314455974225
 20
-87.9999930516942
 30
0.0
 11
335.8314455974225
 21
-89.49998625807893
 31
0.0
  0
LINE
  5
8C6A
330
1E
100
AcDbEntity
  8
10
100
AcDbLine
 10
336.4160271544998
 20
-90.00791309600119
 30
0.0
 11
336.5497156977192
 21
-90.00765875106479
 31
0.0
  0
LINE
  5
8C6B
330
1E
100
AcDbEntity
  8
10
100
AcDbLine
 10
345.8314406788661
 20
-93.80553734087698
 30
0.0
 11
336.8314572172303
 21
-93.80553734087698
 31
0.0
  0
LINE
  5
8C6C
330
1E
100
AcDbEntity
  8
10
100
AcDbLine
 10
345.8314406788661
 20
-91.20745226255619
 30
0.0
 11
336.8314572172303
 21
-91.20745226255619
 31
0.0
  0
LINE
  5
8C6D
330
1E
100
AcDbEntity
  8
10
100
AcDbLine
 10
336.2908167758262
 20
-93.84807350356823
 30
0.0
 11
336.4160271544998
 21
-93.82974855648626
 31
0.0
  0
LINE
  5
8C6E
330
1E
100
AcDbEntity
  8
10
100
AcDbLine
 10
345.8314406788661
 20
-89.99999206798291
 30
0.0
 11
345.8314406788661
 21
-90.00745285278298
 31
0.0
  0
LINE
  5
8C6F
330
1E
100
AcDbEntity
  8
10
100
AcDbLine
 10
335.8314455974225
 20
-89.99999206798291
 30
0.0
 11
335.8314455974225
 21
-89.98745649611919
 31
0.0
  0
LINE
  5
8C70
330
1E
100
AcDbEntity
  8
10
100
AcDbLine
 10
335.8719470006231
 20
-93.99799167606035
 30
0.0
 11
335.9218228314778
 21
-93.96217748668734
 31
0.0
  0
LINE
  5
8C71
330
1E
100
AcDbEntity
  8
10
100
AcDbLine
 10
335.8314455974225
 20
-91.47541070884928
 30
0.0
 11
335.8416193948771
 21
-91.43727108005803
 31
0.0
  0
LINE
  5
8C72
330
1E
100
AcDbEntity
  8
10
100
AcDbLine
 10
336.5497156977192
 20
-91.21831642483812
 30
0.0
 11
336.6891451695023
 21
-91.21018949853805
 31
0.0
  0
LINE
  5
8C73
330
1E
100
AcDbEntity
  8
10
100
AcDbLine
 10
336.2908167758262
 20
-90.00825222258301
 30
0.0
 11
336.4160271544998
 21
-90.00791309600119
 31
0.0
  0
LINE
  5
8C74
330
1E
100
AcDbEntity
  8
10
100
AcDbLine
 10
336.6891451695023
 20
-91.21018949853805
 30
0.0
 11
336.8314572172303
 21
-91.20745226255619
 31
0.0
  0
LINE
  5
8C75
330
1E
100
AcDbEntity
  8
10
100
AcDbLine
 10
335.8314455974225
 20
-89.71693037713519
 30
0.0
 11
335.8314455974225
 21
-89.61125611190709
 31
0.0
  0
LINE
  5
8C76
330
1E
100
AcDbEntity
  8
10
100
AcDbLine
 10
345.8314406788661
 20
-90.00745285278298
 30
0.0
 11
336.8314572172303
 21
-90.00745285278298
 31
0.0
  0
LINE
  5
8C77
330
1E
100
AcDbEntity
  8
10
100
AcDbLine
 10
345.8314406788661
 20
-91.20745226255619
 30
0.0
 11
345.8314406788661
 21
-93.80553734087698
 31
0.0
  0
LINE
  5
8C78
330
1E
100
AcDbEntity
  8
10
100
AcDbLine
 10
335.8314455974225
 20
-89.99999206798291
 30
0.0
 11
335.8314455974225
 21
-90.01243074653757
 31
0.0
  0
LINE
  5
8C79
330
1E
100
AcDbEntity
  8
10
100
AcDbLine
 10
336.4160271544998
 20
-93.82974855648626
 30
0.0
 11
336.5497156977192
 21
-93.81638939149523
 31
0.0
  0
LINE
  5
8C7A
330
1E
100
AcDbEntity
  8
10
100
AcDbLine
 10
335.8314455974225
 20
-89.95047958703706
 30
0.0
 11
335.8314455974225
 21
-89.89090231360931
 31
0.0
  0
LINE
  5
8C7B
330
1E
100
AcDbEntity
  8
10
100
AcDbLine
 10
335.8314455974225
 20
-94.07348367550639
 30
0.0
 11
335.8314455974225
 21
-91.47541070884928
 31
0.0
  0
LINE
  5
8C7C
330
1E
100
AcDbEntity
  8
10
100
AcDbLine
 10
336.1765795644071
 20
-91.27290369284763
 30
0.0
 11
336.2908167758262
 21
-91.24998842524748
 31
0.0
  0
LINE
  5
8C7D
330
1E
100
AcDbEntity
  8
10
100
AcDbLine
 10
336.0756894063154
 20
-91.29993692608421
 30
0.0
 11
336.1765795644071
 21
-91.27290369284763
 31
0.0
  0
LINE
  5
8C7E
330
1E
100
AcDbEntity
  8
10
100
AcDbLine
 10
345.8314406788661
 20
-99.28172916079347
 30
0.0
 11
345.8314406788661
 21
-99.41540559234908
 31
0.0
  0
LINE
  5
8C7F
330
1E
100
AcDbEntity
  8
10
100
AcDbLine
 10
345.8314406788661
 20
-99.54062808268645
 30
0.0
 11
345.8314406788661
 21
-99.65485318244192
 31
0.0
  0
LINE
  5
8C80
330
1E
100
AcDbEntity
  8
10
100
AcDbLine
 10
335.9218228314778
 20
-90.01037176371935
 30
0.0
 11
335.9902052843692
 21
-90.00974195721028
 31
0.0
  0
LINE
  5
8C81
330
1E
100
AcDbEntity
  8
10
100
AcDbLine
 10
335.8416193948771
 20
-91.43727108005803
 30
0.0
 11
335.8719470006231
 21
-91.3999187094032
 31
0.0
  0
LINE
  5
8C82
330
1E
100
AcDbEntity
  8
10
100
AcDbLine
 10
335.9902052843692
 20
-90.00974195721028
 30
0.0
 11
336.0756894063154
 21
-90.00917270901934
 31
0.0
  0
LINE
  5
8C83
330
1E
100
AcDbEntity
  8
10
100
AcDbLine
 10
335.8314455974225
 20
-90.01243074653757
 30
0.0
 11
335.8416193948771
 21
-90.01172827004666
 31
0.0
  0
LINE
  5
8C84
330
1E
100
AcDbEntity
  8
10
100
AcDbLine
 10
336.5497156977192
 20
-93.81638939149523
 30
0.0
 11
336.6891451695023
 21
-93.80826246519518
 31
0.0
  0
LINE
  5
8C85
330
1E
100
AcDbEntity
  8
10
100
AcDbLine
 10
336.1765795644071
 20
-90.0086761308103
 30
0.0
 11
336.2908167758262
 21
-90.00825222258301
 31
0.0
  0
LINE
  5
8C86
330
1E
100
AcDbEntity
  8
10
100
AcDbLine
 10
335.8314455974225
 20
-94.07348367550639
 30
0.0
 11
335.8416193948771
 21
-94.0353561583788
 31
0.0
  0
LINE
  5
8C87
330
1E
100
AcDbEntity
  8
10
100
AcDbLine
 10
345.8314406788661
 20
-98.99998764128213
 30
0.0
 11
345.8314406788661
 21
-99.14231180067421
 31
0.0
  0
LINE
  5
8C88
330
1E
100
AcDbEntity
  8
10
100
AcDbLine
 10
345.8314406788661
 20
-99.41540559234908
 30
0.0
 11
345.8314406788661
 21
-99.54062808268645
 31
0.0
  0
LINE
  5
8C89
330
1E
100
AcDbEntity
  8
10
100
AcDbLine
 10
345.8314406788661
 20
-99.84123957414341
 30
0.0
 11
345.8314406788661
 21
-99.90962202703485
 31
0.0
  0
LINE
  5
8C8A
330
1E
100
AcDbEntity
  8
10
100
AcDbLine
 10
335.8416193948771
 20
-90.01172827004666
 30
0.0
 11
335.8719470006231
 21
-90.01103790521938
 31
0.0
  0
LINE
  5
8C8B
330
1E
100
AcDbEntity
  8
10
100
AcDbLine
 10
335.9902052843692
 20
-93.92861606675067
 30
0.0
 11
336.0756894063154
 21
-93.89800989274135
 31
0.0
  0
LINE
  5
8C8C
330
1E
100
AcDbEntity
  8
10
100
AcDbLine
 10
336.0756894063154
 20
-90.00917270901934
 30
0.0
 11
336.1765795644071
 21
-90.0086761308103
 31
0.0
  0
LINE
  5
8C8D
330
1E
100
AcDbEntity
  8
10
100
AcDbLine
 10
335.9902052843692
 20
-91.33054310009354
 30
0.0
 11
336.0756894063154
 21
-91.29993692608421
 31
0.0
  0
LINE
  5
8C8E
330
1E
100
AcDbEntity
  8
10
100
AcDbLine
 10
335.9218228314778
 20
-91.36409240836655
 30
0.0
 11
335.9902052843692
 21
-91.33054310009354
 31
0.0
  0
LINE
  5
8C8F
330
1E
100
AcDbEntity
  8
10
100
AcDbLine
 10
336.5497156977192
 20
-90.00765875106479
 30
0.0
 11
336.6891451695023
 21
-90.00751341110118
 31
0.0
  0
LINE
  5
8C90
330
1E
100
AcDbEntity
  8
10
100
AcDbLine
 10
345.8314406788661
 20
-99.9999871494265
 30
0.0
 11
336.8314572172303
 21
-99.9999871494265
 31
0.0
  0
LINE
  5
8C91
330
1E
100
AcDbEntity
  8
10
100
AcDbLine
 10
336.1765795644071
 20
-93.87097665950475
 30
0.0
 11
336.2908167758262
 21
-93.84807350356823
 31
0.0
  0
LINE
  5
8C92
330
1E
100
AcDbEntity
  8
10
100
AcDbLine
 10
336.6891451695023
 20
-90.00751341110118
 30
0.0
 11
336.8314572172303
 21
-90.00745285278298
 31
0.0
  0
LINE
  5
8C93
330
1E
100
AcDbEntity
  8
10
100
AcDbLine
 10
345.8314406788661
 20
-99.98981335197186
 30
0.0
 11
345.8314406788661
 21
-99.9999871494265
 31
0.0
  0
LINE
  5
8C94
330
1E
100
AcDbEntity
  8
10
100
AcDbLine
 10
345.8314406788661
 20
-99.65485318244192
 30
0.0
 11
345.8314406788661
 21
-99.75574334053362
 31
0.0
  0
LINE
  5
8C95
330
1E
100
AcDbEntity
  8
10
100
AcDbLine
 10
335.8314455974225
 20
-89.98745649611919
 30
0.0
 11
335.8314455974225
 21
-89.95047958703706
 31
0.0
  0
LINE
  5
8C96
330
1E
100
AcDbEntity
  8
10
100
AcDbLine
 10
336.2908167758262
 20
-91.24998842524748
 30
0.0
 11
336.4160271544998
 21
-91.23167558982911
 31
0.0
  0
LINE
  5
8C97
330
1E
100
AcDbEntity
  8
10
100
AcDbLine
 10
335.9218228314778
 20
-93.96217748668734
 30
0.0
 11
335.9902052843692
 21
-93.92861606675067
 31
0.0
  0
LINE
  5
8C98
330
1E
100
AcDbEntity
  8
10
100
AcDbLine
 10
345.8314406788661
 20
-99.75574334053362
 30
0.0
 11
345.8314406788661
 21
-99.84123957414341
 31
0.0
  0
LINE
  5
8C99
330
1E
100
AcDbEntity
  8
10
100
AcDbLine
 10
345.8314406788661
 20
-99.95948574622619
 30
0.0
 11
345.8314406788661
 21
-99.98981335197186
 31
0.0
  0
LINE
  5
8C9A
330
1E
100
AcDbEntity
  8
10
100
AcDbLine
 10
345.8314406788661
 20
-99.14231180067421
 30
0.0
 11
345.8314406788661
 21
-99.28172916079347
 31
0.0
  0
LINE
  5
8C9B
330
1E
100
AcDbEntity
  8
10
100
AcDbLine
 10
345.8314406788661
 20
-93.80553734087698
 30
0.0
 11
345.8314406788661
 21
-98.99998764128213
 31
0.0
  0
LINE
  5
8C9C
330
1E
100
AcDbEntity
  8
10
100
AcDbLine
 10
335.8314455974225
 20
-89.81174048008144
 30
0.0
 11
335.8314455974225
 21
-89.71693037713519
 31
0.0
  0
LINE
  5
8C9D
330
1E
100
AcDbEntity
  8
10
100
AcDbLine
 10
335.8719470006231
 20
-90.01103790521938
 30
0.0
 11
335.9218228314778
 21
-90.01037176371935
 31
0.0
  0
LINE
  5
8C9E
330
1E
100
AcDbEntity
  8
10
100
AcDbLine
 10
345.8314406788661
 20
-90.00745285278298
 30
0.0
 11
345.8314406788661
 21
-91.20745226255619
 31
0.0
  0
LINE
  5
8C9F
330
1E
100
AcDbEntity
  8
10
100
AcDbLine
 10
336.0756894063154
 20
-93.89800989274135
 30
0.0
 11
336.1765795644071
 21
-93.87097665950475
 31
0.0
  0
LINE
  5
8CA0
330
1E
100
AcDbEntity
  8
10
100
AcDbLine
 10
336.4160271544998
 20
-91.23167558982911
 30
0.0
 11
336.5497156977192
 21
-91.21831642483812
 31
0.0
  0
LINE
  5
8CA1
330
1E
100
AcDbEntity
  8
10
100
AcDbLine
 10
335.8719470006231
 20
-91.3999187094032
 30
0.0
 11
335.9218228314778
 21
-91.36409240836655
 31
0.0
  0
LINE
  5
8CA2
330
1E
100
AcDbEntity
  8
10
100
AcDbLine
 10
335.8416193948771
 20
-94.0353561583788
 30
0.0
 11
335.8719470006231
 21
-93.99799167606035
 31
0.0
  0
LINE
  5
8CA3
330
1E
100
AcDbEntity
  8
10
100
AcDbLine
 10
335.8314455974225
 20
-91.47541070884928
 30
0.0
 11
335.8314455974225
 21
-90.01243074653757
 31
0.0
  0
LINE
  5
8CA4
330
1E
100
AcDbEntity
  8
10
100
AcDbLine
 10
335.8314455974225
 20
-98.99998764128213
 30
0.0
 11
335.8314455974225
 21
-94.07348367550639
 31
0.0
  0
ARC
  5
8CA5
330
1E
100
AcDbEntity
  8
10
100
AcDbCircle
 10
349.3314450132031
 20
-89.49998625807893
 30
0.0
 40
0.4999999906281083
100
AcDbArc
 50
180.0
 51
270.0
  0
ARC
  5
8CA6
330
1E
100
AcDbEntity
  8
10
100
AcDbCircle
 10
381.3314534971498
 20
-89.49998625807893
 30
0.0
 40
0.4999999906281083
100
AcDbArc
 50
270.0
 51
0.0
  0
LINE
  5
8CA7
330
1E
100
AcDbEntity
  8
10
100
AcDbLine
 10
381.83144719539
 20
-87.9999930516942
 30
0.0
 11
381.83144719539
 21
-89.49998625807893
 31
0.0
  0
LINE
  5
8CA8
330
1E
100
AcDbEntity
  8
10
100
AcDbLine
 10
354.8314483638288
 20
-53.99999766312247
 30
0.0
 11
381.3314534971498
 21
-53.99999766312247
 31
0.0
  0
LINE
  5
8CA9
330
1E
100
AcDbEntity
  8
12
100
AcDbLine
 10
359.6314483638288
 20
-32.89999999999995
 30
0.0
 11
359.6314483638288
 21
-42.09999999999992
 31
0.0
  0
LINE
  5
8CAA
330
1E
100
AcDbEntity
  8
12
100
AcDbLine
 10
358.3314483638289
 20
-32.5
 30
0.0
 11
358.3314483638289
 21
-42.5
 31
0.0
  0
LINE
  5
8CAB
330
1E
100
AcDbEntity
  8
12
100
AcDbLine
 10
346.3314483638288
 20
-37.5
 30
0.0
 11
374.8314483638289
 21
-37.5
 31
0.0
  0
LINE
  5
8CAC
330
1E
100
AcDbEntity
  8
10
100
AcDbLine
 10
346.831452298674
 20
-47.49999480435234
 30
0.0
 11
337.3314509154709
 21
-47.49999480435234
 31
0.0
  0
LINE
  5
8CAD
330
1E
100
AcDbEntity
  8
10
100
AcDbLine
 10
333.1787490277648
 20
-47.73344712094512
 30
0.0
 11
328.8314611520756
 21
-48.49999431249671
 31
0.0
  0
ARC
  5
8CAE
330
1E
100
AcDbEntity
  8
10
100
AcDbCircle
 10
332.8314591846531
 20
-45.76383626872028
 30
0.0
 40
1.999999962512431
100
AcDbArc
 50
280.0000003611669
 51
0.0
  0
ARC
  5
8CAF
330
1E
100
AcDbEntity
  8
10
100
AcDbCircle
 10
337.3314509154709
 20
-45.49999578806364
 30
0.0
 40
1.999999962512431
100
AcDbArc
 50
180.0
 51
270.0
  0
LINE
  5
8CB0
330
1E
100
AcDbEntity
  8
10
100
AcDbLine
 10
333.8239373496791
 20
-47.49999480435234
 30
0.0
 11
337.3310875655618
 21
-47.49999480435234
 31
0.0
  0
ARC
  5
8CB1
330
1E
100
AcDbEntity
  8
18
100
AcDbCircle
 10
358.3314483638289
 20
-49.0
 30
0.0
 40
1.0
100
AcDbArc
 50
180.0
 51
270.0
  0
ARC
  5
8CB2
330
1E
100
AcDbEntity
  8
18
100
AcDbCircle
 10
358.3314483638289
 20
-49.0
 30
0.0
 40
3.5
100
AcDbArc
 50
180.0
 51
270.0
  0
LINE
  5
8CB3
330
1E
100
AcDbEntity
  8
18
100
AcDbLine
 10
369.8314483638288
 20
-52.5
 30
0.0
 11
369.8314483638288
 21
-50.0
 31
0.0
  0
LINE
  5
8CB4
330
1E
100
AcDbEntity
  8
18
100
AcDbLine
 10
358.3314483638289
 20
-52.5
 30
0.0
 11
369.8314483638288
 21
-52.5
 31
0.0
  0
LINE
  5
8CB5
330
1E
100
AcDbEntity
  8
12
100
AcDbLine
 10
359.6314483638288
 20
-41.89499999999998
 30
0.0
 11
364.3314483638288
 21
-41.89499999999998
 31
0.0
  0
LINE
  5
8CB6
330
1E
100
AcDbEntity
  8
12
100
AcDbLine
 10
359.6314483638288
 20
-35.41440107675839
 30
0.0
 11
364.3314483638288
 21
-35.41440107675839
 31
0.0
  0
LINE
  5
8CB7
330
1E
100
AcDbEntity
  8
12
100
AcDbLine
 10
359.6314483638288
 20
-33.10500000000004
 30
0.0
 11
364.3314483638288
 21
-33.10500000000004
 31
0.0
  0
LINE
  5
8CB8
330
1E
100
AcDbEntity
  8
12
100
AcDbLine
 10
359.6314483638288
 20
-39.58559892324146
 30
0.0
 11
364.3314483638288
 21
-39.58559892324146
 31
0.0
  0
LINE
  5
8CB9
330
1E
100
AcDbEntity
  8
18
100
AcDbLine
 10
358.3314483638289
 20
-50.0
 30
0.0
 11
369.8314483638288
 21
-50.0
 31
0.0
  0
ARC
  5
8CBA
330
1E
100
AcDbEntity
  8
10
100
AcDbCircle
 10
346.831452298674
 20
-49.49999382064106
 30
0.0
 40
1.999999962512431
100
AcDbArc
 50
0.0
 51
90.0
  0
LINE
  5
8CBB
330
1E
100
AcDbEntity
  8
12
100
AcDbLine
 10
357.3314483638288
 20
-42.5
 30
0.0
 11
358.3314483638289
 21
-42.5
 31
0.0
  0
LINE
  5
8CBC
330
1E
100
AcDbEntity
  8
12
100
AcDbLine
 10
358.3314483638289
 20
-42.09999999999992
 30
0.0
 11
359.6314483638288
 21
-42.09999999999992
 31
0.0
  0
LINE
  5
8CBD
330
1E
100
AcDbEntity
  8
10
100
AcDbLine
 10
347.0994107449673
 20
-50.00006018886324
 30
0.0
 11
347.0994107449673
 21
-49.49999382064106
 31
0.0
  0
LINE
  5
8CBE
330
1E
100
AcDbEntity
  8
10
100
AcDbLine
 10
348.8314513149628
 20
-49.49999382064106
 30
0.0
 11
347.6243544702986
 21
-49.49999382064106
 31
0.0
  0
LINE
  5
8CBF
330
1E
100
AcDbEntity
  8
12
100
AcDbLine
 10
369.8314483638288
 20
-35.0
 30
0.0
 11
369.8314483638288
 21
-40.0
 31
0.0
  0
LINE
  5
8CC0
330
1E
100
AcDbEntity
  8
12
100
AcDbLine
 10
364.3314483638288
 20
-35.0
 30
0.0
 11
369.8314483638288
 21
-35.0
 31
0.0
  0
LINE
  5
8CC1
330
1E
100
AcDbEntity
  8
12
100
AcDbLine
 10
364.3314483638288
 20
-40.0
 30
0.0
 11
369.8314483638288
 21
-40.0
 31
0.0
  0
LINE
  5
8CC2
330
1E
100
AcDbEntity
  8
12
100
AcDbLine
 10
364.3314483638288
 20
-33.10500000000004
 30
0.0
 11
364.3314483638288
 21
-41.89499999999998
 31
0.0
  0
LINE
  5
8CC3
330
1E
100
AcDbEntity
  8
12
100
AcDbLine
 10
357.3314483638288
 20
-32.5
 30
0.0
 11
358.3314483638289
 21
-32.5
 31
0.0
  0
LINE
  5
8CC4
330
1E
100
AcDbEntity
  8
12
100
AcDbLine
 10
358.3314483638289
 20
-32.89999999999995
 30
0.0
 11
359.6314483638288
 21
-32.89999999999995
 31
0.0
  0
ARC
  5
8CC5
330
1E
100
AcDbEntity
  8
10
100
AcDbCircle
 10
381.3314534971498
 20
-54.49999136136284
 30
0.0
 40
0.4999999906281083
100
AcDbArc
 50
0.0
 51
90.0
  0
LINE
  5
8CC6
330
1E
100
AcDbEntity
  8
10
100
AcDbLine
 10
381.83144719539
 20
-54.49999136136284
 30
0.0
 11
381.83144719539
 21
-55.4999908695072
 31
0.0
  0
LINE
  5
8CC7
330
1E
100
AcDbEntity
  8
10
100
AcDbLine
 10
348.8314513149628
 20
49.50000593230466
 30
0.0
 11
348.8314513149628
 21
89.50001048140615
 31
0.0
  0
LINE
  5
8CC8
330
1E
100
AcDbEntity
  8
10
100
AcDbLine
 10
381.83144719539
 20
88.00000516335785
 30
0.0
 11
381.83144719539
 21
55.50000298117081
 31
0.0
  0
LINE
  5
8CC9
330
1E
100
AcDbEntity
  8
10
100
AcDbLine
 10
381.3314534971498
 20
53.99999766312247
 30
0.0
 11
354.8314483638288
 21
53.99999766312247
 31
0.0
  0
LINE
  5
8CCA
330
1E
100
AcDbEntity
  8
12
100
AcDbLine
 10
358.3314483638289
 20
42.5
 30
0.0
 11
358.3314483638289
 21
32.5
 31
0.0
  0
LINE
  5
8CCB
330
1E
100
AcDbEntity
  8
12
100
AcDbLine
 10
359.6314483638288
 20
42.09999999999992
 30
0.0
 11
359.6314483638288
 21
32.9
 31
0.0
  0
LINE
  5
8CCC
330
1E
100
AcDbEntity
  8
12
100
AcDbLine
 10
364.3314483638288
 20
41.89500000000001
 30
0.0
 11
364.3314483638288
 21
33.10499999999999
 31
0.0
  0
LINE
  5
8CCD
330
1E
100
AcDbEntity
  8
12
100
AcDbLine
 10
369.8314483638288
 20
40.0
 30
0.0
 11
369.8314483638288
 21
35.0
 31
0.0
  0
LINE
  5
8CCE
330
1E
100
AcDbEntity
  8
12
100
AcDbLine
 10
359.6314483638288
 20
33.10499999999999
 30
0.0
 11
364.3314483638288
 21
33.10499999999999
 31
0.0
  0
LINE
  5
8CCF
330
1E
100
AcDbEntity
  8
12
100
AcDbLine
 10
359.6314483638288
 20
35.41440107675845
 30
0.0
 11
364.3314483638288
 21
35.41440107675845
 31
0.0
  0
LINE
  5
8CD0
330
1E
100
AcDbEntity
  8
12
100
AcDbLine
 10
358.3314483638289
 20
32.9
 30
0.0
 11
359.6314483638288
 21
32.9
 31
0.0
  0
LINE
  5
8CD1
330
1E
100
AcDbEntity
  8
12
100
AcDbLine
 10
357.3314483638288
 20
32.5
 30
0.0
 11
358.3314483638289
 21
32.5
 31
0.0
  0
LINE
  5
8CD2
330
1E
100
AcDbEntity
  8
12
100
AcDbLine
 10
364.3314483638288
 20
35.0
 30
0.0
 11
369.8314483638288
 21
35.0
 31
0.0
  0
LINE
  5
8CD3
330
1E
100
AcDbEntity
  8
12
100
AcDbLine
 10
346.3314483638288
 20
37.5
 30
0.0
 11
374.8314483638289
 21
37.5
 31
0.0
  0
LINE
  5
8CD4
330
1E
100
AcDbEntity
  8
10
100
AcDbLine
 10
337.3314509154709
 20
47.50000691601599
 30
0.0
 11
346.831452298674
 21
47.50000691601599
 31
0.0
  0
LINE
  5
8CD5
330
1E
100
AcDbEntity
  8
10
100
AcDbLine
 10
328.8314611520756
 20
48.49999431249671
 30
0.0
 11
333.1787490277648
 21
47.73347134427242
 31
0.0
  0
ARC
  5
8CD6
330
1E
100
AcDbEntity
  8
10
100
AcDbCircle
 10
332.8314591846531
 20
45.76384838038399
 30
0.0
 40
1.999999962512431
100
AcDbArc
 50
0.0
 51
79.99999963883303
  0
ARC
  5
8CD7
330
1E
100
AcDbEntity
  8
10
100
AcDbCircle
 10
337.3314509154709
 20
45.50000789972727
 30
0.0
 40
1.999999962512431
100
AcDbArc
 50
90.0
 51
180.0
  0
LINE
  5
8CD8
330
1E
100
AcDbEntity
  8
10
100
AcDbLine
 10
337.3314509154709
 20
47.50000691601599
 30
0.0
 11
333.823743563061
 21
47.50000691601599
 31
0.0
  0
ARC
  5
8CD9
330
1E
100
AcDbEntity
  8
18
100
AcDbCircle
 10
358.3314483638289
 20
49.0
 30
0.0
 40
3.5
100
AcDbArc
 50
90.0
 51
180.0
  0
LINE
  5
8CDA
330
1E
100
AcDbEntity
  8
12
100
AcDbLine
 10
359.6314483638288
 20
41.89500000000001
 30
0.0
 11
364.3314483638288
 21
41.89500000000001
 31
0.0
  0
LINE
  5
8CDB
330
1E
100
AcDbEntity
  8
12
100
AcDbLine
 10
359.6314483638288
 20
39.58559892324156
 30
0.0
 11
364.3314483638288
 21
39.58559892324156
 31
0.0
  0
LINE
  5
8CDC
330
1E
100
AcDbEntity
  8
18
100
AcDbLine
 10
358.3314483638289
 20
50.0
 30
0.0
 11
369.8314483638288
 21
50.0
 31
0.0
  0
LINE
  5
8CDD
330
1E
100
AcDbEntity
  8
18
100
AcDbLine
 10
358.3314483638289
 20
52.5
 30
0.0
 11
369.8314483638288
 21
52.5
 31
0.0
  0
ARC
  5
8CDE
330
1E
100
AcDbEntity
  8
18
100
AcDbCircle
 10
358.3314483638289
 20
49.0
 30
0.0
 40
1.0
100
AcDbArc
 50
90.0
 51
180.0
  0
ARC
  5
8CDF
330
1E
100
AcDbEntity
  8
10
100
AcDbCircle
 10
346.831452298674
 20
49.50000593230466
 30
0.0
 40
1.999999962512431
100
AcDbArc
 50
270.0
 51
0.0
  0
LINE
  5
8CE0
330
1E
100
AcDbEntity
  8
12
100
AcDbLine
 10
358.3314483638289
 20
42.09999999999999
 30
0.0
 11
359.6314483638288
 21
42.09999999999999
 31
0.0
  0
LINE
  5
8CE1
330
1E
100
AcDbEntity
  8
12
100
AcDbLine
 10
357.3314483638288
 20
42.5
 30
0.0
 11
358.3314483638289
 21
42.5
 31
0.0
  0
LINE
  5
8CE2
330
1E
100
AcDbEntity
  8
10
100
AcDbLine
 10
347.0994107449673
 20
49.50000593230466
 30
0.0
 11
347.0994107449673
 21
50.00007230052688
 31
0.0
  0
LINE
  5
8CE3
330
1E
100
AcDbEntity
  8
18
100
AcDbLine
 10
369.8314483638288
 20
50.0
 30
0.0
 11
369.8314483638288
 21
52.5
 31
0.0
  0
LINE
  5
8CE4
330
1E
100
AcDbEntity
  8
12
100
AcDbLine
 10
364.3314483638288
 20
40.0
 30
0.0
 11
369.8314483638288
 21
40.0
 31
0.0
  0
ARC
  5
8CE5
330
1E
100
AcDbEntity
  8
10
100
AcDbCircle
 10
381.3314534971498
 20
54.5000155846901
 30
0.0
 40
0.4999999906281083
100
AcDbArc
 50
270.0
 51
0.0
  0
LINE
  5
8CE6
330
1E
100
AcDbEntity
  8
10
100
AcDbLine
 10
381.83144719539
 20
55.50000298117081
 30
0.0
 11
381.83144719539
 21
54.5000155846901
 31
0.0
  0
LINE
  5
8CE7
330
1E
100
AcDbEntity
  8
10
100
AcDbLine
 10
349.3314450132031
 20
90.00000417964656
 30
0.0
 11
381.3314534971498
 21
90.00000417964656
 31
0.0
  0
LINE
  5
8CE8
330
1E
100
AcDbEntity
  8
10
100
AcDbLine
 10
335.8314455974225
 20
90.00000417964656
 30
0.0
 11
349.3314450132031
 21
90.00000417964656
 31
0.0
  0
LINE
  5
8CE9
330
1E
100
AcDbEntity
  8
10
100
AcDbLine
 10
335.8314455974225
 20
89.50001048140615
 30
0.0
 11
335.8314455974225
 21
87.50001146511749
 31
0.0
  0
ARC
  5
8CEA
330
1E
100
AcDbEntity
  8
10
100
AcDbCircle
 10
336.8314572172303
 20
99.00001186460936
 30
0.0
 40
0.9999999812562164
100
AcDbArc
 50
90.0
 51
180.0
  0
LINE
  5
8CEB
330
1E
100
AcDbEntity
  8
10
100
AcDbLine
 10
345.8314406788661
 20
99.65486529410554
 30
0.0
 11
345.8314406788661
 21
99.54065230601379
 31
0.0
  0
LINE
  5
8CEC
330
1E
100
AcDbEntity
  8
10
100
AcDbLine
 10
336.5497156977192
 20
91.21831642483812
 30
0.0
 11
336.6891451695023
 21
91.21020161020167
 31
0.0
  0
LINE
  5
8CED
330
1E
100
AcDbEntity
  8
10
100
AcDbLine
 10
335.8842524508775
 20
92.77444719217784
 30
0.0
 11
335.8828959445501
 21
93.07392018725288
 31
0.0
  0
LINE
  5
8CEE
330
1E
100
AcDbEntity
  8
10
100
AcDbLine
 10
336.8314572172303
 20
90.00746496444662
 30
0.0
 11
336.6891451695023
 21
90.00751341110117
 31
0.0
  0
LINE
  5
8CEF
330
1E
100
AcDbEntity
  8
10
100
AcDbLine
 10
345.8314406788661
 20
90.00746496444662
 30
0.0
 11
336.8314572172303
 21
90.00746496444662
 31
0.0
  0
LINE
  5
8CF0
330
1E
100
AcDbEntity
  8
10
100
AcDbLine
 10
336.6888302662473
 20
93.8082745768588
 30
0.0
 11
336.8314572172303
 21
93.80553734087698
 31
0.0
  0
LINE
  5
8CF1
330
1E
100
AcDbEntity
  8
10
100
AcDbLine
 10
345.8314406788661
 20
99.9594978578898
 30
0.0
 11
345.8314406788661
 21
99.90964625036212
 31
0.0
  0
LINE
  5
8CF2
330
1E
100
AcDbEntity
  8
10
100
AcDbLine
 10
335.8314455974225
 20
91.62962852193231
 30
0.0
 11
335.8368716227317
 21
91.81973319437021
 31
0.0
  0
LINE
  5
8CF3
330
1E
100
AcDbEntity
  8
10
100
AcDbLine
 10
336.2908167758262
 20
90.00826433424661
 30
0.0
 11
336.1765795644071
 21
90.00867613081025
 31
0.0
  0
LINE
  5
8CF4
330
1E
100
AcDbEntity
  8
10
100
AcDbLine
 10
345.8314406788661
 20
99.99999926109007
 30
0.0
 11
345.8314406788661
 21
99.98982546363549
 31
0.0
  0
LINE
  5
8CF5
330
1E
100
AcDbEntity
  8
10
100
AcDbLine
 10
335.8486683831135
 20
94.25856200753512
 30
0.0
 11
335.8555962547136
 21
94.4830638047005
 31
0.0
  0
LINE
  5
8CF6
330
1E
100
AcDbEntity
  8
10
100
AcDbLine
 10
336.4152035613726
 20
93.82985756145901
 30
0.0
 11
336.5491343378648
 21
93.81643783814979
 31
0.0
  0
LINE
  5
8CF7
330
1E
100
AcDbEntity
  8
10
100
AcDbLine
 10
335.8605620368046
 20
95.29175958570705
 30
0.0
 11
335.8519627556226
 21
95.64006680856442
 31
0.0
  0
LINE
  5
8CF8
330
1E
100
AcDbEntity
  8
10
100
AcDbLine
 10
336.1765795644071
 20
90.00867613081025
 30
0.0
 11
336.0756894063154
 21
90.009184820683
 31
0.0
  0
LINE
  5
8CF9
330
1E
100
AcDbEntity
  8
10
100
AcDbLine
 10
335.8314455974225
 20
91.93004622677108
 30
0.0
 11
335.8314455974225
 21
94.01223499249679
 31
0.0
  0
LINE
  5
8CFA
330
1E
100
AcDbEntity
  8
10
100
AcDbLine
 10
335.9890425646601
 20
93.92912475662342
 30
0.0
 11
336.0745024632787
 21
93.89840957764135
 31
0.0
  0
LINE
  5
8CFB
330
1E
100
AcDbEntity
  8
10
100
AcDbLine
 10
336.4160271544998
 20
91.2316877014928
 30
0.0
 11
336.5497156977192
 21
91.21831642483812
 31
0.0
  0
LINE
  5
8CFC
330
1E
100
AcDbEntity
  8
10
100
AcDbLine
 10
335.8314455974225
 20
89.61126822357073
 30
0.0
 11
335.8314455974225
 21
89.71695460046246
 31
0.0
  0
LINE
  5
8CFD
330
1E
100
AcDbEntity
  8
10
100
AcDbLine
 10
336.5497156977192
 20
90.00768297439206
 30
0.0
 11
336.4160271544998
 21
90.00792520766481
 31
0.0
  0
LINE
  5
8CFE
330
1E
100
AcDbEntity
  8
10
100
AcDbLine
 10
335.8828959445501
 20
93.07392018725288
 30
0.0
 11
335.8722861272046
 21
93.3952668468555
 31
0.0
  0
LINE
  5
8CFF
330
1E
100
AcDbEntity
  8
10
100
AcDbLine
 10
345.8314406788661
 20
99.14232391233781
 30
0.0
 11
345.8314406788661
 21
99.00001186460936
 31
0.0
  0
LINE
  5
8D00
330
1E
100
AcDbEntity
  8
10
100
AcDbLine
 10
336.8314572172303
 20
99.99999926109007
 30
0.0
 11
345.8314406788661
 21
99.99999926109007
 31
0.0
  0
LINE
  5
8D01
330
1E
100
AcDbEntity
  8
10
100
AcDbLine
 10
335.8416193948771
 20
90.0117282700466
 30
0.0
 11
335.8314455974225
 21
90.01245496986484
 31
0.0
  0
LINE
  5
8D02
330
1E
100
AcDbEntity
  8
10
100
AcDbLine
 10
335.8722861272046
 20
93.3952668468555
 30
0.0
 11
335.8561049445863
 21
93.7275140037309
 31
0.0
  0
LINE
  5
8D03
330
1E
100
AcDbEntity
  8
10
100
AcDbLine
 10
335.8767916660774
 20
92.48953241679371
 30
0.0
 11
335.8842524508775
 21
92.77444719217784
 31
0.0
  0
LINE
  5
8D04
330
1E
100
AcDbEntity
  8
10
100
AcDbLine
 10
335.9218228314778
 20
90.01037176371935
 30
0.0
 11
335.8719470006231
 21
90.01105001688307
 31
0.0
  0
LINE
  5
8D05
330
1E
100
AcDbEntity
  8
10
100
AcDbLine
 10
335.8719470006231
 20
90.01105001688307
 30
0.0
 11
335.8416193948771
 21
90.0117282700466
 31
0.0
  0
LINE
  5
8D06
330
1E
100
AcDbEntity
  8
10
100
AcDbLine
 10
335.8314455974225
 20
89.89092653693658
 30
0.0
 11
335.8314455974225
 21
89.95049169870069
 31
0.0
  0
LINE
  5
8D07
330
1E
100
AcDbEntity
  8
10
100
AcDbLine
 10
335.849419306259
 20
92.02536501959
 30
0.0
 11
335.8641955358955
 21
92.25037550662813
 31
0.0
  0
LINE
  5
8D08
330
1E
100
AcDbEntity
  8
10
100
AcDbLine
 10
335.8314455974225
 20
89.50001048140615
 30
0.0
 11
335.8314455974225
 21
89.61126822357073
 31
0.0
  0
LINE
  5
8D09
330
1E
100
AcDbEntity
  8
10
100
AcDbLine
 10
345.8314406788661
 20
99.84126379747074
 30
0.0
 11
345.8314406788661
 21
99.75575545219726
 31
0.0
  0
LINE
  5
8D0A
330
1E
100
AcDbEntity
  8
10
100
AcDbLine
 10
345.8314406788661
 20
99.54065230601379
 30
0.0
 11
345.8314406788661
 21
99.41541770401279
 31
0.0
  0
LINE
  5
8D0B
330
1E
100
AcDbEntity
  8
10
100
AcDbLine
 10
336.1754168446978
 20
93.87125522776839
 30
0.0
 11
336.2897751727533
 21
93.84826729018639
 31
0.0
  0
LINE
  5
8D0C
330
1E
100
AcDbEntity
  8
10
100
AcDbLine
 10
335.8320027339498
 20
96.34048431666087
 30
0.0
 11
335.8314455974225
 21
96.43614223606165
 31
0.0
  0
LINE
  5
8D0D
330
1E
100
AcDbEntity
  8
10
100
AcDbLine
 10
335.8711718541501
 20
93.99871837587848
 30
0.0
 11
335.9208054517323
 21
93.96279518153283
 31
0.0
  0
LINE
  5
8D0E
330
1E
100
AcDbEntity
  8
10
100
AcDbLine
 10
335.8719470006231
 20
91.3999187094032
 30
0.0
 11
335.9218228314778
 21
91.36411663169385
 31
0.0
  0
LINE
  5
8D0F
330
1E
100
AcDbEntity
  8
10
100
AcDbLine
 10
335.8314455974225
 20
89.95049169870069
 30
0.0
 11
335.8314455974225
 21
89.98748071944643
 31
0.0
  0
LINE
  5
8D10
330
1E
100
AcDbEntity
  8
10
100
AcDbLine
 10
336.2897751727533
 20
93.84826729018639
 30
0.0
 11
336.4152035613726
 21
93.82985756145901
 31
0.0
  0
LINE
  5
8D11
330
1E
100
AcDbEntity
  8
10
100
AcDbLine
 10
345.8314406788661
 20
90.00746496444662
 30
0.0
 11
345.8314406788661
 21
91.20746437421983
 31
0.0
  0
LINE
  5
8D12
330
1E
100
AcDbEntity
  8
10
100
AcDbLine
 10
335.8314455974225
 20
94.07349578717004
 30
0.0
 11
335.8314455974225
 21
95.89269188869371
 31
0.0
  0
LINE
  5
8D13
330
1E
100
AcDbEntity
  8
10
100
AcDbLine
 10
345.8314406788661
 20
99.00001186460936
 30
0.0
 11
345.8314406788661
 21
93.80553734087698
 31
0.0
  0
LINE
  5
8D14
330
1E
100
AcDbEntity
  8
10
100
AcDbLine
 10
335.9902052843692
 20
90.00976618053755
 30
0.0
 11
335.9218228314778
 21
90.01037176371935
 31
0.0
  0
LINE
  5
8D15
330
1E
100
AcDbEntity
  8
10
100
AcDbLine
 10
335.8607073767681
 20
94.71178046081147
 30
0.0
 11
335.8631054861682
 21
94.94136915670424
 31
0.0
  0
LINE
  5
8D16
330
1E
100
AcDbEntity
  8
10
100
AcDbLine
 10
345.8314406788661
 20
99.41541770401279
 30
0.0
 11
345.8314406788661
 21
99.28172916079347
 31
0.0
  0
LINE
  5
8D17
330
1E
100
AcDbEntity
  8
10
100
AcDbLine
 10
335.9208054517323
 20
93.96279518153283
 30
0.0
 11
335.9890425646601
 21
93.92912475662342
 31
0.0
  0
LINE
  5
8D18
330
1E
100
AcDbEntity
  8
10
100
AcDbLine
 10
335.8641955358955
 20
92.25037550662813
 30
0.0
 11
335.8767916660774
 21
92.48953241679371
 31
0.0
  0
LINE
  5
8D19
330
1E
100
AcDbEntity
  8
10
100
AcDbLine
 10
336.6891451695023
 20
91.21020161020167
 30
0.0
 11
336.8314572172303
 21
91.20746437421983
 31
0.0
  0
LINE
  5
8D1A
330
1E
100
AcDbEntity
  8
10
100
AcDbLine
 10
336.0745024632787
 20
93.89840957764135
 30
0.0
 11
336.1754168446978
 21
93.87125522776839
 31
0.0
  0
LINE
  5
8D1B
330
1E
100
AcDbEntity
  8
10
100
AcDbLine
 10
335.8412075983133
 20
94.03619186316973
 30
0.0
 11
335.8486683831135
 21
94.25856200753512
 31
0.0
  0
LINE
  5
8D1C
330
1E
100
AcDbEntity
  8
10
100
AcDbLine
 10
335.8555962547136
 20
94.4830638047005
 30
0.0
 11
335.8607073767681
 21
94.71178046081147
 31
0.0
  0
LINE
  5
8D1D
330
1E
100
AcDbEntity
  8
10
100
AcDbLine
 10
345.8314406788661
 20
91.20746437421983
 30
0.0
 11
345.8314406788661
 21
93.80553734087698
 31
0.0
  0
LINE
  5
8D1E
330
1E
100
AcDbEntity
  8
10
100
AcDbLine
 10
336.0756894063154
 20
90.009184820683
 30
0.0
 11
335.9902052843692
 21
90.00976618053755
 31
0.0
  0
LINE
  5
8D1F
330
1E
100
AcDbEntity
  8
10
100
AcDbLine
 10
335.8416193948771
 20
91.4372953033853
 30
0.0
 11
335.8719470006231
 21
91.3999187094032
 31
0.0
  0
LINE
  5
8D20
330
1E
100
AcDbEntity
  8
10
100
AcDbLine
 10
345.8314406788661
 20
90.00000417964656
 30
0.0
 11
345.8314406788661
 21
90.00746496444662
 31
0.0
  0
LINE
  5
8D21
330
1E
100
AcDbEntity
  8
10
100
AcDbLine
 10
335.8314455974225
 20
89.71695460046246
 30
0.0
 11
335.8314455974225
 21
89.81174048008142
 31
0.0
  0
LINE
  5
8D22
330
1E
100
AcDbEntity
  8
10
100
AcDbLine
 10
345.8314406788661
 20
99.75575545219726
 30
0.0
 11
345.8314406788661
 21
99.65486529410554
 31
0.0
  0
LINE
  5
8D23
330
1E
100
AcDbEntity
  8
10
100
AcDbLine
 10
336.1765795644071
 20
91.27291580451128
 30
0.0
 11
336.2908167758262
 21
91.25000053691108
 31
0.0
  0
LINE
  5
8D24
330
1E
100
AcDbEntity
  8
10
100
AcDbLine
 10
335.8314455974225
 20
89.81174048008142
 30
0.0
 11
335.8314455974225
 21
89.89092653693658
 31
0.0
  0
LINE
  5
8D25
330
1E
100
AcDbEntity
  8
10
100
AcDbLine
 10
335.8401417719132
 20
95.99382428005808
 30
0.0
 11
335.8320027339498
 21
96.34048431666087
 31
0.0
  0
LINE
  5
8D26
330
1E
100
AcDbEntity
  8
10
100
AcDbLine
 10
336.6891451695023
 20
90.00751341110117
 30
0.0
 11
336.5497156977192
 21
90.00768297439206
 31
0.0
  0
LINE
  5
8D27
330
1E
100
AcDbEntity
  8
10
100
AcDbLine
 10
335.8314455974225
 20
90.00000417964656
 30
0.0
 11
335.8314455974225
 21
90.01245496986484
 31
0.0
  0
LINE
  5
8D28
330
1E
100
AcDbEntity
  8
10
100
AcDbLine
 10
335.8519627556226
 20
95.64006680856442
 30
0.0
 11
335.8401417719132
 21
95.99382428005808
 31
0.0
  0
LINE
  5
8D29
330
1E
100
AcDbEntity
  8
10
100
AcDbLine
 10
335.8412075983133
 20
94.03619186316973
 30
0.0
 11
335.8711718541501
 21
93.99871837587848
 31
0.0
  0
LINE
  5
8D2A
330
1E
100
AcDbEntity
  8
10
100
AcDbLine
 10
336.4160271544998
 20
90.00792520766481
 30
0.0
 11
336.2908167758262
 21
90.00826433424661
 31
0.0
  0
LINE
  5
8D2B
330
1E
100
AcDbEntity
  8
10
100
AcDbLine
 10
345.8314406788661
 20
91.20746437421983
 30
0.0
 11
336.8314572172303
 21
91.20746437421983
 31
0.0
  0
LINE
  5
8D2C
330
1E
100
AcDbEntity
  8
10
100
AcDbLine
 10
335.8631054861682
 20
94.94136915670424
 30
0.0
 11
335.8605620368046
 21
95.29175958570705
 31
0.0
  0
LINE
  5
8D2D
330
1E
100
AcDbEntity
  8
10
100
AcDbLine
 10
345.8314406788661
 20
99.98982546363549
 30
0.0
 11
345.8314406788661
 21
99.9594978578898
 31
0.0
  0
LINE
  5
8D2E
330
1E
100
AcDbEntity
  8
10
100
AcDbLine
 10
335.8314455974225
 20
90.01245496986484
 30
0.0
 11
335.8314455974225
 21
91.4754228205129
 31
0.0
  0
LINE
  5
8D2F
330
1E
100
AcDbEntity
  8
10
100
AcDbLine
 10
335.8561049445863
 20
93.7275140037309
 30
0.0
 11
335.8412075983133
 21
94.03619186316973
 31
0.0
  0
LINE
  5
8D30
330
1E
100
AcDbEntity
  8
10
100
AcDbLine
 10
335.8314455974225
 20
96.43614223606165
 30
0.0
 11
335.8314455974225
 21
99.00001186460936
 31
0.0
  0
LINE
  5
8D31
330
1E
100
AcDbEntity
  8
10
100
AcDbLine
 10
335.8314455974225
 20
91.4754228205129
 30
0.0
 11
335.8314455974225
 21
91.62962852193231
 31
0.0
  0
LINE
  5
8D32
330
1E
100
AcDbEntity
  8
10
100
AcDbLine
 10
336.5491343378648
 20
93.81643783814979
 30
0.0
 11
336.6888302662473
 21
93.8082745768588
 31
0.0
  0
LINE
  5
8D33
330
1E
100
AcDbEntity
  8
10
100
AcDbLine
 10
345.8314406788661
 20
99.28172916079347
 30
0.0
 11
345.8314406788661
 21
99.14232391233781
 31
0.0
  0
LINE
  5
8D34
330
1E
100
AcDbEntity
  8
10
100
AcDbLine
 10
345.8314406788661
 20
93.80553734087698
 30
0.0
 11
336.8314572172303
 21
93.80553734087698
 31
0.0
  0
LINE
  5
8D35
330
1E
100
AcDbEntity
  8
10
100
AcDbLine
 10
335.8368716227317
 20
91.81973319437021
 30
0.0
 11
335.849419306259
 21
92.02536501959
 31
0.0
  0
LINE
  5
8D36
330
1E
100
AcDbEntity
  8
10
100
AcDbLine
 10
335.8314455974225
 20
89.98748071944643
 30
0.0
 11
335.8314455974225
 21
90.00000417964656
 31
0.0
  0
LINE
  5
8D37
330
1E
100
AcDbEntity
  8
10
100
AcDbLine
 10
345.8314406788661
 20
99.90964625036212
 30
0.0
 11
345.8314406788661
 21
99.84126379747074
 31
0.0
  0
LINE
  5
8D38
330
1E
100
AcDbEntity
  8
10
100
AcDbLine
 10
335.9902052843692
 20
91.33056732342085
 30
0.0
 11
336.0756894063154
 21
91.29994903774786
 31
0.0
  0
LINE
  5
8D39
330
1E
100
AcDbEntity
  8
10
100
AcDbLine
 10
335.8314455974225
 20
91.4754228205129
 30
0.0
 11
335.8416193948771
 21
91.4372953033853
 31
0.0
  0
LINE
  5
8D3A
330
1E
100
AcDbEntity
  8
10
100
AcDbLine
 10
336.0756894063154
 20
91.29994903774786
 30
0.0
 11
336.1765795644071
 21
91.27291580451128
 31
0.0
  0
LINE
  5
8D3B
330
1E
100
AcDbEntity
  8
10
100
AcDbLine
 10
336.2908167758262
 20
91.25000053691108
 30
0.0
 11
336.4160271544998
 21
91.2316877014928
 31
0.0
  0
LINE
  5
8D3C
330
1E
100
AcDbEntity
  8
10
100
AcDbLine
 10
335.9218228314778
 20
91.36411663169385
 30
0.0
 11
335.9902052843692
 21
91.33056732342085
 31
0.0
  0
ARC
  5
8D3D
330
1E
100
AcDbEntity
  8
10
100
AcDbCircle
 10
349.3314450132031
 20
89.50001048140615
 30
0.0
 40
0.4999999906281083
100
AcDbArc
 50
90.0
 51
180.0
  0
ARC
  5
8D3E
330
1E
100
AcDbEntity
  8
10
100
AcDbCircle
 10
381.3314534971498
 20
89.50001048140615
 30
0.0
 40
0.4999999906281083
100
AcDbArc
 50
0.0
 51
90.0
  0
LINE
  5
8D3F
330
1E
100
AcDbEntity
  8
10
100
AcDbLine
 10
381.83144719539
 20
89.50001048140615
 30
0.0
 11
381.83144719539
 21
88.00000516335785
 31
0.0
  0
DIMENSION
  5
909C
330
1E
100
AcDbEntity
  8
30
  6
CONTINUOUS
100
AcDbDimension
  2
*D28
 10
390.0
 20
-53.99999137073473
 30
0.0
 11
387.0
 21
0.0000031461939378
 31
0.0
 70
    32
  3
STANDARD
100
AcDbAlignedDimension
 13
381.3314534971498
 23
53.99999766312247
 33
0.0
 14
381.3314534971498
 24
-53.99999137073473
 34
0.0
 50
90.0
100
AcDbRotatedDimension
  0
DIMENSION
  5
90A9
330
1E
100
AcDbEntity
  8
30
  6
CONTINUOUS
100
AcDbDimension
  2
*D29
 10
407.0
 20
-89.99999206798291
 30
0.0
 11
404.0
 21
0.0000092020257337
 31
0.0
 70
    32
  3
STANDARD
100
AcDbAlignedDimension
 13
381.3314534971498
 23
90.00001047203426
 33
0.0
 14
381.3314534971498
 24
-89.99999206798291
 34
0.0
 50
90.0
100
AcDbRotatedDimension
  0
DIMENSION
  5
927C
330
1E
100
AcDbEntity
  8
30
  6
CONTINUOUS
100
AcDbDimension
  2
*D30
 10
142.0
 20
-99.99999157183884
 30
0.0
 11
139.0
 21
0.0000079258072875
 31
0.0
 70
    32
  3
STANDARD
100
AcDbAlignedDimension
 13
56.50000599350505
 23
100.0000074234532
 33
0.0
 14
56.50000599350505
 24
-99.99999157183882
 34
0.0
 50
90.0
100
AcDbRotatedDimension
  0
MTEXT
  5
930F
330
1E
100
AcDbEntity
  8
19
100
AcDbMText
 10
243.0991208307973
 20
181.626102819099
 30
0.0
 40
5.0
 41
70.0
 71
     1
 72
     5
  1
H125-NJ 4P PM\PL125-NJ 4P PM\PH160-NJ 4P PM\PL160-NJ 4P PM\PH250-NJ 4P PM\PL250-NJ 4P PM\PS250-PE 4P PM\PH250-NE 4P PM
  7
STANDARD1
1001
ACAD
1000
MTEXTBEGIN
1070
    73
1070
     1
1070
    44
1040
1.0
1070
    74
1070
     0
1000
MTEXTEND
1000
MTEXTBEGIN
1070
    73
1070
     1
1070
    44
1040
1.0
1070
    74
1070
     0
1000
MTEXTEND
  0
VIEWPORT
  5
9AC
330
1A
100
AcDbEntity
 67
     1
  8
0
  6
CONTINUOUS
100
AcDbViewport
 10
171.9995348790992
 20
144.1384735538403
 30
0.0
 40
488.8676857773511
 41
292.3514905034161
 68
     1
 69
     1
1001
ACAD
1000
MVIEW
1002
{
1070
    16
1010
0.0
1020
0.0
1030
0.0
1010
0.0
1020
0.0
1030
1.0
1040
0.0
1040
292.3514905034161
1040
171.9995348790992
1040
144.1384735538403
1040
50.0
1040
0.0
1040
0.0
1070
     0
1070
   100
1070
     1
1070
     1
1070
     0
1070
     0
1070
     0
1070
     0
1040
0.0
1040
0.0
1040
0.0
1040
10.0
1040
10.0
1040
10.0
1040
10.0
1070
     0
1002
{
1002
}
1002
}
  0
ENDSEC
  0
SECTION
  2
OBJECTS
  0
DICTIONARY
  5
C
330
0
100
AcDbDictionary
  3
ACAD_GROUP
350
D
  3
ACAD_LAYOUT
350
19
  3
ACAD_MLINESTYLE
350
16
  3
ACAD_PLOTSETTINGS
350
18
  3
ACAD_PLOTSTYLENAME
350
E
  3
ACDBHEADERROUNDTRIPXREC
350
93A5
  3
ACDBVARIABLEDICTIONARY
350
5E0C
  0
DICTIONARY
  5
178
330
1E
100
AcDbDictionary
280
     1
  3
ACAD_LAYOUTSELFREF
360
93C7
  0
DICTIONARY
  5
17A
330
1A
100
AcDbDictionary
280
     1
  3
ACAD_LAYOUTSELFREF
360
93C6
  0
DICTIONARY
  5
D
102
{ACAD_REACTORS
330
C
102
}
330
C
100
AcDbDictionary
  0
DICTIONARY
  5
19
102
{ACAD_REACTORS
330
C
102
}
330
C
100
AcDbDictionary
  0
DICTIONARY
  5
16
102
{ACAD_REACTORS
330
C
102
}
330
C
100
AcDbDictionary
  3
STANDARD
350
17
  0
DICTIONARY
  5
18
102
{ACAD_REACTORS
330
C
102
}
330
C
100
AcDbDictionary
  0
ACDBDICTIONARYWDFLT
  5
E
102
{ACAD_REACTORS
330
C
102
}
330
C
100
AcDbDictionary
281
     1
  3
Normal
350
F
100
AcDbDictionaryWithDefault
340
F
  0
DICTIONARY
  5
93A5
102
{ACAD_REACTORS
330
C
102
}
330
C
100
AcDbDictionary
  3
CEPSNTYPE
350
93AF
  3
DIMSTYLEDATA
350
93B3
  3
FINGERPRINTGUID
350
93B0
  3
HYPERLINKBASE
350
93A8
  3
INSUNITS
350
93AE
  3
LAYOUTDICT
350
93AA
  3
LWETCUNION
350
93AD
  3
PLOTSETDICT
350
93AB
  3
PLOTSTYLNAMDICT
350
93AC
  3
PSVPSCALE
350
93B2
  3
PUCSBASE
350
93B6
  3
PUCSORGBACK
350
93BC
  3
PUCSORGBOTTOM
350
93B8
  3
PUCSORGFRONT
350
93BB
  3
PUCSORGLEFT
350
93B9
  3
PUCSORGRIGHT
350
93BA
  3
PUCSORGTOP
350
93B7
  3
PUCSORTHOREF
350
93B4
  3
PUCSORTHOVIEW
350
93B5
  3
STYLESHEET
350
93A9
  3
TSTACKALIGN
350
93A6
  3
TSTACKSIZE
350
93A7
  3
UCSBASE
350
93BF
  3
UCSORGBACK
350
93C5
  3
UCSORGBOTTOM
350
93C1
  3
UCSORGFRONT
350
93C4
  3
UCSORGLEFT
350
93C2
  3
UCSORGRIGHT
350
93C3
  3
UCSORGTOP
350
93C0
  3
UCSORTHOREF
350
93BD
  3
UCSORTHOVIEW
350
93BE
  3
VERSIONGUID
350
93B1
  0
DICTIONARY
  5
5E0C
102
{ACAD_REACTORS
330
C
102
}
330
C
100
AcDbDictionary
  3
DIMASSOC
350
5E0D
  0
XRECORD
  5
93C7
102
{ACAD_REACTORS
330
178
102
}
330
178
100
AcDbXrecord
340
1E
  0
XRECORD
  5
93C6
102
{ACAD_REACTORS
330
17A
102
}
330
17A
100
AcDbXrecord
340
1A
  0
MLINESTYLE
  5
17
102
{ACAD_REACTORS
330
16
102
}
330
16
100
AcDbMlineStyle
  2
STANDARD
 70
     0
  3

 62
   256
 51
90.0
 52
90.0
 71
     2
 49
0.5
 62
   256
  6
BYLAYER
 49
-0.5
 62
   256
  6
BYLAYER
  0
ACDBPLACEHOLDER
  5
F
102
{ACAD_REACTORS
330
E
102
}
330
E
100
AcDbPlaceHolder
280
     0
  0
XRECORD
  5
93AF
102
{ACAD_REACTORS
330
93A5
102
}
330
93A5
100
AcDbXrecord
 90
        0
  0
XRECORD
  5
93B3
102
{ACAD_REACTORS
330
93A5
102
}
330
93A5
100
AcDbXrecord
1000
DSTYLE
1002
{
1070
    79
 70
     3
1070
   341
340
3B2
1070
   342
340
3B2
1002
}
  0
XRECORD
  5
93B0
102
{ACAD_REACTORS
330
93A5
102
}
330
93A5
100
AcDbXrecord
  1

  0
XRECORD
  5
93A8
102
{ACAD_REACTORS
330
93A5
102
}
330
93A5
100
AcDbXrecord
  1

  0
XRECORD
  5
93AE
102
{ACAD_REACTORS
330
93A5
102
}
330
93A5
100
AcDbXrecord
 90
        0
  0
XRECORD
  5
93AA
102
{ACAD_REACTORS
330
93A5
102
}
330
93A5
100
AcDbXrecord
340
19
  0
XRECORD
  5
93AD
102
{ACAD_REACTORS
330
93A5
102
}
330
93A5
100
AcDbXrecord
 90
    10781
  0
XRECORD
  5
93AB
102
{ACAD_REACTORS
330
93A5
102
}
330
93A5
100
AcDbXrecord
340
18
  0
XRECORD
  5
93AC
102
{ACAD_REACTORS
330
93A5
102
}
330
93A5
100
AcDbXrecord
340
E
  0
XRECORD
  5
93B2
102
{ACAD_REACTORS
330
93A5
102
}
330
93A5
100
AcDbXrecord
 40
0.0
  0
XRECORD
  5
93B6
102
{ACAD_REACTORS
330
93A5
102
}
330
93A5
100
AcDbXrecord
340
0
  0
XRECORD
  5
93BC
102
{ACAD_REACTORS
330
93A5
102
}
330
93A5
100
AcDbXrecord
 10
0.0
 20
0.0
 30
0.0
  0
XRECORD
  5
93B8
102
{ACAD_REACTORS
330
93A5
102
}
330
93A5
100
AcDbXrecord
 10
0.0
 20
0.0
 30
0.0
  0
XRECORD
  5
93BB
102
{ACAD_REACTORS
330
93A5
102
}
330
93A5
100
AcDbXrecord
 10
0.0
 20
0.0
 30
0.0
  0
XRECORD
  5
93B9
102
{ACAD_REACTORS
330
93A5
102
}
330
93A5
100
AcDbXrecord
 10
0.0
 20
0.0
 30
0.0
  0
XRECORD
  5
93BA
102
{ACAD_REACTORS
330
93A5
102
}
330
93A5
100
AcDbXrecord
 10
0.0
 20
0.0
 30
0.0
  0
XRECORD
  5
93B7
102
{ACAD_REACTORS
330
93A5
102
}
330
93A5
100
AcDbXrecord
 10
0.0
 20
0.0
 30
0.0
  0
XRECORD
  5
93B4
102
{ACAD_REACTORS
330
93A5
102
}
330
93A5
100
AcDbXrecord
340
0
  0
XRECORD
  5
93B5
102
{ACAD_REACTORS
330
93A5
102
}
330
93A5
100
AcDbXrecord
 70
     0
  0
XRECORD
  5
93A9
102
{ACAD_REACTORS
330
93A5
102
}
330
93A5
100
AcDbXrecord
  1
KIKI.ctb
  0
XRECORD
  5
93A6
102
{ACAD_REACTORS
330
93A5
102
}
330
93A5
100
AcDbXrecord
 90
        1
  0
XRECORD
  5
93A7
102
{ACAD_REACTORS
330
93A5
102
}
330
93A5
100
AcDbXrecord
 90
       70
  0
XRECORD
  5
93BF
102
{ACAD_REACTORS
330
93A5
102
}
330
93A5
100
AcDbXrecord
340
0
  0
XRECORD
  5
93C5
102
{ACAD_REACTORS
330
93A5
102
}
330
93A5
100
AcDbXrecord
 10
0.0
 20
0.0
 30
0.0
  0
XRECORD
  5
93C1
102
{ACAD_REACTORS
330
93A5
102
}
330
93A5
100
AcDbXrecord
 10
0.0
 20
0.0
 30
0.0
  0
XRECORD
  5
93C4
102
{ACAD_REACTORS
330
93A5
102
}
330
93A5
100
AcDbXrecord
 10
0.0
 20
0.0
 30
0.0
  0
XRECORD
  5
93C2
102
{ACAD_REACTORS
330
93A5
102
}
330
93A5
100
AcDbXrecord
 10
0.0
 20
0.0
 30
0.0
  0
XRECORD
  5
93C3
102
{ACAD_REACTORS
330
93A5
102
}
330
93A5
100
AcDbXrecord
 10
0.0
 20
0.0
 30
0.0
  0
XRECORD
  5
93C0
102
{ACAD_REACTORS
330
93A5
102
}
330
93A5
100
AcDbXrecord
 10
0.0
 20
0.0
 30
0.0
  0
XRECORD
  5
93BD
102
{ACAD_REACTORS
330
93A5
102
}
330
93A5
100
AcDbXrecord
340
0
  0
XRECORD
  5
93BE
102
{ACAD_REACTORS
330
93A5
102
}
330
93A5
100
AcDbXrecord
 70
     0
  0
XRECORD
  5
93B1
102
{ACAD_REACTORS
330
93A5
102
}
330
93A5
100
AcDbXrecord
  1
{C56C2EA6-9A0C-48B5-99E9-5FB6D6285DDB}
  0
DICTIONARYVAR
  5
5E0D
102
{ACAD_REACTORS
330
5E0C
102
}
330
5E0C
100
DictionaryVariables
280
     0
  1
1
  0
ENDSEC
  0
EOF
