  0
SECTION
  2
HEADER
  9
$ACADVER
  1
AC1014
  9
$ACADMAINTVER
 70
     9
  9
$DWGCODEPAGE
  3
ANSI_932
  9
$INSBASE
 10
0.0
 20
0.0
 30
0.0
  9
$EXTMIN
 10
-72.54513687319286
 20
-351.283843225083
 30
-0.0015258207003583
  9
$EXTMAX
 10
423.1076403743704
 20
392.455851503332
 30
0.0000000349246037
  9
$LIMMIN
 10
-125.1996450171336
 20
-378.8528732976748
  9
$LIMMAX
 10
496.7840872822361
 20
423.084024335782
  9
$ORTHOMODE
 70
     1
  9
$REGENMODE
 70
     1
  9
$FILLMODE
 70
     1
  9
$QTEXTMODE
 70
     0
  9
$MIRRTEXT
 70
     1
  9
$DRAGMODE
 70
     2
  9
$LTSCALE
 40
8.0
  9
$OSMODE
 70
   175
  9
$ATTMODE
 70
     1
  9
$TEXTSIZE
 40
5.0
  9
$TRACEWID
 40
0.05
  9
$TEXTSTYLE
  7
STANDARD1
  9
$CLAYER
  8
30
  9
$CELTYPE
  6
BYLAYER
  9
$CECOLOR
 62
   256
  9
$CELTSCALE
 40
1.0
  9
$DELOBJ
 70
     1
  9
$DISPSILH
 70
     0
  9
$DIMSCALE
 40
1.0
  9
$DIMASZ
 40
2.0
  9
$DIMEXO
 40
1.0
  9
$DIMDLI
 40
0.5
  9
$DIMRND
 40
0.0
  9
$DIMDLE
 40
0.0
  9
$DIMEXE
 40
0.5
  9
$DIMTP
 40
0.0
  9
$DIMTM
 40
0.0
  9
$DIMTXT
 40
4.0
  9
$DIMCEN
 40
0.09
  9
$DIMTSZ
 40
0.0
  9
$DIMTOL
 70
     0
  9
$DIMLIM
 70
     0
  9
$DIMTIH
 70
     0
  9
$DIMTOH
 70
     0
  9
$DIMSE1
 70
     0
  9
$DIMSE2
 70
     0
  9
$DIMTAD
 70
     3
  9
$DIMZIN
 70
    12
  9
$DIMBLK
  1
OPEN
  9
$DIMASO
 70
     1
  9
$DIMSHO
 70
     1
  9
$DIMPOST
  1

  9
$DIMAPOST
  1

  9
$DIMALT
 70
     0
  9
$DIMALTD
 70
     2
  9
$DIMALTF
 40
25.4
  9
$DIMLFAC
 40
1.0
  9
$DIMTOFL
 70
     0
  9
$DIMTVP
 40
0.0
  9
$DIMTIX
 70
     0
  9
$DIMSOXD
 70
     0
  9
$DIMSAH
 70
     0
  9
$DIMBLK1
  1

  9
$DIMBLK2
  1

  9
$DIMSTYLE
  2
STANDARD
  9
$DIMCLRD
 70
     0
  9
$DIMCLRE
 70
     0
  9
$DIMCLRT
 70
     0
  9
$DIMTFAC
 40
1.0
  9
$DIMGAP
 40
1.0
  9
$DIMJUST
 70
     0
  9
$DIMSD1
 70
     0
  9
$DIMSD2
 70
     0
  9
$DIMTOLJ
 70
     1
  9
$DIMTZIN
 70
     0
  9
$DIMALTZ
 70
     0
  9
$DIMALTTZ
 70
     0
  9
$DIMFIT
 70
     3
  9
$DIMUPT
 70
     0
  9
$DIMUNIT
 70
     2
  9
$DIMDEC
 70
     1
  9
$DIMTDEC
 70
     1
  9
$DIMALTU
 70
     2
  9
$DIMALTTD
 70
     2
  9
$DIMTXSTY
  7
STANDARD
  9
$DIMAUNIT
 70
     0
  9
$LUNITS
 70
     2
  9
$LUPREC
 70
     4
  9
$SKETCHINC
 40
0.1
  9
$FILLETRAD
 40
0.0
  9
$AUNITS
 70
     0
  9
$AUPREC
 70
     0
  9
$MENU
  1
.
  9
$ELEVATION
 40
0.0
  9
$PELEVATION
 40
0.0
  9
$THICKNESS
 40
0.0
  9
$LIMCHECK
 70
     0
  9
$BLIPMODE
 70
     0
  9
$CHAMFERA
 40
0.0
  9
$CHAMFERB
 40
0.0
  9
$CHAMFERC
 40
0.0
  9
$CHAMFERD
 40
0.0
  9
$SKPOLY
 70
     0
  9
$TDCREATE
 40
2452286.555658657
  9
$TDUPDATE
 40
2453618.996326134
  9
$TDINDWG
 40
1.3762646065
  9
$TDUSRTIMER
 40
1.3762638889
  9
$USRTIMER
 70
     1
  9
$ANGBASE
 50
0.0
  9
$ANGDIR
 70
     0
  9
$PDMODE
 70
     0
  9
$PDSIZE
 40
0.0
  9
$PLINEWID
 40
0.0
  9
$COORDS
 70
     1
  9
$SPLFRAME
 70
     0
  9
$SPLINETYPE
 70
     6
  9
$SPLINESEGS
 70
     8
  9
$ATTDIA
 70
     0
  9
$ATTREQ
 70
     1
  9
$HANDLING
 70
-16383
  9
$HANDSEED
  5
A82D
  9
$SURFTAB1
 70
     6
  9
$SURFTAB2
 70
     6
  9
$SURFTYPE
 70
     6
  9
$SURFU
 70
     6
  9
$SURFV
 70
     6
  9
$UCSNAME
  2

  9
$UCSORG
 10
0.0
 20
0.0
 30
0.0
  9
$UCSXDIR
 10
1.0
 20
0.0
 30
0.0
  9
$UCSYDIR
 10
0.0
 20
1.0
 30
0.0
  9
$PUCSNAME
  2

  9
$PUCSORG
 10
0.0
 20
0.0
 30
0.0
  9
$PUCSXDIR
 10
1.0
 20
0.0
 30
0.0
  9
$PUCSYDIR
 10
0.0
 20
1.0
 30
0.0
  9
$USERI1
 70
     0
  9
$USERI2
 70
     0
  9
$USERI3
 70
     0
  9
$USERI4
 70
     0
  9
$USERI5
 70
     0
  9
$USERR1
 40
0.0
  9
$USERR2
 40
0.0
  9
$USERR3
 40
0.0
  9
$USERR4
 40
0.0
  9
$USERR5
 40
0.0
  9
$WORLDVIEW
 70
     1
  9
$SHADEDGE
 70
     3
  9
$SHADEDIF
 70
    70
  9
$TILEMODE
 70
     1
  9
$MAXACTVP
 70
    48
  9
$PINSBASE
 10
0.0
 20
0.0
 30
0.0
  9
$PLIMCHECK
 70
     0
  9
$PEXTMIN
 10
4.273573370203961
 20
5.205246163471485
 30
0.0
  9
$PEXTMAX
 10
194.6100952986349
 20
283.0697008572913
 30
0.0
  9
$PLIMMIN
 10
-5.873748779296875
 20
-5.873749732971191
  9
$PLIMMAX
 10
204.0995788574218
 20
291.1369009017943
  9
$UNITMODE
 70
     0
  9
$VISRETAIN
 70
     1
  9
$PLINEGEN
 70
     0
  9
$PSLTSCALE
 70
     1
  9
$TREEDEPTH
 70
  3020
  9
$PICKSTYLE
 70
     1
  9
$CMLSTYLE
  2
STANDARD
  9
$CMLJUST
 70
     0
  9
$CMLSCALE
 40
1.0
  9
$PROXYGRAPHICS
 70
     1
  9
$MEASUREMENT
 70
     0
  0
ENDSEC
  0
SECTION
  2
CLASSES
  0
CLASS
  1
ACDBDICTIONARYWDFLT
  2
AcDbDictionaryWithDefault
  3
AutoCAD 2000
 90
        0
280
     0
281
     0
  0
CLASS
  1
ACDBPLACEHOLDER
  2
AcDbPlaceHolder
  3
AutoCAD 2000
 90
        0
280
     0
281
     0
  0
CLASS
  1
LAYOUT
  2
AcDbLayout
  3
AutoCAD 2000
 90
        0
280
     0
281
     0
  0
CLASS
  1
LONG_TRANSACTION
  2
AcDbLongTransaction
  3
AutoCAD 2000
 90
        0
280
     0
281
     0
  0
CLASS
  1
LWPOLYLINE
  2
AcDbPolyline
  3
AutoCAD 2000
 90
        0
280
     0
281
     1
  0
CLASS
  1
HATCH
  2
AcDbHatch
  3
AutoCAD 2000
 90
        0
280
     0
281
     1
  0
CLASS
  1
XRECORD
  2
AcDbXrecord
  3
AutoCAD 2000
 90
        0
280
     0
281
     0
  0
CLASS
  1
LONG_TRANSACTION
  2
AcDbLongTransaction
  3
AutoCAD 2000
 90
        0
280
     0
281
     0
  0
CLASS
  1
LWPOLYLINE
  2
AcDbPolyline
  3
AutoCAD 2000
 90
        0
280
     0
281
     1
  0
CLASS
  1
HATCH
  2
AcDbHatch
  3
AutoCAD 2000
 90
        0
280
     0
281
     1
  0
CLASS
  1
XRECORD
  2
AcDbXrecord
  3
AutoCAD 2000
 90
        0
280
     0
281
     0
  0
CLASS
  1
LONG_TRANSACTION
  2
AcDbLongTransaction
  3
AutoCAD 2000
 90
        0
280
     0
281
     0
  0
CLASS
  1
LWPOLYLINE
  2
AcDbPolyline
  3
AutoCAD 2000
 90
        0
280
     0
281
     1
  0
CLASS
  1
HATCH
  2
AcDbHatch
  3
AutoCAD 2000
 90
        0
280
     0
281
     1
  0
CLASS
  1
XRECORD
  2
AcDbXrecord
  3
AutoCAD 2000
 90
        0
280
     0
281
     0
  0
CLASS
  1
LONG_TRANSACTION
  2
AcDbLongTransaction
  3
AutoCAD 2000
 90
        0
280
     0
281
     0
  0
CLASS
  1
LWPOLYLINE
  2
AcDbPolyline
  3
AutoCAD 2000
 90
        0
280
     0
281
     1
  0
CLASS
  1
HATCH
  2
AcDbHatch
  3
AutoCAD 2000
 90
        0
280
     0
281
     1
  0
CLASS
  1
XRECORD
  2
AcDbXrecord
  3
AutoCAD 2000
 90
        0
280
     0
281
     0
  0
CLASS
  1
LONG_TRANSACTION
  2
AcDbLongTransaction
  3
AutoCAD 2000
 90
        0
280
     0
281
     0
  0
CLASS
  1
LWPOLYLINE
  2
AcDbPolyline
  3
AutoCAD 2000
 90
        0
280
     0
281
     1
  0
CLASS
  1
HATCH
  2
AcDbHatch
  3
AutoCAD 2000
 90
        0
280
     0
281
     1
  0
CLASS
  1
XRECORD
  2
AcDbXrecord
  3
AutoCAD 2000
 90
        0
280
     0
281
     0
  0
CLASS
  1
LONG_TRANSACTION
  2
AcDbLongTransaction
  3
AutoCAD 2000
 90
        0
280
     0
281
     0
  0
CLASS
  1
LWPOLYLINE
  2
AcDbPolyline
  3
AutoCAD 2000
 90
        0
280
     0
281
     1
  0
CLASS
  1
HATCH
  2
AcDbHatch
  3
AutoCAD 2000
 90
        0
280
     0
281
     1
  0
CLASS
  1
XRECORD
  2
AcDbXrecord
  3
AutoCAD 2000
 90
        0
280
     0
281
     0
  0
CLASS
  1
LONG_TRANSACTION
  2
AcDbLongTransaction
  3
AutoCAD 2000
 90
        0
280
     0
281
     0
  0
CLASS
  1
LWPOLYLINE
  2
AcDbPolyline
  3
AutoCAD 2000
 90
        0
280
     0
281
     1
  0
CLASS
  1
HATCH
  2
AcDbHatch
  3
AutoCAD 2000
 90
        0
280
     0
281
     1
  0
CLASS
  1
XRECORD
  2
AcDbXrecord
  3
AutoCAD 2000
 90
        0
280
     0
281
     0
  0
CLASS
  1
LONG_TRANSACTION
  2
AcDbLongTransaction
  3
AutoCAD 2000
 90
        0
280
     0
281
     0
  0
CLASS
  1
LWPOLYLINE
  2
AcDbPolyline
  3
AutoCAD 2000
 90
        0
280
     0
281
     1
  0
CLASS
  1
HATCH
  2
AcDbHatch
  3
AutoCAD 2000
 90
        0
280
     0
281
     1
  0
CLASS
  1
XRECORD
  2
AcDbXrecord
  3
AutoCAD 2000
 90
        0
280
     0
281
     0
  0
CLASS
  1
LONG_TRANSACTION
  2
AcDbLongTransaction
  3
AutoCAD 2000
 90
        0
280
     0
281
     0
  0
CLASS
  1
LWPOLYLINE
  2
AcDbPolyline
  3
AutoCAD 2000
 90
        0
280
     0
281
     1
  0
CLASS
  1
HATCH
  2
AcDbHatch
  3
AutoCAD 2000
 90
        0
280
     0
281
     1
  0
CLASS
  1
XRECORD
  2
AcDbXrecord
  3
AutoCAD 2000
 90
        0
280
     0
281
     0
  0
CLASS
  1
LONG_TRANSACTION
  2
AcDbLongTransaction
  3
AutoCAD 2000
 90
        0
280
     0
281
     0
  0
CLASS
  1
LWPOLYLINE
  2
AcDbPolyline
  3
AutoCAD 2000
 90
        0
280
     0
281
     1
  0
CLASS
  1
HATCH
  2
AcDbHatch
  3
AutoCAD 2000
 90
        0
280
     0
281
     1
  0
CLASS
  1
XRECORD
  2
AcDbXrecord
  3
AutoCAD 2000
 90
        0
280
     0
281
     0
  0
CLASS
  1
LONG_TRANSACTION
  2
AcDbLongTransaction
  3
AutoCAD 2000
 90
        0
280
     0
281
     0
  0
CLASS
  1
LWPOLYLINE
  2
AcDbPolyline
  3
AutoCAD 2000
 90
        0
280
     0
281
     1
  0
CLASS
  1
HATCH
  2
AcDbHatch
  3
AutoCAD 2000
 90
        0
280
     0
281
     1
  0
CLASS
  1
XRECORD
  2
AcDbXrecord
  3
AutoCAD 2000
 90
        0
280
     0
281
     0
  0
CLASS
  1
LONG_TRANSACTION
  2
AcDbLongTransaction
  3
AutoCAD 2000
 90
        0
280
     0
281
     0
  0
CLASS
  1
LWPOLYLINE
  2
AcDbPolyline
  3
AutoCAD 2000
 90
        0
280
     0
281
     1
  0
CLASS
  1
HATCH
  2
AcDbHatch
  3
AutoCAD 2000
 90
        0
280
     0
281
     1
  0
CLASS
  1
XRECORD
  2
AcDbXrecord
  3
AutoCAD 2000
 90
        0
280
     0
281
     0
  0
CLASS
  1
LONG_TRANSACTION
  2
AcDbLongTransaction
  3
AutoCAD 2000
 90
        0
280
     0
281
     0
  0
CLASS
  1
LWPOLYLINE
  2
AcDbPolyline
  3
AutoCAD 2000
 90
        0
280
     0
281
     1
  0
CLASS
  1
HATCH
  2
AcDbHatch
  3
AutoCAD 2000
 90
        0
280
     0
281
     1
  0
CLASS
  1
XRECORD
  2
AcDbXrecord
  3
AutoCAD 2000
 90
        0
280
     0
281
     0
  0
CLASS
  1
LONG_TRANSACTION
  2
AcDbLongTransaction
  3
AutoCAD 2000
 90
        0
280
     0
281
     0
  0
CLASS
  1
LWPOLYLINE
  2
AcDbPolyline
  3
AutoCAD 2000
 90
        0
280
     0
281
     1
  0
CLASS
  1
HATCH
  2
AcDbHatch
  3
AutoCAD 2000
 90
        0
280
     0
281
     1
  0
CLASS
  1
XRECORD
  2
AcDbXrecord
  3
AutoCAD 2000
 90
        0
280
     0
281
     0
  0
CLASS
  1
LONG_TRANSACTION
  2
AcDbLongTransaction
  3
AutoCAD 2000
 90
        0
280
     0
281
     0
  0
CLASS
  1
LWPOLYLINE
  2
AcDbPolyline
  3
AutoCAD 2000
 90
        0
280
     0
281
     1
  0
CLASS
  1
HATCH
  2
AcDbHatch
  3
AutoCAD 2000
 90
        0
280
     0
281
     1
  0
CLASS
  1
XRECORD
  2
AcDbXrecord
  3
AutoCAD 2000
 90
        0
280
     0
281
     0
  0
CLASS
  1
LONG_TRANSACTION
  2
AcDbLongTransaction
  3
AutoCAD 2000
 90
        0
280
     0
281
     0
  0
CLASS
  1
LWPOLYLINE
  2
AcDbPolyline
  3
AutoCAD 2000
 90
        0
280
     0
281
     1
  0
CLASS
  1
HATCH
  2
AcDbHatch
  3
AutoCAD 2000
 90
        0
280
     0
281
     1
  0
CLASS
  1
XRECORD
  2
AcDbXrecord
  3
AutoCAD 2000
 90
        0
280
     0
281
     0
  0
CLASS
  1
LONG_TRANSACTION
  2
AcDbLongTransaction
  3
AutoCAD 2000
 90
        0
280
     0
281
     0
  0
CLASS
  1
LWPOLYLINE
  2
AcDbPolyline
  3
AutoCAD 2000
 90
        0
280
     0
281
     1
  0
CLASS
  1
HATCH
  2
AcDbHatch
  3
AutoCAD 2000
 90
        0
280
     0
281
     1
  0
CLASS
  1
XRECORD
  2
AcDbXrecord
  3
AutoCAD 2000
 90
        0
280
     0
281
     0
  0
CLASS
  1
LONG_TRANSACTION
  2
AcDbLongTransaction
  3
AutoCAD 2000
 90
        0
280
     0
281
     0
  0
CLASS
  1
LWPOLYLINE
  2
AcDbPolyline
  3
AutoCAD 2000
 90
        0
280
     0
281
     1
  0
CLASS
  1
HATCH
  2
AcDbHatch
  3
AutoCAD 2000
 90
        0
280
     0
281
     1
  0
CLASS
  1
XRECORD
  2
AcDbXrecord
  3
AutoCAD 2000
 90
        0
280
     0
281
     0
  0
CLASS
  1
LONG_TRANSACTION
  2
AcDbLongTransaction
  3
AutoCAD 2000
 90
        0
280
     0
281
     0
  0
CLASS
  1
LWPOLYLINE
  2
AcDbPolyline
  3
AutoCAD 2000
 90
        0
280
     0
281
     1
  0
CLASS
  1
HATCH
  2
AcDbHatch
  3
AutoCAD 2000
 90
        0
280
     0
281
     1
  0
CLASS
  1
XRECORD
  2
AcDbXrecord
  3
AutoCAD 2000
 90
        0
280
     0
281
     0
  0
CLASS
  1
LONG_TRANSACTION
  2
AcDbLongTransaction
  3
AutoCAD 2000
 90
        0
280
     0
281
     0
  0
CLASS
  1
LWPOLYLINE
  2
AcDbPolyline
  3
AutoCAD 2000
 90
        0
280
     0
281
     1
  0
CLASS
  1
HATCH
  2
AcDbHatch
  3
AutoCAD 2000
 90
        0
280
     0
281
     1
  0
CLASS
  1
XRECORD
  2
AcDbXrecord
  3
AutoCAD 2000
 90
        0
280
     0
281
     0
  0
CLASS
  1
LONG_TRANSACTION
  2
AcDbLongTransaction
  3
AutoCAD 2000
 90
        0
280
     0
281
     0
  0
CLASS
  1
LWPOLYLINE
  2
AcDbPolyline
  3
AutoCAD 2000
 90
        0
280
     0
281
     1
  0
CLASS
  1
HATCH
  2
AcDbHatch
  3
AutoCAD 2000
 90
        0
280
     0
281
     1
  0
CLASS
  1
XRECORD
  2
AcDbXrecord
  3
AutoCAD 2000
 90
        0
280
     0
281
     0
  0
CLASS
  1
LONG_TRANSACTION
  2
AcDbLongTransaction
  3
AutoCAD 2000
 90
        0
280
     0
281
     0
  0
CLASS
  1
LWPOLYLINE
  2
AcDbPolyline
  3
AutoCAD 2000
 90
        0
280
     0
281
     1
  0
CLASS
  1
HATCH
  2
AcDbHatch
  3
AutoCAD 2000
 90
        0
280
     0
281
     1
  0
CLASS
  1
XRECORD
  2
AcDbXrecord
  3
AutoCAD 2000
 90
        0
280
     0
281
     0
  0
CLASS
  1
LONG_TRANSACTION
  2
AcDbLongTransaction
  3
AutoCAD 2000
 90
        0
280
     0
281
     0
  0
CLASS
  1
LWPOLYLINE
  2
AcDbPolyline
  3
AutoCAD 2000
 90
        0
280
     0
281
     1
  0
CLASS
  1
HATCH
  2
AcDbHatch
  3
AutoCAD 2000
 90
        0
280
     0
281
     1
  0
CLASS
  1
XRECORD
  2
AcDbXrecord
  3
AutoCAD 2000
 90
        0
280
     0
281
     0
  0
CLASS
  1
LONG_TRANSACTION
  2
AcDbLongTransaction
  3
AutoCAD 2000
 90
        0
280
     0
281
     0
  0
CLASS
  1
LWPOLYLINE
  2
AcDbPolyline
  3
AutoCAD 2000
 90
        0
280
     0
281
     1
  0
CLASS
  1
HATCH
  2
AcDbHatch
  3
AutoCAD 2000
 90
        0
280
     0
281
     1
  0
CLASS
  1
XRECORD
  2
AcDbXrecord
  3
AutoCAD 2000
 90
        0
280
     0
281
     0
  0
CLASS
  1
LONG_TRANSACTION
  2
AcDbLongTransaction
  3
AutoCAD 2000
 90
        0
280
     0
281
     0
  0
CLASS
  1
LWPOLYLINE
  2
AcDbPolyline
  3
AutoCAD 2000
 90
        0
280
     0
281
     1
  0
CLASS
  1
HATCH
  2
AcDbHatch
  3
AutoCAD 2000
 90
        0
280
     0
281
     1
  0
CLASS
  1
XRECORD
  2
AcDbXrecord
  3
AutoCAD 2000
 90
        0
280
     0
281
     0
  0
CLASS
  1
LONG_TRANSACTION
  2
AcDbLongTransaction
  3
AutoCAD 2000
 90
        0
280
     0
281
     0
  0
CLASS
  1
LWPOLYLINE
  2
AcDbPolyline
  3
AutoCAD 2000
 90
        0
280
     0
281
     1
  0
CLASS
  1
HATCH
  2
AcDbHatch
  3
AutoCAD 2000
 90
        0
280
     0
281
     1
  0
CLASS
  1
XRECORD
  2
AcDbXrecord
  3
AutoCAD 2000
 90
        0
280
     0
281
     0
  0
CLASS
  1
LONG_TRANSACTION
  2
AcDbLongTransaction
  3
AutoCAD 2000
 90
        0
280
     0
281
     0
  0
CLASS
  1
LWPOLYLINE
  2
AcDbPolyline
  3
AutoCAD 2000
 90
        0
280
     0
281
     1
  0
CLASS
  1
HATCH
  2
AcDbHatch
  3
AutoCAD 2000
 90
        0
280
     0
281
     1
  0
CLASS
  1
XRECORD
  2
AcDbXrecord
  3
AutoCAD 2000
 90
        0
280
     0
281
     0
  0
CLASS
  1
LONG_TRANSACTION
  2
AcDbLongTransaction
  3
AutoCAD 2000
 90
        0
280
     0
281
     0
  0
CLASS
  1
LWPOLYLINE
  2
AcDbPolyline
  3
AutoCAD 2000
 90
        0
280
     0
281
     1
  0
CLASS
  1
HATCH
  2
AcDbHatch
  3
AutoCAD 2000
 90
        0
280
     0
281
     1
  0
CLASS
  1
XRECORD
  2
AcDbXrecord
  3
AutoCAD 2000
 90
        0
280
     0
281
     0
  0
CLASS
  1
LONG_TRANSACTION
  2
AcDbLongTransaction
  3
AutoCAD 2000
 90
        0
280
     0
281
     0
  0
CLASS
  1
LWPOLYLINE
  2
AcDbPolyline
  3
AutoCAD 2000
 90
        0
280
     0
281
     1
  0
CLASS
  1
HATCH
  2
AcDbHatch
  3
AutoCAD 2000
 90
        0
280
     0
281
     1
  0
CLASS
  1
XRECORD
  2
AcDbXrecord
  3
AutoCAD 2000
 90
        0
280
     0
281
     0
  0
CLASS
  1
LONG_TRANSACTION
  2
AcDbLongTransaction
  3
AutoCAD 2000
 90
        0
280
     0
281
     0
  0
CLASS
  1
LWPOLYLINE
  2
AcDbPolyline
  3
AutoCAD 2000
 90
        0
280
     0
281
     1
  0
CLASS
  1
HATCH
  2
AcDbHatch
  3
AutoCAD 2000
 90
        0
280
     0
281
     1
  0
CLASS
  1
XRECORD
  2
AcDbXrecord
  3
AutoCAD 2000
 90
        0
280
     0
281
     0
  0
CLASS
  1
LONG_TRANSACTION
  2
AcDbLongTransaction
  3
AutoCAD 2000
 90
        0
280
     0
281
     0
  0
CLASS
  1
LWPOLYLINE
  2
AcDbPolyline
  3
AutoCAD 2000
 90
        0
280
     0
281
     1
  0
CLASS
  1
HATCH
  2
AcDbHatch
  3
AutoCAD 2000
 90
        0
280
     0
281
     1
  0
CLASS
  1
XRECORD
  2
AcDbXrecord
  3
AutoCAD 2000
 90
        0
280
     0
281
     0
  0
CLASS
  1
LONG_TRANSACTION
  2
AcDbLongTransaction
  3
AutoCAD 2000
 90
        0
280
     0
281
     0
  0
CLASS
  1
LWPOLYLINE
  2
AcDbPolyline
  3
AutoCAD 2000
 90
        0
280
     0
281
     1
  0
CLASS
  1
HATCH
  2
AcDbHatch
  3
AutoCAD 2000
 90
        0
280
     0
281
     1
  0
CLASS
  1
XRECORD
  2
AcDbXrecord
  3
AutoCAD 2000
 90
        0
280
     0
281
     0
  0
CLASS
  1
DICTIONARYVAR
  2
AcDbDictionaryVar
  3
AutoCAD 2000
 90
        0
280
     0
281
     0
  0
CLASS
  1
LONG_TRANSACTION
  2
AcDbLongTransaction
  3
AutoCAD 2000
 90
        0
280
     0
281
     0
  0
CLASS
  1
LWPOLYLINE
  2
AcDbPolyline
  3
AutoCAD 2000
 90
        0
280
     0
281
     1
  0
CLASS
  1
HATCH
  2
AcDbHatch
  3
AutoCAD 2000
 90
        0
280
     0
281
     1
  0
CLASS
  1
XRECORD
  2
AcDbXrecord
  3
AutoCAD 2000
 90
        0
280
     0
281
     0
  0
CLASS
  1
LONG_TRANSACTION
  2
AcDbLongTransaction
  3
AutoCAD 2000
 90
        0
280
     0
281
     0
  0
CLASS
  1
LWPOLYLINE
  2
AcDbPolyline
  3
AutoCAD 2000
 90
        0
280
     0
281
     1
  0
CLASS
  1
HATCH
  2
AcDbHatch
  3
AutoCAD 2000
 90
        0
280
     0
281
     1
  0
CLASS
  1
XRECORD
  2
AcDbXrecord
  3
AutoCAD 2000
 90
        0
280
     0
281
     0
  0
CLASS
  1
LONG_TRANSACTION
  2
AcDbLongTransaction
  3
AutoCAD 2000
 90
        0
280
     0
281
     0
  0
CLASS
  1
LWPOLYLINE
  2
AcDbPolyline
  3
AutoCAD 2000
 90
        0
280
     0
281
     1
  0
CLASS
  1
HATCH
  2
AcDbHatch
  3
AutoCAD 2000
 90
        0
280
     0
281
     1
  0
CLASS
  1
XRECORD
  2
AcDbXrecord
  3
AutoCAD 2000
 90
        0
280
     0
281
     0
  0
CLASS
  1
LONG_TRANSACTION
  2
AcDbLongTransaction
  3
AutoCAD 2000
 90
        0
280
     0
281
     0
  0
CLASS
  1
LWPOLYLINE
  2
AcDbPolyline
  3
AutoCAD 2000
 90
        0
280
     0
281
     1
  0
CLASS
  1
HATCH
  2
AcDbHatch
  3
AutoCAD 2000
 90
        0
280
     0
281
     1
  0
CLASS
  1
XRECORD
  2
AcDbXrecord
  3
AutoCAD 2000
 90
        0
280
     0
281
     0
  0
CLASS
  1
LONG_TRANSACTION
  2
AcDbLongTransaction
  3
AutoCAD 2000
 90
        0
280
     0
281
     0
  0
CLASS
  1
LWPOLYLINE
  2
AcDbPolyline
  3
AutoCAD 2000
 90
        0
280
     0
281
     1
  0
CLASS
  1
HATCH
  2
AcDbHatch
  3
AutoCAD 2000
 90
        0
280
     0
281
     1
  0
CLASS
  1
XRECORD
  2
AcDbXrecord
  3
AutoCAD 2000
 90
        0
280
     0
281
     0
  0
CLASS
  1
LONG_TRANSACTION
  2
AcDbLongTransaction
  3
AutoCAD 2000
 90
        0
280
     0
281
     0
  0
CLASS
  1
LWPOLYLINE
  2
AcDbPolyline
  3
AutoCAD 2000
 90
        0
280
     0
281
     1
  0
CLASS
  1
HATCH
  2
AcDbHatch
  3
AutoCAD 2000
 90
        0
280
     0
281
     1
  0
CLASS
  1
XRECORD
  2
AcDbXrecord
  3
AutoCAD 2000
 90
        0
280
     0
281
     0
  0
ENDSEC
  0
SECTION
  2
TABLES
  0
TABLE
  2
VPORT
  5
8
330
0
100
AcDbSymbolTable
 70
     3
  0
VPORT
  5
A7E5
330
8
100
AcDbSymbolTableRecord
100
AcDbViewportTableRecord
  2
*ACTIVE
 70
     0
 10
0.0
 20
0.0
 11
1.0
 21
1.0
 12
175.2812517505888
 22
20.58600413912449
 13
0.0
 23
0.0
 14
1.0
 24
1.0
 15
10.0
 25
10.0
 16
0.0
 26
0.0
 36
1.0
 17
0.0
 27
0.0
 37
0.0
 40
749.8442613062133
 41
1.723287671232876
 42
50.0
 43
0.0
 44
0.0
 50
0.0
 51
0.0
 71
     0
 72
   100
 73
     1
 74
     1
 75
     0
 76
     0
 77
     0
 78
     0
  0
ENDTAB
  0
TABLE
  2
LTYPE
  5
5
330
0
100
AcDbSymbolTable
 70
     4
  0
LTYPE
  5
13
330
5
100
AcDbSymbolTableRecord
100
AcDbLinetypeTableRecord
  2
BYBLOCK
 70
     0
  3

 72
    65
 73
     0
 40
0.0
  0
LTYPE
  5
14
330
5
100
AcDbSymbolTableRecord
100
AcDbLinetypeTableRecord
  2
BYLAYER
 70
     0
  3

 72
    65
 73
     0
 40
0.0
  0
LTYPE
  5
15
330
5
100
AcDbSymbolTableRecord
100
AcDbLinetypeTableRecord
  2
CONTINUOUS
 70
     0
  3
Solid line
 72
    65
 73
     0
 40
0.0
  0
LTYPE
  5
22
330
5
100
AcDbSymbolTableRecord
100
AcDbLinetypeTableRecord
  2
CONTINOUS
 70
     0
  3
Solid line
 72
    65
 73
     0
 40
0.0
  0
LTYPE
  5
24
330
5
100
AcDbSymbolTableRecord
100
AcDbLinetypeTableRecord
  2
DASHDOT
 70
     0
  3
__ . __ . __ . __ . __ . __ . __ . __ . __ . __
 72
    65
 73
     4
 40
1.0
 49
0.5
 74
     0
 49
-0.25
 74
     0
 49
0.0
 74
     0
 49
-0.25
 74
     0
  0
LTYPE
  5
429E
330
5
100
AcDbSymbolTableRecord
100
AcDbLinetypeTableRecord
  2
DIVIDE
 70
     0
  3
Divide ____ . . ____ . . ____ . . ____ . . ____
 72
    65
 73
     6
 40
1.25
 49
0.5
 74
     0
 49
-0.25
 74
     0
 49
0.0
 74
     0
 49
-0.25
 74
     0
 49
0.0
 74
     0
 49
-0.25
 74
     0
  0
ENDTAB
  0
TABLE
  2
LAYER
  5
2
330
0
100
AcDbSymbolTable
 70
    14
  0
LAYER
  5
10
330
2
100
AcDbSymbolTableRecord
100
AcDbLayerTableRecord
  2
0
 70
     0
 62
     7
  6
CONTINOUS
  0
LAYER
  5
2F
330
2
100
AcDbSymbolTableRecord
100
AcDbLayerTableRecord
  2
10
 70
     0
 62
     4
  6
CONTINOUS
  0
LAYER
  5
31
330
2
100
AcDbSymbolTableRecord
100
AcDbLayerTableRecord
  2
12
 70
     0
 62
     3
  6
CONTINOUS
  0
LAYER
  5
35
330
2
100
AcDbSymbolTableRecord
100
AcDbLayerTableRecord
  2
16
 70
     4
 62
     6
  6
DASHDOT
  0
LAYER
  5
36
330
2
100
AcDbSymbolTableRecord
100
AcDbLayerTableRecord
  2
17
 70
     0
 62
     2
  6
DASHDOT
  0
LAYER
  5
3D
330
2
100
AcDbSymbolTableRecord
100
AcDbLayerTableRecord
  2
24
 70
     0
 62
     2
  6
CONTINOUS
  0
LAYER
  5
3A2
330
2
100
AcDbSymbolTableRecord
100
AcDbLayerTableRecord
  2
30
 70
     0
 62
     9
  6
CONTINUOUS
  0
LAYER
  5
3A4
330
2
100
AcDbSymbolTableRecord
100
AcDbLayerTableRecord
  2
DEFPOINTS
 70
     0
 62
     7
  6
CONTINUOUS
  0
LAYER
  5
3BBA
330
2
100
AcDbSymbolTableRecord
100
AcDbLayerTableRecord
  2
18
 70
     0
 62
     5
  6
DIVIDE
  0
LAYER
  5
3BBB
330
2
100
AcDbSymbolTableRecord
100
AcDbLayerTableRecord
  2
21
 70
     0
 62
     7
  6
CONTINUOUS
  0
LAYER
  5
40E3
330
2
100
AcDbSymbolTableRecord
100
AcDbLayerTableRecord
  2
22
 70
     0
 62
     3
  6
CONTINUOUS
  0
LAYER
  5
9496
330
2
100
AcDbSymbolTableRecord
100
AcDbLayerTableRecord
  2
TOP
 70
     0
 62
     7
  6
CONTINUOUS
  0
LAYER
  5
98BC
330
2
100
AcDbSymbolTableRecord
100
AcDbLayerTableRecord
  2
1
 70
     0
 62
     7
  6
CONTINUOUS
  0
LAYER
  5
A10F
330
2
100
AcDbSymbolTableRecord
100
AcDbLayerTableRecord
  2
19
 70
     0
 62
     7
  6
CONTINOUS
  0
ENDTAB
  0
TABLE
  2
STYLE
  5
3
330
0
100
AcDbSymbolTable
 70
     3
  0
STYLE
  5
11
330
3
100
AcDbSymbolTableRecord
100
AcDbTextStyleTableRecord
  2
STANDARD
 70
     0
 40
0.0
 41
1.0
 50
0.0
 71
     0
 42
2.0
  3
txt.shx
  4
bigfont.shx
  0
STYLE
  5
42
330
3
100
AcDbSymbolTableRecord
100
AcDbTextStyleTableRecord
  2
STANDARD1
 70
     0
 40
0.0
 41
1.0
 50
0.0
 71
     0
 42
5.0
  3
MONOTXT
  4
BIGFONT
  0
STYLE
  5
9497
330
3
100
AcDbSymbolTableRecord
100
AcDbTextStyleTableRecord
  2
UGMTXT
 70
     0
 40
0.0
 41
1.0
 50
0.0
 71
     0
 42
0.2
  3
ugmtxt
  4
bigfont
  0
ENDTAB
  0
TABLE
  2
VIEW
  5
6
330
0
100
AcDbSymbolTable
 70
     5
  0
VIEW
  5
230C
330
6
100
AcDbSymbolTableRecord
100
AcDbViewTableRecord
  2
OLE1
 70
     0
 40
148.9124878027714
 10
429.4976280407222
 20
2.560626997828478
 41
103.1458057716444
 11
0.0
 21
0.0
 31
1.0
 12
0.0
 22
0.0
 32
0.0
 42
50.0
 43
0.0
 44
0.0
 50
0.0
 71
     0
  0
VIEW
  5
230E
330
6
100
AcDbSymbolTableRecord
100
AcDbViewTableRecord
  2
OLE2
 70
     0
 40
170.7786920545775
 10
322.664969958371
 20
-5.978304054290276
 41
102.4672152327465
 11
0.0
 21
0.0
 31
1.0
 12
0.0
 22
0.0
 32
0.0
 42
50.0
 43
0.0
 44
0.0
 50
0.0
 71
     0
  0
VIEW
  5
23AA
330
6
100
AcDbSymbolTableRecord
100
AcDbViewTableRecord
  2
OLE3
 70
     0
 40
591.7897393182231
 10
84.79698158148218
 20
-46.09336010803995
 41
388.7920961799953
 11
0.0
 21
0.0
 31
1.0
 12
0.0
 22
0.0
 32
0.0
 42
50.0
 43
0.0
 44
0.0
 50
0.0
 71
     0
  0
VIEW
  5
4402
330
6
100
AcDbSymbolTableRecord
100
AcDbViewTableRecord
  2
OLE4
 70
     0
 40
151.7917771380923
 10
15.38766885376364
 20
-193.752550173716
 41
398.5527551557765
 11
0.0
 21
0.0
 31
1.0
 12
0.0
 22
0.0
 32
0.0
 42
50.0
 43
0.0
 44
0.0
 50
0.0
 71
     0
  0
VIEW
  5
8D79
330
6
100
AcDbSymbolTableRecord
100
AcDbViewTableRecord
  2
OLE5
 70
     0
 40
473.0465752437631
 10
40.72308557678552
 20
-190.6885064073368
 41
1018.166770320803
 11
0.0
 21
0.0
 31
1.0
 12
0.0
 22
0.0
 32
0.0
 42
50.0
 43
0.0
 44
0.0
 50
0.0
 71
     0
  0
ENDTAB
  0
TABLE
  2
UCS
  5
7
330
0
100
AcDbSymbolTable
 70
     0
  0
ENDTAB
  0
TABLE
  2
APPID
  5
9
330
0
100
AcDbSymbolTable
 70
     2
  0
APPID
  5
12
330
9
100
AcDbSymbolTableRecord
100
AcDbRegAppTableRecord
  2
ACAD
 70
     0
  0
APPID
  5
ECD
330
9
100
AcDbSymbolTableRecord
100
AcDbRegAppTableRecord
  2
CONTENTBLOCKICON
 70
     0
  0
ENDTAB
  0
TABLE
  2
DIMSTYLE
  5
A
330
0
100
AcDbSymbolTable
 70
     1
  0
DIMSTYLE
105
175
102
{ACAD_REACTORS
330
92DA
330
9770
330
97C2
330
9EEE
330
9E18
330
9E21
330
9E1E
330
9E2A
330
9E1D
330
9E17
330
A2E8
330
A2EA
330
A2DD
330
A2E1
330
A2E0
330
A2DE
330
A2DF
330
A2DB
330
A2E3
330
A2DC
330
A2E4
330
A2E9
330
A2E5
330
A662
330
A664
330
A665
330
A663
330
A6DE
102
}
330
A
100
AcDbSymbolTableRecord
100
AcDbDimStyleTableRecord
  2
STANDARD
 70
     0
  3

  4

  5
OPEN
  6

  7

 40
1.0
 41
2.0
 42
1.0
 43
0.5
 44
0.5
 45
0.0
 46
0.0
 47
0.0
 48
0.0
140
4.0
141
0.09
142
0.0
143
25.4
144
1.0
145
0.0
146
1.0
147
1.0
 71
     0
 72
     0
 73
     0
 74
     0
 75
     0
 76
     0
 77
     3
 78
    12
170
     0
171
     2
172
     0
173
     0
174
     0
175
     0
176
     0
177
     0
178
     0
270
     2
271
     1
272
     1
273
     2
274
     2
340
11
275
     0
280
     0
281
     0
282
     0
283
     1
284
     0
285
     0
286
     0
287
     3
288
     0
  0
ENDTAB
  0
TABLE
  2
BLOCK_RECORD
  5
1
330
0
100
AcDbSymbolTable
 70
    30
  0
BLOCK_RECORD
  5
1E
102
{ACAD_XDICTIONARY
360
178
102
}
330
1
100
AcDbSymbolTableRecord
100
AcDbBlockTableRecord
  2
*MODEL_SPACE
  0
BLOCK_RECORD
  5
1A
102
{ACAD_XDICTIONARY
360
17A
102
}
330
1
100
AcDbSymbolTableRecord
100
AcDbBlockTableRecord
  2
*PAPER_SPACE
  0
BLOCK_RECORD
  5
3B2
330
1
100
AcDbSymbolTableRecord
100
AcDbBlockTableRecord
  2
_OPEN
  0
BLOCK_RECORD
  5
9830
330
1
100
AcDbSymbolTableRecord
100
AcDbBlockTableRecord
  2
*D1
  0
BLOCK_RECORD
  5
983C
330
1
100
AcDbSymbolTableRecord
100
AcDbBlockTableRecord
  2
*D2
  0
BLOCK_RECORD
  5
9848
330
1
100
AcDbSymbolTableRecord
100
AcDbBlockTableRecord
  2
*D3
  0
BLOCK_RECORD
  5
9E46
330
1
100
AcDbSymbolTableRecord
100
AcDbBlockTableRecord
  2
*D4
  0
BLOCK_RECORD
  5
9E52
330
1
100
AcDbSymbolTableRecord
100
AcDbBlockTableRecord
  2
*D5
  0
BLOCK_RECORD
  5
9E5E
330
1
100
AcDbSymbolTableRecord
100
AcDbBlockTableRecord
  2
*D6
  0
BLOCK_RECORD
  5
9E6A
330
1
100
AcDbSymbolTableRecord
100
AcDbBlockTableRecord
  2
*D7
  0
BLOCK_RECORD
  5
9E76
330
1
100
AcDbSymbolTableRecord
100
AcDbBlockTableRecord
  2
*D8
  0
BLOCK_RECORD
  5
9E82
330
1
100
AcDbSymbolTableRecord
100
AcDbBlockTableRecord
  2
*D9
  0
BLOCK_RECORD
  5
9EEF
330
1
100
AcDbSymbolTableRecord
100
AcDbBlockTableRecord
  2
*D10
  0
BLOCK_RECORD
  5
A2EB
330
1
100
AcDbSymbolTableRecord
100
AcDbBlockTableRecord
  2
*D11
  0
BLOCK_RECORD
  5
A2F7
330
1
100
AcDbSymbolTableRecord
100
AcDbBlockTableRecord
  2
*D12
  0
BLOCK_RECORD
  5
A303
330
1
100
AcDbSymbolTableRecord
100
AcDbBlockTableRecord
  2
*D13
  0
BLOCK_RECORD
  5
A30F
330
1
100
AcDbSymbolTableRecord
100
AcDbBlockTableRecord
  2
*D14
  0
BLOCK_RECORD
  5
A31B
330
1
100
AcDbSymbolTableRecord
100
AcDbBlockTableRecord
  2
*D15
  0
BLOCK_RECORD
  5
A328
330
1
100
AcDbSymbolTableRecord
100
AcDbBlockTableRecord
  2
*D16
  0
BLOCK_RECORD
  5
A334
330
1
100
AcDbSymbolTableRecord
100
AcDbBlockTableRecord
  2
*D17
  0
BLOCK_RECORD
  5
A340
330
1
100
AcDbSymbolTableRecord
100
AcDbBlockTableRecord
  2
*D18
  0
BLOCK_RECORD
  5
A34C
330
1
100
AcDbSymbolTableRecord
100
AcDbBlockTableRecord
  2
*D19
  0
BLOCK_RECORD
  5
A358
330
1
100
AcDbSymbolTableRecord
100
AcDbBlockTableRecord
  2
*D20
  0
BLOCK_RECORD
  5
A364
330
1
100
AcDbSymbolTableRecord
100
AcDbBlockTableRecord
  2
*D21
  0
BLOCK_RECORD
  5
A370
330
1
100
AcDbSymbolTableRecord
100
AcDbBlockTableRecord
  2
*D22
  0
BLOCK_RECORD
  5
A37C
330
1
100
AcDbSymbolTableRecord
100
AcDbBlockTableRecord
  2
*D23
  0
BLOCK_RECORD
  5
A666
330
1
100
AcDbSymbolTableRecord
100
AcDbBlockTableRecord
  2
*D24
  0
BLOCK_RECORD
  5
A672
330
1
100
AcDbSymbolTableRecord
100
AcDbBlockTableRecord
  2
*D25
  0
BLOCK_RECORD
  5
A67E
330
1
100
AcDbSymbolTableRecord
100
AcDbBlockTableRecord
  2
*D26
  0
BLOCK_RECORD
  5
A68A
330
1
100
AcDbSymbolTableRecord
100
AcDbBlockTableRecord
  2
*D27
  0
BLOCK_RECORD
  5
A6DF
330
1
100
AcDbSymbolTableRecord
100
AcDbBlockTableRecord
  2
*D28
  0
ENDTAB
  0
ENDSEC
  0
SECTION
  2
BLOCKS
  0
BLOCK
  5
1F
330
1E
100
AcDbEntity
  8
0
100
AcDbBlockBegin
  2
*MODEL_SPACE
 70
     0
 10
0.0
 20
0.0
 30
0.0
  3
*MODEL_SPACE
  1

  0
ENDBLK
  5
20
330
1E
100
AcDbEntity
  8
0
100
AcDbBlockEnd
  0
BLOCK
  5
1B
330
1A
100
AcDbEntity
 67
     1
  8
0
100
AcDbBlockBegin
  2
*PAPER_SPACE
 70
     0
 10
0.0
 20
0.0
 30
0.0
  3
*PAPER_SPACE
  1

  0
ENDBLK
  5
1C
330
1A
100
AcDbEntity
 67
     1
  8
0
100
AcDbBlockEnd
  0
BLOCK
  5
3B6
330
3B2
100
AcDbEntity
  8
0
100
AcDbBlockBegin
  2
_OPEN
 70
     0
 10
0.0
 20
0.0
 30
0.0
  3
_OPEN
  1

  0
LINE
  5
3B3
330
3B2
100
AcDbEntity
  8
30
  6
CONTINUOUS
 62
     0
100
AcDbLine
 10
-1.0
 20
0.1666666666666666
 30
0.0
 11
0.0
 21
0.0
 31
0.0
  0
LINE
  5
3B4
330
3B2
100
AcDbEntity
  8
30
  6
CONTINUOUS
 62
     0
100
AcDbLine
 10
-1.0
 20
-0.1666666666666666
 30
0.0
 11
0.0
 21
0.0
 31
0.0
  0
LINE
  5
3B5
330
3B2
100
AcDbEntity
  8
30
  6
CONTINUOUS
 62
     0
100
AcDbLine
 10
0.0
 20
0.0
 30
0.0
 11
-1.0
 21
0.0
 31
0.0
  0
ENDBLK
  5
3B7
330
3B2
100
AcDbEntity
  8
0
100
AcDbBlockEnd
  0
BLOCK
  5
983A
330
9830
100
AcDbEntity
  8
0
100
AcDbBlockBegin
  2
*D1
 70
     1
 10
0.0
 20
0.0
 30
0.0
  3
*D1
  1

  0
LINE
  5
9F7B
330
9830
100
AcDbEntity
  8
30
 62
     0
100
AcDbLine
 10
-52.49972879674435
 20
-83.49957382345539
 30
0.0
 11
-52.49972879674435
 21
-101.1627382867611
 31
0.0
  0
LINE
  5
9F7C
330
9830
100
AcDbEntity
  8
30
 62
     0
100
AcDbLine
 10
87.49954799457388
 20
-83.49957382345539
 30
0.0
 11
87.49954799457388
 21
-101.1627382867611
 31
0.0
  0
LINE
  5
9F7D
330
9830
100
AcDbEntity
  8
30
 62
     0
100
AcDbLine
 10
-50.49972879674434
 20
-100.662738286761
 30
0.0
 11
85.49954799457387
 21
-100.662738286761
 31
0.0
  0
INSERT
  5
9F7E
330
9830
100
AcDbEntity
  8
30
 62
     0
100
AcDbBlockReference
  2
_OPEN
 10
-52.49972879674435
 20
-100.662738286761
 30
0.0
 41
2.0
 42
2.0
 43
2.0
 50
180.0
  0
INSERT
  5
9F7F
330
9830
100
AcDbEntity
  8
30
 62
     0
100
AcDbBlockReference
  2
_OPEN
 10
87.49954799457388
 20
-100.662738286761
 30
0.0
 41
2.0
 42
2.0
 43
2.0
  0
MTEXT
  5
9F80
330
9830
100
AcDbEntity
  8
30
 62
     0
100
AcDbMText
 10
17.49990959891476
 20
-97.66273828676121
 30
0.0
 40
4.0
 41
0.0
 71
     5
 72
     1
  1
\A1;140
1001
ACAD
1000
MTEXTBEGIN
1070
    73
1070
     1
1070
    44
1040
1.0
1070
    74
1070
     0
1000
MTEXTEND
1000
MTEXTBEGIN
1070
    73
1070
     1
1070
    44
1040
1.0
1070
    74
1070
     0
1000
MTEXTEND
  0
POINT
  5
9F81
330
9830
100
AcDbEntity
  8
DEFPOINTS
 62
     0
100
AcDbPoint
 10
-52.49972879674435
 20
-82.4995738234554
 30
0.0
  0
POINT
  5
9F82
330
9830
100
AcDbEntity
  8
DEFPOINTS
 62
     0
100
AcDbPoint
 10
87.49954799457388
 20
-82.4995738234554
 30
0.0
  0
POINT
  5
9F83
330
9830
100
AcDbEntity
  8
DEFPOINTS
 62
     0
100
AcDbPoint
 10
87.49954799457388
 20
-100.662738286761
 30
0.0
  0
ENDBLK
  5
983B
330
9830
100
AcDbEntity
  8
0
100
AcDbBlockEnd
  0
BLOCK
  5
9846
330
983C
100
AcDbEntity
  8
0
100
AcDbBlockBegin
  2
*D2
 70
     1
 10
0.0
 20
0.0
 30
0.0
  3
*D2
  1

  0
LINE
  5
9EE5
330
983C
100
AcDbEntity
  8
30
 62
     0
100
AcDbLine
 10
-48.99974687696138
 20
25.99987085559252
 30
0.0
 11
-48.99974687696138
 21
35.71301008272598
 31
0.0
  0
LINE
  5
9EE6
330
983C
100
AcDbEntity
  8
30
 62
     0
100
AcDbLine
 10
48.99974687696138
 20
25.99987085559252
 30
0.0
 11
48.99974687696138
 21
35.71301008272598
 31
0.0
  0
LINE
  5
9EE7
330
983C
100
AcDbEntity
  8
30
 62
     0
100
AcDbLine
 10
-46.99974687696138
 20
35.21301008272597
 30
0.0
 11
46.99974687696138
 21
35.21301008272597
 31
0.0
  0
INSERT
  5
9EE8
330
983C
100
AcDbEntity
  8
30
 62
     0
100
AcDbBlockReference
  2
_OPEN
 10
-48.99974687696138
 20
35.21301008272597
 30
0.0
 41
2.0
 42
2.0
 43
2.0
 50
180.0
  0
INSERT
  5
9EE9
330
983C
100
AcDbEntity
  8
30
 62
     0
100
AcDbBlockReference
  2
_OPEN
 10
48.99974687696138
 20
35.21301008272597
 30
0.0
 41
2.0
 42
2.0
 43
2.0
  0
MTEXT
  5
9EEA
330
983C
100
AcDbEntity
  8
30
 62
     0
100
AcDbMText
 10
0.0000000000000002
 20
38.21301008272598
 30
0.0
 40
4.0
 41
0.0
 71
     5
 72
     1
  1
\A1;98
1001
ACAD
1000
MTEXTBEGIN
1070
    73
1070
     1
1070
    44
1040
1.0
1070
    74
1070
     0
1000
MTEXTEND
1000
MTEXTBEGIN
1070
    73
1070
     1
1070
    44
1040
1.0
1070
    74
1070
     0
1000
MTEXTEND
  0
POINT
  5
9EEB
330
983C
100
AcDbEntity
  8
DEFPOINTS
 62
     0
100
AcDbPoint
 10
-48.99974687696138
 20
24.99987085559252
 30
0.0
  0
POINT
  5
9EEC
330
983C
100
AcDbEntity
  8
DEFPOINTS
 62
     0
100
AcDbPoint
 10
48.99974687696138
 20
24.99987085559252
 30
0.0
  0
POINT
  5
9EED
330
983C
100
AcDbEntity
  8
DEFPOINTS
 62
     0
100
AcDbPoint
 10
48.99974687696138
 20
35.21301008272597
 30
0.0
  0
ENDBLK
  5
9847
330
983C
100
AcDbEntity
  8
0
100
AcDbBlockEnd
  0
BLOCK
  5
9852
330
9848
100
AcDbEntity
  8
0
100
AcDbBlockBegin
  2
*D3
 70
     1
 10
0.0
 20
0.0
 30
0.0
  3
*D3
  1

  0
LINE
  5
9F72
330
9848
100
AcDbEntity
  8
30
 62
     0
100
AcDbLine
 10
88.49954799457387
 20
-82.4995738234554
 30
0.0
 11
101.1779304226176
 21
-82.4995738234554
 31
0.0
  0
LINE
  5
9F73
330
9848
100
AcDbEntity
  8
30
 62
     0
100
AcDbLine
 10
88.49954799457387
 20
82.49957382345536
 30
0.0
 11
101.1779304226177
 21
82.49957382345534
 31
0.0
  0
LINE
  5
9F74
330
9848
100
AcDbEntity
  8
30
 62
     0
100
AcDbLine
 10
100.6779304226177
 20
-80.49957382345541
 30
0.0
 11
100.6779304226177
 21
80.49957382345535
 31
0.0
  0
INSERT
  5
9F75
330
9848
100
AcDbEntity
  8
30
 62
     0
100
AcDbBlockReference
  2
_OPEN
 10
100.6779304226177
 20
-82.4995738234554
 30
0.0
 41
2.0
 42
2.0
 43
2.0
 50
270.0
  0
INSERT
  5
9F76
330
9848
100
AcDbEntity
  8
30
 62
     0
100
AcDbBlockReference
  2
_OPEN
 10
100.6779304226177
 20
82.49957382345534
 30
0.0
 41
2.0
 42
2.0
 43
2.0
 50
90.0
  0
MTEXT
  5
9F77
330
9848
100
AcDbEntity
  8
30
 62
     0
100
AcDbMText
 10
97.67793042261772
 20
-0.0000000000000058
 30
0.0
 40
4.0
 41
0.0
 71
     5
 72
     1
  1
\A1;165
 11
0.0000000000000001
 21
1.0
 31
0.0
1001
ACAD
1000
MTEXTBEGIN
1070
    73
1070
     1
1070
    44
1040
1.0
1070
    74
1070
     0
1000
MTEXTEND
1000
MTEXTBEGIN
1070
    73
1070
     1
1070
    44
1040
1.0
1070
    74
1070
     0
1000
MTEXTEND
  0
POINT
  5
9F78
330
9848
100
AcDbEntity
  8
DEFPOINTS
 62
     0
100
AcDbPoint
 10
87.49954799457388
 20
-82.4995738234554
 30
0.0
  0
POINT
  5
9F79
330
9848
100
AcDbEntity
  8
DEFPOINTS
 62
     0
100
AcDbPoint
 10
87.49954799457388
 20
82.49957382345536
 30
0.0
  0
POINT
  5
9F7A
330
9848
100
AcDbEntity
  8
DEFPOINTS
 62
     0
100
AcDbPoint
 10
100.6779304226177
 20
82.49957382345534
 30
0.0
  0
ENDBLK
  5
9853
330
9848
100
AcDbEntity
  8
0
100
AcDbBlockEnd
  0
BLOCK
  5
9E50
330
9E46
100
AcDbEntity
  8
0
100
AcDbBlockBegin
  2
*D4
 70
     1
 10
0.0
 20
0.0
 30
0.0
  3
*D4
  1

  0
LINE
  5
9F3A
330
9E46
100
AcDbEntity
  8
30
 62
     0
100
AcDbLine
 10
20.99989670097397
 20
-297.9996745560931
 30
0.0
 11
119.9963922793082
 21
-297.9996745560931
 31
0.0
  0
LINE
  5
9F3B
330
9E46
100
AcDbEntity
  8
30
 62
     0
100
AcDbLine
 10
20.99989670097397
 20
-172.0003254439066
 30
0.0
 11
119.9963922793082
 21
-172.0003254439068
 31
0.0
  0
LINE
  5
9F3C
330
9E46
100
AcDbEntity
  8
30
 62
     0
100
AcDbLine
 10
119.4963922793083
 20
-295.9996745560932
 30
0.0
 11
119.4963922793083
 21
-174.0003254439066
 31
0.0
  0
INSERT
  5
9F3D
330
9E46
100
AcDbEntity
  8
30
 62
     0
100
AcDbBlockReference
  2
_OPEN
 10
119.4963922793083
 20
-297.9996745560931
 30
0.0
 41
2.0
 42
2.0
 43
2.0
 50
270.0
  0
INSERT
  5
9F3E
330
9E46
100
AcDbEntity
  8
30
 62
     0
100
AcDbBlockReference
  2
_OPEN
 10
119.4963922793083
 20
-172.0003254439068
 30
0.0
 41
2.0
 42
2.0
 43
2.0
 50
90.0
  0
MTEXT
  5
9F3F
330
9E46
100
AcDbEntity
  8
30
 62
     0
100
AcDbMText
 10
116.4963922793083
 20
-234.9999999999999
 30
0.0
 40
4.0
 41
0.0
 71
     5
 72
     1
  1
\A1;126
 11
0.0000000000000001
 21
1.0
 31
0.0
1001
ACAD
1000
MTEXTBEGIN
1070
    73
1070
     1
1070
    44
1040
1.0
1070
    74
1070
     0
1000
MTEXTEND
1000
MTEXTBEGIN
1070
    73
1070
     1
1070
    44
1040
1.0
1070
    74
1070
     0
1000
MTEXTEND
  0
POINT
  5
9F40
330
9E46
100
AcDbEntity
  8
DEFPOINTS
 62
     0
100
AcDbPoint
 10
19.99989670097397
 20
-297.9996745560931
 30
0.0
  0
POINT
  5
9F41
330
9E46
100
AcDbEntity
  8
DEFPOINTS
 62
     0
100
AcDbPoint
 10
19.99989670097397
 20
-172.0003254439066
 30
0.0
  0
POINT
  5
9F42
330
9E46
100
AcDbEntity
  8
DEFPOINTS
 62
     0
100
AcDbPoint
 10
119.4963922793083
 20
-172.0003254439068
 30
0.0
  0
ENDBLK
  5
9E51
330
9E46
100
AcDbEntity
  8
0
100
AcDbBlockEnd
  0
BLOCK
  5
9E5C
330
9E52
100
AcDbEntity
  8
0
100
AcDbBlockBegin
  2
*D5
 70
     1
 10
0.0
 20
0.0
 30
0.0
  3
*D5
  1

  0
LINE
  5
9EFB
330
9E52
100
AcDbEntity
  8
30
 62
     0
100
AcDbLine
 10
73.49962549771817
 20
-306.9996280641065
 30
0.0
 11
144.9962631349009
 21
-306.9996280641066
 31
0.0
  0
LINE
  5
9EFC
330
9E52
100
AcDbEntity
  8
30
 62
     0
100
AcDbLine
 10
73.49962549771817
 20
-163.0003719358934
 30
0.0
 11
144.9962631349009
 21
-163.0003719358934
 31
0.0
  0
LINE
  5
9EFD
330
9E52
100
AcDbEntity
  8
30
 62
     0
100
AcDbLine
 10
144.4962631349009
 20
-304.9996280641066
 30
0.0
 11
144.4962631349009
 21
-165.0003719358934
 31
0.0
  0
INSERT
  5
9EFE
330
9E52
100
AcDbEntity
  8
30
 62
     0
100
AcDbBlockReference
  2
_OPEN
 10
144.4962631349009
 20
-306.9996280641066
 30
0.0
 41
2.0
 42
2.0
 43
2.0
 50
270.0
  0
INSERT
  5
9EFF
330
9E52
100
AcDbEntity
  8
30
 62
     0
100
AcDbBlockReference
  2
_OPEN
 10
144.4962631349009
 20
-163.0003719358934
 30
0.0
 41
2.0
 42
2.0
 43
2.0
 50
90.0
  0
MTEXT
  5
9F00
330
9E52
100
AcDbEntity
  8
30
 62
     0
100
AcDbMText
 10
141.496263134901
 20
-235.0
 30
0.0
 40
4.0
 41
0.0
 71
     5
 72
     1
  1
\A1;144
 11
0.0000000000000001
 21
1.0
 31
0.0
1001
ACAD
1000
MTEXTBEGIN
1070
    73
1070
     1
1070
    44
1040
1.0
1070
    74
1070
     0
1000
MTEXTEND
1000
MTEXTBEGIN
1070
    73
1070
     1
1070
    44
1040
1.0
1070
    74
1070
     0
1000
MTEXTEND
  0
POINT
  5
9F01
330
9E52
100
AcDbEntity
  8
DEFPOINTS
 62
     0
100
AcDbPoint
 10
72.49962549771817
 20
-306.9996280641065
 30
0.0
  0
POINT
  5
9F02
330
9E52
100
AcDbEntity
  8
DEFPOINTS
 62
     0
100
AcDbPoint
 10
72.49962549771817
 20
-163.0003719358934
 30
0.0
  0
POINT
  5
9F03
330
9E52
100
AcDbEntity
  8
DEFPOINTS
 62
     0
100
AcDbPoint
 10
144.4962631349009
 20
-163.0003719358934
 30
0.0
  0
ENDBLK
  5
9E5D
330
9E52
100
AcDbEntity
  8
0
100
AcDbBlockEnd
  0
BLOCK
  5
9E68
330
9E5E
100
AcDbEntity
  8
0
100
AcDbBlockBegin
  2
*D6
 70
     1
 10
0.0
 20
0.0
 30
0.0
  3
*D6
  1

  0
LINE
  5
9F5E
330
9E5E
100
AcDbEntity
  8
30
 62
     0
100
AcDbLine
 10
-0.0000000000000001
 20
-310.4996151661657
 30
0.0
 11
-0.0000000000000025
 21
-350.7250062623431
 31
0.0
  0
LINE
  5
9F5F
330
9E5E
100
AcDbEntity
  8
30
 62
     0
100
AcDbLine
 10
34.99981919782953
 20
-307.9996280641065
 30
0.0
 11
34.99981919782953
 21
-350.7250062623431
 31
0.0
  0
LINE
  5
9F60
330
9E5E
100
AcDbEntity
  8
30
 62
     0
100
AcDbLine
 10
1.999999999999996
 20
-350.2250062623431
 30
0.0
 11
32.99981919782954
 21
-350.2250062623431
 31
0.0
  0
INSERT
  5
9F61
330
9E5E
100
AcDbEntity
  8
30
 62
     0
100
AcDbBlockReference
  2
_OPEN
 10
-0.0000000000000025
 20
-350.2250062623431
 30
0.0
 41
2.0
 42
2.0
 43
2.0
 50
180.0
  0
INSERT
  5
9F62
330
9E5E
100
AcDbEntity
  8
30
 62
     0
100
AcDbBlockReference
  2
_OPEN
 10
34.99981919782953
 20
-350.2250062623431
 30
0.0
 41
2.0
 42
2.0
 43
2.0
  0
MTEXT
  5
9F63
330
9E5E
100
AcDbEntity
  8
30
 62
     0
100
AcDbMText
 10
17.49990959891476
 20
-347.2250062623432
 30
0.0
 40
4.0
 41
0.0
 71
     5
 72
     1
  1
\A1;35
1001
ACAD
1000
MTEXTBEGIN
1070
    73
1070
     1
1070
    44
1040
1.0
1070
    74
1070
     0
1000
MTEXTEND
1000
MTEXTBEGIN
1070
    73
1070
     1
1070
    44
1040
1.0
1070
    74
1070
     0
1000
MTEXTEND
  0
POINT
  5
9F64
330
9E5E
100
AcDbEntity
  8
DEFPOINTS
 62
     0
100
AcDbPoint
 10
0.0
 20
-309.4996151661657
 30
0.0
  0
POINT
  5
9F65
330
9E5E
100
AcDbEntity
  8
DEFPOINTS
 62
     0
100
AcDbPoint
 10
34.99981919782953
 20
-306.9996280641065
 30
0.0
  0
POINT
  5
9F66
330
9E5E
100
AcDbEntity
  8
DEFPOINTS
 62
     0
100
AcDbPoint
 10
34.99981919782953
 20
-350.2250062623431
 30
0.0
  0
ENDBLK
  5
9E69
330
9E5E
100
AcDbEntity
  8
0
100
AcDbBlockEnd
  0
BLOCK
  5
9E74
330
9E6A
100
AcDbEntity
  8
0
100
AcDbBlockBegin
  2
*D7
 70
     1
 10
0.0
 20
0.0
 30
0.0
  3
*D7
  1

  0
LINE
  5
9F55
330
9E6A
100
AcDbEntity
  8
30
 62
     0
100
AcDbLine
 10
-34.99981919782953
 20
-310.4996151661657
 30
0.0
 11
-34.99981919782953
 21
-350.2250062623431
 31
0.0
  0
LINE
  5
9F56
330
9E6A
100
AcDbEntity
  8
30
 62
     0
100
AcDbLine
 10
-0.0000000000000001
 20
-347.9994214330546
 30
0.0
 11
-0.0000000000000002
 21
-350.2250062623431
 31
0.0
  0
LINE
  5
9F57
330
9E6A
100
AcDbEntity
  8
30
 62
     0
100
AcDbLine
 10
-32.99981919782954
 20
-349.7250062623431
 30
0.0
 11
-2.0
 21
-349.7250062623431
 31
0.0
  0
INSERT
  5
9F58
330
9E6A
100
AcDbEntity
  8
30
 62
     0
100
AcDbBlockReference
  2
_OPEN
 10
-34.99981919782953
 20
-349.7250062623431
 30
0.0
 41
2.0
 42
2.0
 43
2.0
 50
180.0
  0
INSERT
  5
9F59
330
9E6A
100
AcDbEntity
  8
30
 62
     0
100
AcDbBlockReference
  2
_OPEN
 10
-0.0000000000000002
 20
-349.7250062623431
 30
0.0
 41
2.0
 42
2.0
 43
2.0
  0
MTEXT
  5
9F5A
330
9E6A
100
AcDbEntity
  8
30
 62
     0
100
AcDbMText
 10
-17.49990959891476
 20
-346.7250062623431
 30
0.0
 40
4.0
 41
0.0
 71
     5
 72
     1
  1
\A1;35
1001
ACAD
1000
MTEXTBEGIN
1070
    73
1070
     1
1070
    44
1040
1.0
1070
    74
1070
     0
1000
MTEXTEND
1000
MTEXTBEGIN
1070
    73
1070
     1
1070
    44
1040
1.0
1070
    74
1070
     0
1000
MTEXTEND
  0
POINT
  5
9F5B
330
9E6A
100
AcDbEntity
  8
DEFPOINTS
 62
     0
100
AcDbPoint
 10
-34.99981919782953
 20
-309.4996151661657
 30
0.0
  0
POINT
  5
9F5C
330
9E6A
100
AcDbEntity
  8
DEFPOINTS
 62
     0
100
AcDbPoint
 10
0.0
 20
-346.9994214330546
 30
0.0
  0
POINT
  5
9F5D
330
9E6A
100
AcDbEntity
  8
DEFPOINTS
 62
     0
100
AcDbPoint
 10
-0.0000000000000002
 20
-349.7250062623431
 30
0.0
  0
ENDBLK
  5
9E75
330
9E6A
100
AcDbEntity
  8
0
100
AcDbBlockEnd
  0
BLOCK
  5
9E80
330
9E76
100
AcDbEntity
  8
0
100
AcDbBlockBegin
  2
*D8
 70
     1
 10
0.0
 20
0.0
 30
0.0
  3
*D8
  1

  0
LINE
  5
9F43
330
9E76
100
AcDbEntity
  8
30
 62
     0
100
AcDbLine
 10
-17.49990959891464
 20
-301.4996616581523
 30
0.0
 11
-17.49990959891466
 21
-331.1448422481143
 31
0.0
  0
LINE
  5
9F44
330
9E76
100
AcDbEntity
  8
30
 62
     0
100
AcDbLine
 10
17.49990959891488
 20
-301.4996616581523
 30
0.0
 11
17.49990959891488
 21
-331.1448422481143
 31
0.0
  0
LINE
  5
9F45
330
9E76
100
AcDbEntity
  8
30
 62
     0
100
AcDbLine
 10
-15.49990959891466
 20
-330.6448422481143
 30
0.0
 11
15.49990959891488
 21
-330.6448422481143
 31
0.0
  0
INSERT
  5
9F46
330
9E76
100
AcDbEntity
  8
30
 62
     0
100
AcDbBlockReference
  2
_OPEN
 10
-17.49990959891466
 20
-330.6448422481143
 30
0.0
 41
2.0
 42
2.0
 43
2.0
 50
180.0
  0
INSERT
  5
9F47
330
9E76
100
AcDbEntity
  8
30
 62
     0
100
AcDbBlockReference
  2
_OPEN
 10
17.49990959891488
 20
-330.6448422481143
 30
0.0
 41
2.0
 42
2.0
 43
2.0
  0
MTEXT
  5
9F48
330
9E76
100
AcDbEntity
  8
30
 62
     0
100
AcDbMText
 10
0.0000000000001103
 20
-327.6448422481143
 30
0.0
 40
4.0
 41
0.0
 71
     5
 72
     1
  1
\A1;35
1001
ACAD
1000
MTEXTBEGIN
1070
    73
1070
     1
1070
    44
1040
1.0
1070
    74
1070
     0
1000
MTEXTEND
1000
MTEXTBEGIN
1070
    73
1070
     1
1070
    44
1040
1.0
1070
    74
1070
     0
1000
MTEXTEND
  0
POINT
  5
9F49
330
9E76
100
AcDbEntity
  8
DEFPOINTS
 62
     0
100
AcDbPoint
 10
-17.49990959891464
 20
-300.4996616581523
 30
0.0
  0
POINT
  5
9F4A
330
9E76
100
AcDbEntity
  8
DEFPOINTS
 62
     0
100
AcDbPoint
 10
17.49990959891488
 20
-300.4996616581523
 30
0.0
  0
POINT
  5
9F4B
330
9E76
100
AcDbEntity
  8
DEFPOINTS
 62
     0
100
AcDbPoint
 10
17.49990959891488
 20
-330.6448422481143
 30
0.0
  0
ENDBLK
  5
9E81
330
9E76
100
AcDbEntity
  8
0
100
AcDbBlockEnd
  0
BLOCK
  5
9E8C
330
9E82
100
AcDbEntity
  8
0
100
AcDbBlockBegin
  2
*D9
 70
     1
 10
0.0
 20
0.0
 30
0.0
  3
*D9
  1

  0
LINE
  5
9F67
330
9E82
100
AcDbEntity
  8
30
 62
     0
100
AcDbLine
 10
34.99981919782953
 20
-310.4996151661657
 30
0.0
 11
34.99981919782953
 21
-351.2250062623432
 31
0.0
  0
LINE
  5
9F68
330
9E82
100
AcDbEntity
  8
30
 62
     0
100
AcDbLine
 10
69.99963839565907
 20
-310.4996151661657
 30
0.0
 11
69.99963839565907
 21
-351.2250062623432
 31
0.0
  0
LINE
  5
9F69
330
9E82
100
AcDbEntity
  8
30
 62
     0
100
AcDbLine
 10
36.99981919782953
 20
-350.7250062623431
 30
0.0
 11
67.99963839565908
 21
-350.7250062623431
 31
0.0
  0
INSERT
  5
9F6A
330
9E82
100
AcDbEntity
  8
30
 62
     0
100
AcDbBlockReference
  2
_OPEN
 10
34.99981919782953
 20
-350.7250062623431
 30
0.0
 41
2.0
 42
2.0
 43
2.0
 50
180.0
  0
INSERT
  5
9F6B
330
9E82
100
AcDbEntity
  8
30
 62
     0
100
AcDbBlockReference
  2
_OPEN
 10
69.99963839565907
 20
-350.7250062623431
 30
0.0
 41
2.0
 42
2.0
 43
2.0
  0
MTEXT
  5
9F6C
330
9E82
100
AcDbEntity
  8
30
 62
     0
100
AcDbMText
 10
52.4997287967443
 20
-347.7250062623431
 30
0.0
 40
4.0
 41
0.0
 71
     5
 72
     1
  1
\A1;35
1001
ACAD
1000
MTEXTBEGIN
1070
    73
1070
     1
1070
    44
1040
1.0
1070
    74
1070
     0
1000
MTEXTEND
1000
MTEXTBEGIN
1070
    73
1070
     1
1070
    44
1040
1.0
1070
    74
1070
     0
1000
MTEXTEND
  0
POINT
  5
9F6D
330
9E82
100
AcDbEntity
  8
DEFPOINTS
 62
     0
100
AcDbPoint
 10
34.99981919782953
 20
-309.4996151661657
 30
0.0
  0
POINT
  5
9F6E
330
9E82
100
AcDbEntity
  8
DEFPOINTS
 62
     0
100
AcDbPoint
 10
69.99963839565907
 20
-309.4996151661657
 30
0.0
  0
POINT
  5
9F6F
330
9E82
100
AcDbEntity
  8
DEFPOINTS
 62
     0
100
AcDbPoint
 10
69.99963839565907
 20
-350.7250062623431
 30
0.0
  0
ENDBLK
  5
9E8D
330
9E82
100
AcDbEntity
  8
0
100
AcDbBlockEnd
  0
BLOCK
  5
9EF9
330
9EEF
100
AcDbEntity
  8
0
100
AcDbBlockBegin
  2
*D10
 70
     1
 10
0.0
 20
0.0
 30
0.0
  3
*D10
  1

  0
LINE
  5
A78A
330
9EEF
100
AcDbEntity
  8
30
 62
     0
100
AcDbLine
 10
-53.49972879674434
 20
22.49987085559252
 30
0.0
 11
-65.83335521408208
 21
22.49987085559252
 31
0.0
  0
LINE
  5
A78B
330
9EEF
100
AcDbEntity
  8
30
 62
     0
100
AcDbLine
 10
-53.49972879674434
 20
-22.49987085559256
 30
0.0
 11
-65.83335521408208
 21
-22.49987085559256
 31
0.0
  0
LINE
  5
A78C
330
9EEF
100
AcDbEntity
  8
30
 62
     0
100
AcDbLine
 10
-65.33335521408208
 20
20.49987085559252
 30
0.0
 11
-65.33335521408208
 21
-20.49987085559256
 31
0.0
  0
INSERT
  5
A78D
330
9EEF
100
AcDbEntity
  8
30
 62
     0
100
AcDbBlockReference
  2
_OPEN
 10
-65.33335521408208
 20
22.49987085559252
 30
0.0
 41
2.0
 42
2.0
 43
2.0
 50
90.0
  0
INSERT
  5
A78E
330
9EEF
100
AcDbEntity
  8
30
 62
     0
100
AcDbBlockReference
  2
_OPEN
 10
-65.33335521408208
 20
-22.49987085559256
 30
0.0
 41
2.0
 42
2.0
 43
2.0
 50
270.0
  0
MTEXT
  5
A78F
330
9EEF
100
AcDbEntity
  8
30
 62
     0
100
AcDbMText
 10
-68.33335521408208
 20
-0.0000000000000312
 30
0.0
 40
4.0
 41
0.0
 71
     5
 72
     1
  1
\A1;45
 11
0.0000000000000001
 21
1.0
 31
0.0
1001
ACAD
1000
MTEXTBEGIN
1070
    73
1070
     1
1070
    44
1040
1.0
1070
    74
1070
     0
1000
MTEXTEND
  0
POINT
  5
A790
330
9EEF
100
AcDbEntity
  8
DEFPOINTS
 62
     0
100
AcDbPoint
 10
-52.49972879674434
 20
22.49987085559252
 30
0.0
  0
POINT
  5
A791
330
9EEF
100
AcDbEntity
  8
DEFPOINTS
 62
     0
100
AcDbPoint
 10
-52.49972879674434
 20
-22.49987085559256
 30
0.0
  0
POINT
  5
A792
330
9EEF
100
AcDbEntity
  8
DEFPOINTS
 62
     0
100
AcDbPoint
 10
-65.33335521408208
 20
-22.49987085559256
 30
0.0
  0
ENDBLK
  5
9EFA
330
9EEF
100
AcDbEntity
  8
0
100
AcDbBlockEnd
  0
BLOCK
  5
A2F5
330
A2EB
100
AcDbEntity
  8
0
100
AcDbBlockBegin
  2
*D11
 70
     1
 10
0.0
 20
0.0
 30
0.0
  3
*D11
  1

  0
LINE
  5
A56B
330
A2EB
100
AcDbEntity
  8
30
 62
     0
100
AcDbLine
 10
303.6118133903589
 20
-62.00002841176964
 30
0.0
 11
303.6118133903589
 21
-46.04923385056746
 31
0.0
  0
LINE
  5
A56C
330
A2EB
100
AcDbEntity
  8
30
 62
     0
100
AcDbLine
 10
325.6116997432806
 20
-67.5
 30
0.0
 11
325.6116997432806
 21
-46.04923385056746
 31
0.0
  0
LINE
  5
A56D
330
A2EB
100
AcDbEntity
  8
30
 62
     0
100
AcDbLine
 10
305.6118133903589
 20
-46.54923385056746
 30
0.0
 11
323.6116997432806
 21
-46.54923385056746
 31
0.0
  0
INSERT
  5
A56E
330
A2EB
100
AcDbEntity
  8
30
 62
     0
100
AcDbBlockReference
  2
_OPEN
 10
303.6118133903589
 20
-46.54923385056746
 30
0.0
 41
2.0
 42
2.0
 43
2.0
 50
180.0
  0
INSERT
  5
A56F
330
A2EB
100
AcDbEntity
  8
30
 62
     0
100
AcDbBlockReference
  2
_OPEN
 10
325.6116997432806
 20
-46.54923385056746
 30
0.0
 41
2.0
 42
2.0
 43
2.0
  0
MTEXT
  5
A570
330
A2EB
100
AcDbEntity
  8
30
 62
     0
100
AcDbMText
 10
314.6117565668197
 20
-43.54923385056746
 30
0.0
 40
4.0
 41
0.0
 71
     5
 72
     1
  1
\A1;22
1001
ACAD
1000
MTEXTBEGIN
1070
    73
1070
     1
1070
    44
1040
1.0
1070
    74
1070
     0
1000
MTEXTEND
1000
MTEXTBEGIN
1070
    73
1070
     1
1070
    44
1040
1.0
1070
    74
1070
     0
1000
MTEXTEND
  0
POINT
  5
A571
330
A2EB
100
AcDbEntity
  8
DEFPOINTS
 62
     0
100
AcDbPoint
 10
303.6118133903589
 20
-63.00002841176962
 30
0.0
  0
POINT
  5
A572
330
A2EB
100
AcDbEntity
  8
DEFPOINTS
 62
     0
100
AcDbPoint
 10
325.6116997432806
 20
-68.5
 30
0.0
  0
POINT
  5
A573
330
A2EB
100
AcDbEntity
  8
DEFPOINTS
 62
     0
100
AcDbPoint
 10
325.6116997432806
 20
-46.54923385056746
 30
0.0
  0
ENDBLK
  5
A2F6
330
A2EB
100
AcDbEntity
  8
0
100
AcDbBlockEnd
  0
BLOCK
  5
A301
330
A2F7
100
AcDbEntity
  8
0
100
AcDbBlockBegin
  2
*D12
 70
     1
 10
0.0
 20
0.0
 30
0.0
  3
*D12
  1

  0
LINE
  5
A558
330
A2F7
100
AcDbEntity
  8
30
 62
     0
100
AcDbLine
 10
413.869565698677
 20
71.99936460951341
 30
0.0
 11
423.0806151473267
 21
71.99936460951339
 31
0.0
  0
LINE
  5
A559
330
A2F7
100
AcDbEntity
  8
30
 62
     0
100
AcDbLine
 10
400.0658434417577
 20
-71.99989151869889
 30
0.0
 11
423.0806151473267
 21
-71.9998915186989
 31
0.0
  0
LINE
  5
A55A
330
A2F7
100
AcDbEntity
  8
30
 62
     0
100
AcDbLine
 10
422.5806151473267
 20
69.99936460951339
 30
0.0
 11
422.5806151473267
 21
-69.9998915186989
 31
0.0
  0
INSERT
  5
A55B
330
A2F7
100
AcDbEntity
  8
30
 62
     0
100
AcDbBlockReference
  2
_OPEN
 10
422.5806151473267
 20
71.99936460951339
 30
0.0
 41
2.0
 42
2.0
 43
2.0
 50
90.0
  0
INSERT
  5
A55C
330
A2F7
100
AcDbEntity
  8
30
 62
     0
100
AcDbBlockReference
  2
_OPEN
 10
422.5806151473267
 20
-71.9998915186989
 30
0.0
 41
2.0
 42
2.0
 43
2.0
 50
270.0
  0
MTEXT
  5
A55D
330
A2F7
100
AcDbEntity
  8
30
 62
     0
100
AcDbMText
 10
419.5806151473266
 20
-0.0002634545926809
 30
0.0
 40
4.0
 41
0.0
 71
     5
 72
     1
  1
\A1;144
 11
0.0000000000000001
 21
1.0
 31
0.0
1001
ACAD
1000
MTEXTBEGIN
1070
    73
1070
     1
1070
    44
1040
1.0
1070
    74
1070
     0
1000
MTEXTEND
1000
MTEXTBEGIN
1070
    73
1070
     1
1070
    44
1040
1.0
1070
    74
1070
     0
1000
MTEXTEND
  0
POINT
  5
A55E
330
A2F7
100
AcDbEntity
  8
DEFPOINTS
 62
     0
100
AcDbPoint
 10
412.8695656986769
 20
71.99936460951341
 30
0.0
  0
POINT
  5
A55F
330
A2F7
100
AcDbEntity
  8
DEFPOINTS
 62
     0
100
AcDbPoint
 10
399.0658434417578
 20
-71.99989151869889
 30
0.0
  0
POINT
  5
A560
330
A2F7
100
AcDbEntity
  8
DEFPOINTS
 62
     0
100
AcDbPoint
 10
422.5806151473267
 20
-71.9998915186989
 30
0.0
  0
ENDBLK
  5
A302
330
A2F7
100
AcDbEntity
  8
0
100
AcDbBlockEnd
  0
BLOCK
  5
A30D
330
A303
100
AcDbEntity
  8
0
100
AcDbBlockBegin
  2
*D13
 70
     1
 10
0.0
 20
0.0
 30
0.0
  3
*D13
  1

  0
LINE
  5
A4AE
330
A303
100
AcDbEntity
  8
30
 62
     0
100
AcDbLine
 10
373.9319633718064
 20
-63.00002841176935
 30
0.0
 11
406.7963334701714
 21
-63.00002841176937
 31
0.0
  0
LINE
  5
A4AF
330
A303
100
AcDbEntity
  8
30
 62
     0
100
AcDbLine
 10
373.9319633718064
 20
-82.99992509624365
 30
0.0
 11
406.7963334701714
 21
-82.99992509624365
 31
0.0
  0
LINE
  5
A4B0
330
A303
100
AcDbEntity
  8
30
 62
     0
100
AcDbLine
 10
406.2963334701713
 20
-65.00002841176935
 30
0.0
 11
406.2963334701713
 21
-80.99992509624366
 31
0.0
  0
INSERT
  5
A4B1
330
A303
100
AcDbEntity
  8
30
 62
     0
100
AcDbBlockReference
  2
_OPEN
 10
406.2963334701713
 20
-63.00002841176937
 30
0.0
 41
2.0
 42
2.0
 43
2.0
 50
90.0
  0
INSERT
  5
A4B2
330
A303
100
AcDbEntity
  8
30
 62
     0
100
AcDbBlockReference
  2
_OPEN
 10
406.2963334701713
 20
-82.99992509624365
 30
0.0
 41
2.0
 42
2.0
 43
2.0
 50
270.0
  0
MTEXT
  5
A4B3
330
A303
100
AcDbEntity
  8
30
 62
     0
100
AcDbMText
 10
403.2963334701713
 20
-72.99997675400644
 30
0.0
 40
4.0
 41
0.0
 71
     5
 72
     1
  1
\A1;20
 11
0.0000000000000001
 21
1.0
 31
0.0
1001
ACAD
1000
MTEXTBEGIN
1070
    73
1070
     1
1070
    44
1040
1.0
1070
    74
1070
     0
1000
MTEXTEND
1000
MTEXTBEGIN
1070
    73
1070
     1
1070
    44
1040
1.0
1070
    74
1070
     0
1000
MTEXTEND
  0
POINT
  5
A4B4
330
A303
100
AcDbEntity
  8
DEFPOINTS
 62
     0
100
AcDbPoint
 10
372.9319633718064
 20
-63.00002841176935
 30
0.0
  0
POINT
  5
A4B5
330
A303
100
AcDbEntity
  8
DEFPOINTS
 62
     0
100
AcDbPoint
 10
372.9319633718064
 20
-82.99992509624365
 30
0.0
  0
POINT
  5
A4B6
330
A303
100
AcDbEntity
  8
DEFPOINTS
 62
     0
100
AcDbPoint
 10
406.2963334701713
 20
-82.99992509624365
 30
0.0
  0
ENDBLK
  5
A30E
330
A303
100
AcDbEntity
  8
0
100
AcDbBlockEnd
  0
BLOCK
  5
A319
330
A30F
100
AcDbEntity
  8
0
100
AcDbBlockBegin
  2
*D14
 70
     1
 10
0.0
 20
0.0
 30
0.0
  3
*D14
  1

  0
LINE
  5
A781
330
A30F
100
AcDbEntity
  8
30
 62
     0
100
AcDbLine
 10
162.6117565668199
 20
-23.50013431018376
 30
0.0
 11
162.6117565668199
 21
-138.5758941849739
 31
0.0
  0
LINE
  5
A782
330
A30F
100
AcDbEntity
  8
30
 62
     0
100
AcDbLine
 10
269.6119890267496
 20
-84.49992251335549
 30
0.0
 11
269.6119890267496
 21
-138.5758941849739
 31
0.0
  0
LINE
  5
A783
330
A30F
100
AcDbEntity
  8
30
 62
     0
100
AcDbLine
 10
164.6117565668199
 20
-138.0758941849739
 30
0.0
 11
267.6119890267496
 21
-138.0758941849739
 31
0.0
  0
INSERT
  5
A784
330
A30F
100
AcDbEntity
  8
30
 62
     0
100
AcDbBlockReference
  2
_OPEN
 10
162.6117565668199
 20
-138.0758941849739
 30
0.0
 41
2.0
 42
2.0
 43
2.0
 50
180.0
  0
INSERT
  5
A785
330
A30F
100
AcDbEntity
  8
30
 62
     0
100
AcDbBlockReference
  2
_OPEN
 10
269.6119890267496
 20
-138.0758941849739
 30
0.0
 41
2.0
 42
2.0
 43
2.0
  0
MTEXT
  5
A786
330
A30F
100
AcDbEntity
  8
30
 62
     0
100
AcDbMText
 10
216.1118727967847
 20
-135.0758941849739
 30
0.0
 40
4.0
 41
0.0
 71
     5
 72
     1
  1
\A1;107
1001
ACAD
1000
MTEXTBEGIN
1070
    73
1070
     1
1070
    44
1040
1.0
1070
    74
1070
     0
1000
MTEXTEND
  0
POINT
  5
A787
330
A30F
100
AcDbEntity
  8
DEFPOINTS
 62
     0
100
AcDbPoint
 10
162.6117565668199
 20
-22.50013431018377
 30
0.0
  0
POINT
  5
A788
330
A30F
100
AcDbEntity
  8
DEFPOINTS
 62
     0
100
AcDbPoint
 10
269.6119890267496
 20
-83.49992251335548
 30
0.0
  0
POINT
  5
A789
330
A30F
100
AcDbEntity
  8
DEFPOINTS
 62
     0
100
AcDbPoint
 10
269.6119890267496
 20
-138.0758941849739
 30
0.0
  0
ENDBLK
  5
A31A
330
A30F
100
AcDbEntity
  8
0
100
AcDbBlockEnd
  0
BLOCK
  5
A326
330
A31B
100
AcDbEntity
  8
0
100
AcDbBlockBegin
  2
*D15
 70
     1
 10
0.0
 20
0.0
 30
0.0
  3
*D15
  1

  0
LINE
  5
A793
330
A31B
100
AcDbEntity
  8
30
 62
     0
100
AcDbLine
 10
158.611777229925
 20
-23.50013431018376
 30
0.0
 11
158.611777229925
 21
-138.5758941849739
 31
0.0
  0
LINE
  5
A794
330
A31B
100
AcDbEntity
  8
30
 62
     0
100
AcDbLine
 10
162.6117565668199
 20
-23.50013431018376
 30
0.0
 11
162.6117565668199
 21
-138.5758941849739
 31
0.0
  0
LINE
  5
A795
330
A31B
100
AcDbEntity
  8
30
 62
     0
100
AcDbLine
 10
156.611777229925
 20
-138.0758941849739
 30
0.0
 11
154.611777229925
 21
-138.0758941849739
 31
0.0
  0
LINE
  5
A796
330
A31B
100
AcDbEntity
  8
30
 62
     0
100
AcDbLine
 10
164.6117565668199
 20
-138.0758941849739
 30
0.0
 11
171.2784232334866
 21
-138.0758941849739
 31
0.0
  0
INSERT
  5
A797
330
A31B
100
AcDbEntity
  8
30
 62
     0
100
AcDbBlockReference
  2
_OPEN
 10
158.611777229925
 20
-138.0758941849739
 30
0.0
 41
2.0
 42
2.0
 43
2.0
  0
INSERT
  5
A798
330
A31B
100
AcDbEntity
  8
30
 62
     0
100
AcDbBlockReference
  2
_OPEN
 10
162.6117565668199
 20
-138.0758941849739
 30
0.0
 41
2.0
 42
2.0
 43
2.0
 50
180.0
  0
MTEXT
  5
A799
330
A31B
100
AcDbEntity
  8
30
 62
     0
100
AcDbMText
 10
168.9450899001533
 20
-135.0758941849739
 30
0.0
 40
4.0
 41
0.0
 71
     5
 72
     1
  1
\A1;4
1001
ACAD
1000
MTEXTBEGIN
1070
    73
1070
     1
1070
    44
1040
1.0
1070
    74
1070
     0
1000
MTEXTEND
  0
POINT
  5
A79A
330
A31B
100
AcDbEntity
  8
DEFPOINTS
 62
     0
100
AcDbPoint
 10
158.611777229925
 20
-22.50013431018377
 30
0.0
  0
POINT
  5
A79B
330
A31B
100
AcDbEntity
  8
DEFPOINTS
 62
     0
100
AcDbPoint
 10
162.6117565668199
 20
-22.50013431018377
 30
0.0
  0
POINT
  5
A79C
330
A31B
100
AcDbEntity
  8
DEFPOINTS
 62
     0
100
AcDbPoint
 10
162.6117565668199
 20
-138.0758941849739
 30
0.0
  0
ENDBLK
  5
A327
330
A31B
100
AcDbEntity
  8
0
100
AcDbBlockEnd
  0
BLOCK
  5
A332
330
A328
100
AcDbEntity
  8
0
100
AcDbBlockBegin
  2
*D16
 70
     1
 10
0.0
 20
0.0
 30
0.0
  3
*D16
  1

  0
LINE
  5
A4C0
330
A328
100
AcDbEntity
  8
30
 62
     0
100
AcDbLine
 10
142.6118598823459
 20
-3.500250556650428
 30
0.0
 11
142.6118598823459
 21
-153.9001764604196
 31
0.0
  0
LINE
  5
A4C1
330
A328
100
AcDbEntity
  8
30
 62
     0
100
AcDbLine
 10
269.6119890267496
 20
-84.49992251335547
 30
0.0
 11
269.6119890267496
 21
-153.9001764604196
 31
0.0
  0
LINE
  5
A4C2
330
A328
100
AcDbEntity
  8
30
 62
     0
100
AcDbLine
 10
144.6118598823459
 20
-153.4001764604196
 30
0.0
 11
267.6119890267496
 21
-153.4001764604196
 31
0.0
  0
INSERT
  5
A4C3
330
A328
100
AcDbEntity
  8
30
 62
     0
100
AcDbBlockReference
  2
_OPEN
 10
142.6118598823459
 20
-153.4001764604196
 30
0.0
 41
2.0
 42
2.0
 43
2.0
 50
180.0
  0
INSERT
  5
A4C4
330
A328
100
AcDbEntity
  8
30
 62
     0
100
AcDbBlockReference
  2
_OPEN
 10
269.6119890267496
 20
-153.4001764604196
 30
0.0
 41
2.0
 42
2.0
 43
2.0
  0
MTEXT
  5
A4C5
330
A328
100
AcDbEntity
  8
30
 62
     0
100
AcDbMText
 10
206.1119244545478
 20
-150.4001764604196
 30
0.0
 40
4.0
 41
0.0
 71
     5
 72
     1
  1
\A1;127
1001
ACAD
1000
MTEXTBEGIN
1070
    73
1070
     1
1070
    44
1040
1.0
1070
    74
1070
     0
1000
MTEXTEND
1000
MTEXTBEGIN
1070
    73
1070
     1
1070
    44
1040
1.0
1070
    74
1070
     0
1000
MTEXTEND
  0
POINT
  5
A4C6
330
A328
100
AcDbEntity
  8
DEFPOINTS
 62
     0
100
AcDbPoint
 10
142.6118598823459
 20
-2.500250556650428
 30
0.0
  0
POINT
  5
A4C7
330
A328
100
AcDbEntity
  8
DEFPOINTS
 62
     0
100
AcDbPoint
 10
269.6119890267496
 20
-83.49992251335548
 30
0.0
  0
POINT
  5
A4C8
330
A328
100
AcDbEntity
  8
DEFPOINTS
 62
     0
100
AcDbPoint
 10
269.6119890267496
 20
-153.4001764604196
 30
0.0
  0
ENDBLK
  5
A333
330
A328
100
AcDbEntity
  8
0
100
AcDbBlockEnd
  0
BLOCK
  5
A33E
330
A334
100
AcDbEntity
  8
0
100
AcDbBlockBegin
  2
*D17
 70
     1
 10
0.0
 20
0.0
 30
0.0
  3
*D17
  1

  0
LINE
  5
A4D2
330
A334
100
AcDbEntity
  8
30
 62
     0
100
AcDbLine
 10
166.6117359037148
 20
-52.0
 30
0.0
 11
166.6117359037148
 21
-121.7238884618642
 31
0.0
  0
LINE
  5
A4D3
330
A334
100
AcDbEntity
  8
30
 62
     0
100
AcDbLine
 10
269.6119890267496
 20
-84.49992251335547
 30
0.0
 11
269.6119890267496
 21
-121.7238884618642
 31
0.0
  0
LINE
  5
A4D4
330
A334
100
AcDbEntity
  8
30
 62
     0
100
AcDbLine
 10
168.6117359037148
 20
-121.2238884618642
 30
0.0
 11
267.6119890267496
 21
-121.2238884618642
 31
0.0
  0
INSERT
  5
A4D5
330
A334
100
AcDbEntity
  8
30
 62
     0
100
AcDbBlockReference
  2
_OPEN
 10
166.6117359037148
 20
-121.2238884618642
 30
0.0
 41
2.0
 42
2.0
 43
2.0
 50
180.0
  0
INSERT
  5
A4D6
330
A334
100
AcDbEntity
  8
30
 62
     0
100
AcDbBlockReference
  2
_OPEN
 10
269.6119890267496
 20
-121.2238884618642
 30
0.0
 41
2.0
 42
2.0
 43
2.0
  0
MTEXT
  5
A4D7
330
A334
100
AcDbEntity
  8
30
 62
     0
100
AcDbMText
 10
218.1118624652321
 20
-118.2238884618642
 30
0.0
 40
4.0
 41
0.0
 71
     5
 72
     1
  1
\A1;103
1001
ACAD
1000
MTEXTBEGIN
1070
    73
1070
     1
1070
    44
1040
1.0
1070
    74
1070
     0
1000
MTEXTEND
1000
MTEXTBEGIN
1070
    73
1070
     1
1070
    44
1040
1.0
1070
    74
1070
     0
1000
MTEXTEND
  0
POINT
  5
A4D8
330
A334
100
AcDbEntity
  8
DEFPOINTS
 62
     0
100
AcDbPoint
 10
166.6117359037148
 20
-51.0
 30
0.0
  0
POINT
  5
A4D9
330
A334
100
AcDbEntity
  8
DEFPOINTS
 62
     0
100
AcDbPoint
 10
269.6119890267496
 20
-83.49992251335548
 30
0.0
  0
POINT
  5
A4DA
330
A334
100
AcDbEntity
  8
DEFPOINTS
 62
     0
100
AcDbPoint
 10
269.6119890267496
 20
-121.2238884618642
 30
0.0
  0
ENDBLK
  5
A33F
330
A334
100
AcDbEntity
  8
0
100
AcDbBlockEnd
  0
BLOCK
  5
A34A
330
A340
100
AcDbEntity
  8
0
100
AcDbBlockBegin
  2
*D18
 70
     1
 10
0.0
 20
0.0
 30
0.0
  3
*D18
  1

  0
LINE
  5
A4C9
330
A340
100
AcDbEntity
  8
30
 62
     0
100
AcDbLine
 10
173.6116997432806
 20
-83.4998372780466
 30
0.0
 11
173.6116997432806
 21
-106.9088480101338
 31
0.0
  0
LINE
  5
A4CA
330
A340
100
AcDbEntity
  8
30
 62
     0
100
AcDbLine
 10
269.6119890267496
 20
-84.49992251335547
 30
0.0
 11
269.6119890267496
 21
-106.9088480101338
 31
0.0
  0
LINE
  5
A4CB
330
A340
100
AcDbEntity
  8
30
 62
     0
100
AcDbLine
 10
175.6116997432806
 20
-106.4088480101337
 30
0.0
 11
267.6119890267496
 21
-106.4088480101337
 31
0.0
  0
INSERT
  5
A4CC
330
A340
100
AcDbEntity
  8
30
 62
     0
100
AcDbBlockReference
  2
_OPEN
 10
173.6116997432806
 20
-106.4088480101337
 30
0.0
 41
2.0
 42
2.0
 43
2.0
 50
180.0
  0
INSERT
  5
A4CD
330
A340
100
AcDbEntity
  8
30
 62
     0
100
AcDbBlockReference
  2
_OPEN
 10
269.6119890267496
 20
-106.4088480101337
 30
0.0
 41
2.0
 42
2.0
 43
2.0
  0
MTEXT
  5
A4CE
330
A340
100
AcDbEntity
  8
30
 62
     0
100
AcDbMText
 10
221.6118443850151
 20
-103.4088480101337
 30
0.0
 40
4.0
 41
0.0
 71
     5
 72
     1
  1
\A1;96
1001
ACAD
1000
MTEXTBEGIN
1070
    73
1070
     1
1070
    44
1040
1.0
1070
    74
1070
     0
1000
MTEXTEND
1000
MTEXTBEGIN
1070
    73
1070
     1
1070
    44
1040
1.0
1070
    74
1070
     0
1000
MTEXTEND
  0
POINT
  5
A4CF
330
A340
100
AcDbEntity
  8
DEFPOINTS
 62
     0
100
AcDbPoint
 10
173.6116997432806
 20
-82.49983727804661
 30
0.0
  0
POINT
  5
A4D0
330
A340
100
AcDbEntity
  8
DEFPOINTS
 62
     0
100
AcDbPoint
 10
269.6119890267496
 20
-83.49992251335548
 30
0.0
  0
POINT
  5
A4D1
330
A340
100
AcDbEntity
  8
DEFPOINTS
 62
     0
100
AcDbPoint
 10
269.6119890267496
 20
-106.4088480101337
 30
0.0
  0
ENDBLK
  5
A34B
330
A340
100
AcDbEntity
  8
0
100
AcDbBlockEnd
  0
BLOCK
  5
A356
330
A34C
100
AcDbEntity
  8
0
100
AcDbBlockBegin
  2
*D19
 70
     1
 10
0.0
 20
0.0
 30
0.0
  3
*D19
  1

  0
LINE
  5
A480
330
A34C
100
AcDbEntity
  8
30
 62
     0
100
AcDbLine
 10
269.6119890267496
 20
-84.49992251335547
 30
0.0
 11
269.6119890267496
 21
-121.7238884618642
 31
0.0
  0
LINE
  5
A481
330
A34C
100
AcDbEntity
  8
30
 62
     0
100
AcDbLine
 10
375.6114414544621
 20
-73.99997675400664
 30
0.0
 11
375.6114414544621
 21
-121.7238884618642
 31
0.0
  0
LINE
  5
A482
330
A34C
100
AcDbEntity
  8
30
 62
     0
100
AcDbLine
 10
271.6119890267497
 20
-121.2238884618642
 30
0.0
 11
373.6114414544621
 21
-121.2238884618642
 31
0.0
  0
INSERT
  5
A483
330
A34C
100
AcDbEntity
  8
30
 62
     0
100
AcDbBlockReference
  2
_OPEN
 10
269.6119890267496
 20
-121.2238884618642
 30
0.0
 41
2.0
 42
2.0
 43
2.0
 50
180.0
  0
INSERT
  5
A484
330
A34C
100
AcDbEntity
  8
30
 62
     0
100
AcDbBlockReference
  2
_OPEN
 10
375.6114414544621
 20
-121.2238884618642
 30
0.0
 41
2.0
 42
2.0
 43
2.0
  0
MTEXT
  5
A485
330
A34C
100
AcDbEntity
  8
30
 62
     0
100
AcDbMText
 10
322.6117152406058
 20
-118.2238884618642
 30
0.0
 40
4.0
 41
0.0
 71
     5
 72
     1
  1
\A1;106
1001
ACAD
1000
MTEXTBEGIN
1070
    73
1070
     1
1070
    44
1040
1.0
1070
    74
1070
     0
1000
MTEXTEND
1000
MTEXTBEGIN
1070
    73
1070
     1
1070
    44
1040
1.0
1070
    74
1070
     0
1000
MTEXTEND
  0
POINT
  5
A486
330
A34C
100
AcDbEntity
  8
DEFPOINTS
 62
     0
100
AcDbPoint
 10
269.6119890267496
 20
-83.49992251335548
 30
0.0
  0
POINT
  5
A487
330
A34C
100
AcDbEntity
  8
DEFPOINTS
 62
     0
100
AcDbPoint
 10
375.6114414544621
 20
-72.99997675400664
 30
0.0
  0
POINT
  5
A488
330
A34C
100
AcDbEntity
  8
DEFPOINTS
 62
     0
100
AcDbPoint
 10
375.6114414544621
 20
-121.2238884618642
 30
0.0
  0
ENDBLK
  5
A357
330
A34C
100
AcDbEntity
  8
0
100
AcDbBlockEnd
  0
BLOCK
  5
A362
330
A358
100
AcDbEntity
  8
0
100
AcDbBlockBegin
  2
*D20
 70
     1
 10
0.0
 20
0.0
 30
0.0
  3
*D20
  1

  0
LINE
  5
A489
330
A358
100
AcDbEntity
  8
30
 62
     0
100
AcDbLine
 10
360.6115189411065
 20
-76.49996385606581
 30
0.0
 11
360.6115189411065
 21
-97.18622174859364
 31
0.0
  0
LINE
  5
A48A
330
A358
100
AcDbEntity
  8
30
 62
     0
100
AcDbLine
 10
375.6114414544621
 20
-84.30768760646387
 30
0.0
 11
375.6114414544621
 21
-97.18622174859364
 31
0.0
  0
LINE
  5
A48B
330
A358
100
AcDbEntity
  8
30
 62
     0
100
AcDbLine
 10
362.6115189411065
 20
-96.68622174859365
 30
0.0
 11
373.6114414544621
 21
-96.68622174859365
 31
0.0
  0
INSERT
  5
A48C
330
A358
100
AcDbEntity
  8
30
 62
     0
100
AcDbBlockReference
  2
_OPEN
 10
360.6115189411065
 20
-96.68622174859365
 30
0.0
 41
2.0
 42
2.0
 43
2.0
 50
180.0
  0
INSERT
  5
A48D
330
A358
100
AcDbEntity
  8
30
 62
     0
100
AcDbBlockReference
  2
_OPEN
 10
375.6114414544621
 20
-96.68622174859365
 30
0.0
 41
2.0
 42
2.0
 43
2.0
  0
MTEXT
  5
A48E
330
A358
100
AcDbEntity
  8
30
 62
     0
100
AcDbMText
 10
368.1114801977843
 20
-93.68622174859366
 30
0.0
 40
4.0
 41
0.0
 71
     5
 72
     1
  1
\A1;15
1001
ACAD
1000
MTEXTBEGIN
1070
    73
1070
     1
1070
    44
1040
1.0
1070
    74
1070
     0
1000
MTEXTEND
1000
MTEXTBEGIN
1070
    73
1070
     1
1070
    44
1040
1.0
1070
    74
1070
     0
1000
MTEXTEND
  0
POINT
  5
A48F
330
A358
100
AcDbEntity
  8
DEFPOINTS
 62
     0
100
AcDbPoint
 10
360.6115189411065
 20
-75.4999638560658
 30
0.0
  0
POINT
  5
A490
330
A358
100
AcDbEntity
  8
DEFPOINTS
 62
     0
100
AcDbPoint
 10
375.6114414544621
 20
-83.30768760646387
 30
0.0
  0
POINT
  5
A491
330
A358
100
AcDbEntity
  8
DEFPOINTS
 62
     0
100
AcDbPoint
 10
375.6114414544621
 20
-96.68622174859365
 30
0.0
  0
ENDBLK
  5
A363
330
A358
100
AcDbEntity
  8
0
100
AcDbBlockEnd
  0
BLOCK
  5
A36E
330
A364
100
AcDbEntity
  8
0
100
AcDbBlockBegin
  2
*D21
 70
     1
 10
0.0
 20
0.0
 30
0.0
  3
*D21
  1

  0
LINE
  5
A477
330
A364
100
AcDbEntity
  8
30
 62
     0
100
AcDbLine
 10
269.6119890267496
 20
-84.49992251335547
 30
0.0
 11
269.6119890267496
 21
-106.9088480101338
 31
0.0
  0
LINE
  5
A478
330
A364
100
AcDbEntity
  8
30
 62
     0
100
AcDbLine
 10
340.6116222566323
 20
-73.99997675400664
 30
0.0
 11
340.6116222566323
 21
-106.9088480101338
 31
0.0
  0
LINE
  5
A479
330
A364
100
AcDbEntity
  8
30
 62
     0
100
AcDbLine
 10
271.6119890267497
 20
-106.4088480101337
 30
0.0
 11
338.6116222566323
 21
-106.4088480101337
 31
0.0
  0
INSERT
  5
A47A
330
A364
100
AcDbEntity
  8
30
 62
     0
100
AcDbBlockReference
  2
_OPEN
 10
269.6119890267496
 20
-106.4088480101337
 30
0.0
 41
2.0
 42
2.0
 43
2.0
 50
180.0
  0
INSERT
  5
A47B
330
A364
100
AcDbEntity
  8
30
 62
     0
100
AcDbBlockReference
  2
_OPEN
 10
340.6116222566323
 20
-106.4088480101337
 30
0.0
 41
2.0
 42
2.0
 43
2.0
  0
MTEXT
  5
A47C
330
A364
100
AcDbEntity
  8
30
 62
     0
100
AcDbMText
 10
305.111805641691
 20
-103.4088480101337
 30
0.0
 40
4.0
 41
0.0
 71
     5
 72
     1
  1
\A1;71
1001
ACAD
1000
MTEXTBEGIN
1070
    73
1070
     1
1070
    44
1040
1.0
1070
    74
1070
     0
1000
MTEXTEND
1000
MTEXTBEGIN
1070
    73
1070
     1
1070
    44
1040
1.0
1070
    74
1070
     0
1000
MTEXTEND
  0
POINT
  5
A47D
330
A364
100
AcDbEntity
  8
DEFPOINTS
 62
     0
100
AcDbPoint
 10
269.6119890267496
 20
-83.49992251335548
 30
0.0
  0
POINT
  5
A47E
330
A364
100
AcDbEntity
  8
DEFPOINTS
 62
     0
100
AcDbPoint
 10
340.6116222566323
 20
-72.99997675400664
 30
0.0
  0
POINT
  5
A47F
330
A364
100
AcDbEntity
  8
DEFPOINTS
 62
     0
100
AcDbPoint
 10
340.6116222566323
 20
-106.4088480101337
 30
0.0
  0
ENDBLK
  5
A36F
330
A364
100
AcDbEntity
  8
0
100
AcDbBlockEnd
  0
BLOCK
  5
A37A
330
A370
100
AcDbEntity
  8
0
100
AcDbBlockBegin
  2
*D22
 70
     1
 10
0.0
 20
0.0
 30
0.0
  3
*D22
  1

  0
LINE
  5
A492
330
A370
100
AcDbEntity
  8
30
 62
     0
100
AcDbLine
 10
325.6116997432768
 20
-76.49996385606581
 30
0.0
 11
325.6116997432768
 21
-97.18622174859364
 31
0.0
  0
LINE
  5
A493
330
A370
100
AcDbEntity
  8
30
 62
     0
100
AcDbLine
 10
340.6116222566323
 20
-84.30768760646387
 30
0.0
 11
340.6116222566323
 21
-97.18622174859364
 31
0.0
  0
LINE
  5
A494
330
A370
100
AcDbEntity
  8
30
 62
     0
100
AcDbLine
 10
327.6116997432768
 20
-96.68622174859365
 30
0.0
 11
338.6116222566323
 21
-96.68622174859365
 31
0.0
  0
INSERT
  5
A495
330
A370
100
AcDbEntity
  8
30
 62
     0
100
AcDbBlockReference
  2
_OPEN
 10
325.6116997432768
 20
-96.68622174859365
 30
0.0
 41
2.0
 42
2.0
 43
2.0
 50
180.0
  0
INSERT
  5
A496
330
A370
100
AcDbEntity
  8
30
 62
     0
100
AcDbBlockReference
  2
_OPEN
 10
340.6116222566323
 20
-96.68622174859365
 30
0.0
 41
2.0
 42
2.0
 43
2.0
  0
MTEXT
  5
A497
330
A370
100
AcDbEntity
  8
30
 62
     0
100
AcDbMText
 10
333.1116609999546
 20
-93.68622174859366
 30
0.0
 40
4.0
 41
0.0
 71
     5
 72
     1
  1
\A1;15
1001
ACAD
1000
MTEXTBEGIN
1070
    73
1070
     1
1070
    44
1040
1.0
1070
    74
1070
     0
1000
MTEXTEND
1000
MTEXTBEGIN
1070
    73
1070
     1
1070
    44
1040
1.0
1070
    74
1070
     0
1000
MTEXTEND
  0
POINT
  5
A498
330
A370
100
AcDbEntity
  8
DEFPOINTS
 62
     0
100
AcDbPoint
 10
325.6116997432768
 20
-75.4999638560658
 30
0.0
  0
POINT
  5
A499
330
A370
100
AcDbEntity
  8
DEFPOINTS
 62
     0
100
AcDbPoint
 10
340.6116222566323
 20
-83.30768760646387
 30
0.0
  0
POINT
  5
A49A
330
A370
100
AcDbEntity
  8
DEFPOINTS
 62
     0
100
AcDbPoint
 10
340.6116222566323
 20
-96.68622174859365
 30
0.0
  0
ENDBLK
  5
A37B
330
A370
100
AcDbEntity
  8
0
100
AcDbBlockEnd
  0
BLOCK
  5
A387
330
A37C
100
AcDbEntity
  8
0
100
AcDbBlockBegin
  2
*D23
 70
     1
 10
0.0
 20
0.0
 30
0.0
  3
*D23
  1

  0
LINE
  5
A54E
330
A37C
100
AcDbEntity
  8
30
 62
     0
100
AcDbLine
 10
376.8786689800605
 20
69.00003099465777
 30
0.0
 11
411.6254964760215
 21
69.00003099465777
 31
0.0
  0
LINE
  5
A54F
330
A37C
100
AcDbEntity
  8
30
 62
     0
100
AcDbLine
 10
376.8786689800605
 20
75.0
 30
0.0
 11
411.6254964760215
 21
75.0
 31
0.0
  0
LINE
  5
A550
330
A37C
100
AcDbEntity
  8
30
 62
     0
100
AcDbLine
 10
411.1254964760215
 20
67.00003099465778
 30
0.0
 11
411.1254964760215
 21
65.00003099465778
 31
0.0
  0
LINE
  5
A551
330
A37C
100
AcDbEntity
  8
30
 62
     0
100
AcDbLine
 10
411.1254964760215
 20
77.0
 30
0.0
 11
411.1254964760215
 21
79.0
 31
0.0
  0
INSERT
  5
A552
330
A37C
100
AcDbEntity
  8
30
 62
     0
100
AcDbBlockReference
  2
_OPEN
 10
411.1254964760215
 20
69.00003099465777
 30
0.0
 41
2.0
 42
2.0
 43
2.0
 50
90.0
  0
INSERT
  5
A553
330
A37C
100
AcDbEntity
  8
30
 62
     0
100
AcDbBlockReference
  2
_OPEN
 10
411.1254964760215
 20
75.0
 30
0.0
 41
2.0
 42
2.0
 43
2.0
 50
270.0
  0
MTEXT
  5
A554
330
A37C
100
AcDbEntity
  8
30
 62
     0
100
AcDbMText
 10
408.1254964760216
 20
72.00001549732895
 30
0.0
 40
4.0
 41
0.0
 71
     5
 72
     1
  1
\A1;6
 11
0.0000000000000001
 21
1.0
 31
0.0
1001
ACAD
1000
MTEXTBEGIN
1070
    73
1070
     1
1070
    44
1040
1.0
1070
    74
1070
     0
1000
MTEXTEND
1000
MTEXTBEGIN
1070
    73
1070
     1
1070
    44
1040
1.0
1070
    74
1070
     0
1000
MTEXTEND
  0
POINT
  5
A555
330
A37C
100
AcDbEntity
  8
DEFPOINTS
 62
     0
100
AcDbPoint
 10
375.8786689800605
 20
69.00003099465777
 30
0.0
  0
POINT
  5
A556
330
A37C
100
AcDbEntity
  8
DEFPOINTS
 62
     0
100
AcDbPoint
 10
375.8786689800605
 20
75.0
 30
0.0
  0
POINT
  5
A557
330
A37C
100
AcDbEntity
  8
DEFPOINTS
 62
     0
100
AcDbPoint
 10
411.1254964760215
 20
75.0
 30
0.0
  0
ENDBLK
  5
A388
330
A37C
100
AcDbEntity
  8
0
100
AcDbBlockEnd
  0
BLOCK
  5
A670
330
A666
100
AcDbEntity
  8
0
100
AcDbBlockBegin
  2
*D24
 70
     1
 10
0.0
 20
0.0
 30
0.0
  3
*D24
  1

  0
LINE
  5
A809
330
A666
100
AcDbEntity
  8
30
 62
     0
100
AcDbLine
 10
-52.4992767913184
 20
155.7932906240166
 30
0.0
 11
-52.4992767913184
 21
122.066929921675
 31
0.0
  0
LINE
  5
A80A
330
A666
100
AcDbEntity
  8
30
 62
     0
100
AcDbLine
 10
87.5
 20
155.7932906240165
 30
0.0
 11
87.5
 21
122.066929921675
 31
0.0
  0
LINE
  5
A80B
330
A666
100
AcDbEntity
  8
30
 62
     0
100
AcDbLine
 10
-50.49927679131839
 20
122.5669299216751
 30
0.0
 11
85.5
 21
122.5669299216751
 31
0.0
  0
INSERT
  5
A80C
330
A666
100
AcDbEntity
  8
30
 62
     0
100
AcDbBlockReference
  2
_OPEN
 10
-52.4992767913184
 20
122.5669299216751
 30
0.0
 41
2.0
 42
2.0
 43
2.0
 50
180.0
  0
INSERT
  5
A80D
330
A666
100
AcDbEntity
  8
30
 62
     0
100
AcDbBlockReference
  2
_OPEN
 10
87.5
 20
122.5669299216751
 30
0.0
 41
2.0
 42
2.0
 43
2.0
  0
MTEXT
  5
A80E
330
A666
100
AcDbEntity
  8
30
 62
     0
100
AcDbMText
 10
17.5003616043408
 20
125.5669299216751
 30
0.0
 40
4.0
 41
0.0
 71
     5
 72
     1
  1
\A1;140
  0
POINT
  5
A80F
330
A666
100
AcDbEntity
  8
DEFPOINTS
 62
     0
100
AcDbPoint
 10
-52.4992767913184
 20
156.7932906240166
 30
0.0
  0
POINT
  5
A810
330
A666
100
AcDbEntity
  8
DEFPOINTS
 62
     0
100
AcDbPoint
 10
87.5
 20
156.7932906240165
 30
0.0
  0
POINT
  5
A811
330
A666
100
AcDbEntity
  8
DEFPOINTS
 62
     0
100
AcDbPoint
 10
87.5
 20
122.5669299216751
 30
0.0
  0
ENDBLK
  5
A671
330
A666
100
AcDbEntity
  8
0
100
AcDbBlockEnd
  0
BLOCK
  5
A67C
330
A672
100
AcDbEntity
  8
0
100
AcDbBlockBegin
  2
*D25
 70
     1
 10
0.0
 20
0.0
 30
0.0
  3
*D25
  1

  0
LINE
  5
A6D5
330
A672
100
AcDbEntity
  8
30
 62
     0
100
AcDbLine
 10
-34.99936719240361
 20
346.0400414430429
 30
0.0
 11
-34.99936719240361
 21
387.9338958056117
 31
0.0
  0
LINE
  5
A6D6
330
A672
100
AcDbEntity
  8
30
 62
     0
100
AcDbLine
 10
0.000452005426098
 20
377.5398787210893
 30
0.0
 11
0.0004520054260986
 21
387.9338958056117
 31
0.0
  0
LINE
  5
A6D7
330
A672
100
AcDbEntity
  8
30
 62
     0
100
AcDbLine
 10
-32.99936719240361
 20
387.4338958056117
 30
0.0
 11
-1.999547994573901
 21
387.4338958056117
 31
0.0
  0
INSERT
  5
A6D8
330
A672
100
AcDbEntity
  8
30
 62
     0
100
AcDbBlockReference
  2
_OPEN
 10
-34.99936719240361
 20
387.4338958056117
 30
0.0
 41
2.0
 42
2.0
 43
2.0
 50
180.0
  0
INSERT
  5
A6D9
330
A672
100
AcDbEntity
  8
30
 62
     0
100
AcDbBlockReference
  2
_OPEN
 10
0.0004520054260986
 20
387.4338958056117
 30
0.0
 41
2.0
 42
2.0
 43
2.0
  0
MTEXT
  5
A6DA
330
A672
100
AcDbEntity
  8
30
 62
     0
100
AcDbMText
 10
-17.49945759348874
 20
390.4338958056117
 30
0.0
 40
4.0
 41
0.0
 71
     5
 72
     1
  1
\A1;35
1001
ACAD
1000
MTEXTBEGIN
1070
    73
1070
     1
1070
    44
1040
1.0
1070
    74
1070
     0
1000
MTEXTEND
1000
MTEXTBEGIN
1070
    73
1070
     1
1070
    44
1040
1.0
1070
    74
1070
     0
1000
MTEXTEND
  0
POINT
  5
A6DB
330
A672
100
AcDbEntity
  8
DEFPOINTS
 62
     0
100
AcDbPoint
 10
-34.99936719240361
 20
345.0400414430429
 30
0.0
  0
POINT
  5
A6DC
330
A672
100
AcDbEntity
  8
DEFPOINTS
 62
     0
100
AcDbPoint
 10
0.0004520054260979
 20
376.5398787210893
 30
0.0
  0
POINT
  5
A6DD
330
A672
100
AcDbEntity
  8
DEFPOINTS
 62
     0
100
AcDbPoint
 10
0.0004520054260986
 20
387.4338958056117
 30
0.0
  0
ENDBLK
  5
A67D
330
A672
100
AcDbEntity
  8
0
100
AcDbBlockEnd
  0
BLOCK
  5
A688
330
A67E
100
AcDbEntity
  8
0
100
AcDbBlockBegin
  2
*D26
 70
     1
 10
0.0
 20
0.0
 30
0.0
  3
*D26
  1

  0
LINE
  5
A81B
330
A67E
100
AcDbEntity
  8
30
 62
     0
100
AcDbLine
 10
0.000452005426098
 20
377.5398787210893
 30
0.0
 11
0.0004520054260986
 21
387.9338958056117
 31
0.0
  0
LINE
  5
A81C
330
A67E
100
AcDbEntity
  8
30
 62
     0
100
AcDbLine
 10
35.00027120325569
 20
346.0400414430429
 30
0.0
 11
35.00027120325569
 21
387.9338958056117
 31
0.0
  0
LINE
  5
A81D
330
A67E
100
AcDbEntity
  8
30
 62
     0
100
AcDbLine
 10
2.000452005426098
 20
387.4338958056117
 30
0.0
 11
33.00027120325569
 21
387.4338958056117
 31
0.0
  0
INSERT
  5
A81E
330
A67E
100
AcDbEntity
  8
30
 62
     0
100
AcDbBlockReference
  2
_OPEN
 10
0.0004520054260986
 20
387.4338958056117
 30
0.0
 41
2.0
 42
2.0
 43
2.0
 50
180.0
  0
INSERT
  5
A81F
330
A67E
100
AcDbEntity
  8
30
 62
     0
100
AcDbBlockReference
  2
_OPEN
 10
35.00027120325569
 20
387.4338958056117
 30
0.0
 41
2.0
 42
2.0
 43
2.0
  0
MTEXT
  5
A820
330
A67E
100
AcDbEntity
  8
30
 62
     0
100
AcDbMText
 10
17.50036160434089
 20
390.4338958056117
 30
0.0
 40
4.0
 41
0.0
 71
     5
 72
     1
  1
\A1;35
  0
POINT
  5
A821
330
A67E
100
AcDbEntity
  8
DEFPOINTS
 62
     0
100
AcDbPoint
 10
0.0004520054260979
 20
376.5398787210893
 30
0.0
  0
POINT
  5
A822
330
A67E
100
AcDbEntity
  8
DEFPOINTS
 62
     0
100
AcDbPoint
 10
35.00027120325569
 20
345.0400414430429
 30
0.0
  0
POINT
  5
A823
330
A67E
100
AcDbEntity
  8
DEFPOINTS
 62
     0
100
AcDbPoint
 10
35.00027120325569
 20
387.4338958056117
 30
0.0
  0
ENDBLK
  5
A689
330
A67E
100
AcDbEntity
  8
0
100
AcDbBlockEnd
  0
BLOCK
  5
A694
330
A68A
100
AcDbEntity
  8
0
100
AcDbBlockBegin
  2
*D27
 70
     1
 10
0.0
 20
0.0
 30
0.0
  3
*D27
  1

  0
LINE
  5
A812
330
A68A
100
AcDbEntity
  8
30
 62
     0
100
AcDbLine
 10
35.00027120325569
 20
346.0400414430429
 30
0.0
 11
35.00027120325569
 21
387.9338958056117
 31
0.0
  0
LINE
  5
A813
330
A68A
100
AcDbEntity
  8
30
 62
     0
100
AcDbLine
 10
70.00009040108523
 20
382.5398528922077
 30
0.0
 11
70.00009040108523
 21
387.9338958056117
 31
0.0
  0
LINE
  5
A814
330
A68A
100
AcDbEntity
  8
30
 62
     0
100
AcDbLine
 10
37.00027120325569
 20
387.4338958056117
 30
0.0
 11
68.00009040108523
 21
387.4338958056117
 31
0.0
  0
INSERT
  5
A815
330
A68A
100
AcDbEntity
  8
30
 62
     0
100
AcDbBlockReference
  2
_OPEN
 10
35.00027120325569
 20
387.4338958056117
 30
0.0
 41
2.0
 42
2.0
 43
2.0
 50
180.0
  0
INSERT
  5
A816
330
A68A
100
AcDbEntity
  8
30
 62
     0
100
AcDbBlockReference
  2
_OPEN
 10
70.00009040108523
 20
387.4338958056117
 30
0.0
 41
2.0
 42
2.0
 43
2.0
  0
MTEXT
  5
A817
330
A68A
100
AcDbEntity
  8
30
 62
     0
100
AcDbMText
 10
52.50018080217046
 20
390.4338958056117
 30
0.0
 40
4.0
 41
0.0
 71
     5
 72
     1
  1
\A1;35
  0
POINT
  5
A818
330
A68A
100
AcDbEntity
  8
DEFPOINTS
 62
     0
100
AcDbPoint
 10
35.00027120325569
 20
345.0400414430429
 30
0.0
  0
POINT
  5
A819
330
A68A
100
AcDbEntity
  8
DEFPOINTS
 62
     0
100
AcDbPoint
 10
70.00009040108523
 20
381.5398528922077
 30
0.0
  0
POINT
  5
A81A
330
A68A
100
AcDbEntity
  8
DEFPOINTS
 62
     0
100
AcDbPoint
 10
70.00009040108523
 20
387.4338958056117
 30
0.0
  0
ENDBLK
  5
A695
330
A68A
100
AcDbEntity
  8
0
100
AcDbBlockEnd
  0
BLOCK
  5
A6E9
330
A6DF
100
AcDbEntity
  8
0
100
AcDbBlockBegin
  2
*D28
 70
     1
 10
0.0
 20
0.0
 30
0.0
  3
*D28
  1

  0
LINE
  5
A824
330
A6DF
100
AcDbEntity
  8
30
 62
     0
100
AcDbLine
 10
20.50035127278829
 20
271.7932492978062
 30
0.0
 11
125.4968158729645
 21
271.7932492978062
 31
0.0
  0
LINE
  5
A825
330
A6DF
100
AcDbEntity
  8
30
 62
     0
100
AcDbLine
 10
108.4998966844739
 20
263.7932906240166
 30
0.0
 11
125.4968158729645
 21
263.7932906240166
 31
0.0
  0
LINE
  5
A826
330
A6DF
100
AcDbEntity
  8
30
 62
     0
100
AcDbLine
 10
124.9968158729645
 20
269.7932492978062
 30
0.0
 11
124.9968158729645
 21
265.7932906240166
 31
0.0
  0
INSERT
  5
A827
330
A6DF
100
AcDbEntity
  8
30
 62
     0
100
AcDbBlockReference
  2
_OPEN
 10
124.9968158729645
 20
271.7932492978062
 30
0.0
 41
2.0
 42
2.0
 43
2.0
 50
90.0
  0
INSERT
  5
A828
330
A6DF
100
AcDbEntity
  8
30
 62
     0
100
AcDbBlockReference
  2
_OPEN
 10
124.9968158729645
 20
263.7932906240166
 30
0.0
 41
2.0
 42
2.0
 43
2.0
 50
270.0
  0
MTEXT
  5
A829
330
A6DF
100
AcDbEntity
  8
30
 62
     0
100
AcDbMText
 10
121.9968158729645
 20
267.7932699609113
 30
0.0
 40
4.0
 41
0.0
 71
     5
 72
     1
  1
\A1;8
 11
0.0000000000000001
 21
1.0
 31
0.0
  0
POINT
  5
A82A
330
A6DF
100
AcDbEntity
  8
DEFPOINTS
 62
     0
100
AcDbPoint
 10
19.50035127278828
 20
271.7932492978062
 30
0.0
  0
POINT
  5
A82B
330
A6DF
100
AcDbEntity
  8
DEFPOINTS
 62
     0
100
AcDbPoint
 10
107.4998966844739
 20
263.7932906240166
 30
0.0
  0
POINT
  5
A82C
330
A6DF
100
AcDbEntity
  8
DEFPOINTS
 62
     0
100
AcDbPoint
 10
124.9968158729645
 20
263.7932906240166
 30
0.0
  0
ENDBLK
  5
A6EA
330
A6DF
100
AcDbEntity
  8
0
100
AcDbBlockEnd
  0
ENDSEC
  0
SECTION
  2
ENTITIES
  0
LINE
  5
B4
330
1E
100
AcDbEntity
  8
16
100
AcDbLine
 10
0.0
 20
-105.0883879261506
 30
0.0
 11
0.0
 21
86.25
 31
0.0
  0
LINE
  5
B5
330
1E
100
AcDbEntity
  8
16
100
AcDbLine
 10
89.74013214434672
 20
0.0000000000000089
 30
0.0
 11
-56.60868885537141
 21
0.0
 31
0.0
  0
MTEXT
  5
BF3
330
1E
100
AcDbEntity
  8
24
  6
CONTINUOUS
100
AcDbMText
 10
142.1181906098743
 20
192.5
 30
0.0
 40
3.0
 41
0.0
 71
     1
 72
     1
  1
\A1;
1001
ACAD
1000
MTEXTBEGIN
1070
    73
1070
     1
1070
    44
1040
1.0
1070
    74
1070
     0
1000
MTEXTEND
1000
MTEXTBEGIN
1070
    73
1070
     1
1070
    44
1040
1.0
1070
    74
1070
     0
1000
MTEXTEND
  0
LINE
  5
1C9A
330
1E
100
AcDbEntity
  8
16
100
AcDbLine
 10
0.0
 20
126.8811670622457
 30
0.0
 11
0.0
 21
269.3811670622458
 31
0.0
  0
LINE
  5
1C9B
330
1E
100
AcDbEntity
  8
16
100
AcDbLine
 10
280.529464512613
 20
0.0
 30
0.0
 11
121.0450763366921
 21
0.0
 31
0.0
  0
LINE
  5
2260
330
1E
100
AcDbEntity
  8
16
100
AcDbLine
 10
89.90743607736431
 20
-235.0
 30
0.0
 11
-67.93042662644572
 21
-235.0
 31
0.0
  0
LINE
  5
2261
330
1E
100
AcDbEntity
  8
16
100
AcDbLine
 10
0.0
 20
-317.4374692359974
 30
0.0
 11
0.0
 21
-149.5
 31
0.0
  0
LEADER
  5
92DA
330
1E
100
AcDbEntity
  8
30
100
AcDbLeader
  3
STANDARD
 76
     3
 10
-17.54378491053535
 20
-166.5490984563776
 30
0.0
 10
-24.6222311397928
 20
-139.6055030113512
 30
0.0
 10
-37.77707622258275
 20
-139.6055030113512
 30
0.0
1001
ACAD
1000
DSTYLE
1002
{
1070
     5
1000
OPEN
1070
    77
1070
     0
1070
    79
1070
     3
1070
   147
1040
1.0
1070
   342
1005
3B2
1002
}
  0
TEXT
  5
92DB
330
1E
100
AcDbEntity
  8
30
100
AcDbText
 10
-36.44830264495293
 20
-138.9418781241207
 30
0.0
 40
5.0
  1
M4
  7
STANDARD1
100
AcDbText
  0
LINE
  5
9764
330
1E
100
AcDbEntity
  8
10
100
AcDbLine
 10
-52.49972879674435
 20
-82.4995738234554
 30
0.0
 11
87.49954799457389
 21
-82.4995738234554
 31
0.0
  0
LINE
  5
9765
330
1E
100
AcDbEntity
  8
10
100
AcDbLine
 10
87.49954799457389
 20
82.49957382345536
 30
0.0
 11
-52.49972879674435
 21
82.49957382345536
 31
0.0
  0
LINE
  5
9766
330
1E
100
AcDbEntity
  8
10
100
AcDbLine
 10
-52.49972879674435
 20
50.99973654540878
 30
0.0
 11
87.49954799457389
 21
50.99973654540878
 31
0.0
  0
LINE
  5
9767
330
1E
100
AcDbEntity
  8
10
100
AcDbLine
 10
-52.49972879674435
 20
-50.99973654540878
 30
0.0
 11
87.49954799457389
 21
-50.99973654540878
 31
0.0
  0
LINE
  5
9769
330
1E
100
AcDbEntity
  8
17
100
AcDbLine
 10
76.99960223522507
 20
71.99962806410656
 30
0.0
 11
62.99967455609325
 21
71.99962806410656
 31
0.0
  0
LINE
  5
976A
330
1E
100
AcDbEntity
  8
10
100
AcDbLine
 10
62.99967455609325
 20
59.99969005342205
 30
0.0
 11
76.99960223522507
 21
59.99969005342205
 31
0.0
  0
LINE
  5
976B
330
1E
100
AcDbEntity
  8
17
100
AcDbLine
 10
76.99960223522507
 20
-71.99962806410656
 30
0.0
 11
62.99967455609325
 21
-71.99962806410656
 31
0.0
  0
LINE
  5
976C
330
1E
100
AcDbEntity
  8
10
100
AcDbLine
 10
62.99967455609325
 20
-59.99969005342212
 30
0.0
 11
76.99960223522507
 21
-59.99969005342212
 31
0.0
  0
CIRCLE
  5
976D
330
1E
100
AcDbEntity
  8
10
100
AcDbCircle
 10
69.99963839565912
 20
36.749810157721
 30
0.0
 40
7.999958673789612
  0
DIMENSION
  5
9770
330
1E
100
AcDbEntity
  8
30
100
AcDbDimension
  2
*D1
 10
87.49954799457388
 20
-100.662738286761
 30
0.0
 11
17.49990959891476
 21
-97.66273828676121
 31
0.0
 70
    32
  3
STANDARD
100
AcDbAlignedDimension
 13
-52.49972879674435
 23
-82.4995738234554
 33
0.0
 14
87.49954799457388
 24
-82.4995738234554
 34
0.0
 50
180.0
100
AcDbRotatedDimension
  0
LINE
  5
9771
330
1E
100
AcDbEntity
  8
10
100
AcDbLine
 10
-52.49972879674435
 20
82.49957382345536
 30
0.0
 11
-52.49972879674435
 21
-82.4995738234554
 31
0.0
  0
ARC
  5
9773
330
1E
100
AcDbEntity
  8
10
100
AcDbCircle
 10
41.99978303739546
 20
-64.99966422454061
 30
0.0
 40
4.999974171118507
210
0.0
220
0.0
230
-1.0
100
AcDbArc
 50
0.0
 51
90.0
  0
LINE
  5
9774
330
1E
100
AcDbEntity
  8
10
100
AcDbLine
 10
-46.99975720851396
 20
-82.4995738234554
 30
0.0
 11
-46.99975720851396
 21
-64.99966422454061
 31
0.0
  0
ARC
  5
9775
330
1E
100
AcDbEntity
  8
10
100
AcDbCircle
 10
-6.999963839565991
 20
-64.99966422454061
 30
0.0
 40
4.999974171118507
210
0.0
220
0.0
230
-1.0
100
AcDbArc
 50
90.0
 51
180.0
  0
LINE
  5
9776
330
1E
100
AcDbEntity
  8
12
100
AcDbLine
 10
-22.99988118714505
 20
-62.99967455609319
 30
0.0
 11
-11.99993801068435
 21
-62.99967455609319
 31
0.0
  0
CIRCLE
  5
9777
330
1E
100
AcDbEntity
  8
12
100
AcDbCircle
 10
17.49990959891476
 20
-62.99967455609319
 30
0.0
 40
3.999979336894806
210
0.0
220
0.0
230
-1.0
  0
LINE
  5
9778
330
1E
100
AcDbEntity
  8
12
100
AcDbLine
 10
-17.49990959891476
 20
-68.49964614432359
 30
0.0
 11
-17.49990959891476
 21
-57.49970296786287
 31
0.0
  0
ARC
  5
9779
330
1E
100
AcDbEntity
  8
10
100
AcDbCircle
 10
27.99985535826357
 20
-64.99966422454061
 30
0.0
 40
4.999974171118507
210
0.0
220
0.0
230
-1.0
100
AcDbArc
 50
90.0
 51
180.0
  0
LINE
  5
977A
330
1E
100
AcDbEntity
  8
17
100
AcDbLine
 10
-41.99978303739546
 20
-71.99962806410656
 30
0.0
 11
-27.99985535826357
 21
-71.99962806410656
 31
0.0
  0
LINE
  5
977B
330
1E
100
AcDbEntity
  8
17
100
AcDbLine
 10
-34.99981919782955
 20
-64.99966422454061
 30
0.0
 11
-34.99981919782955
 21
-78.99959190367248
 31
0.0
  0
CIRCLE
  5
977C
330
1E
100
AcDbEntity
  8
24
100
AcDbCircle
 10
-34.99981919782955
 20
-71.99962806410656
 30
0.0
 40
4.999974171118507
  0
LINE
  5
977D
330
1E
100
AcDbEntity
  8
10
100
AcDbLine
 10
-22.99988118714505
 20
-82.4995738234554
 30
0.0
 11
-22.99988118714505
 21
-64.99966422454061
 31
0.0
  0
LINE
  5
977E
330
1E
100
AcDbEntity
  8
10
100
AcDbLine
 10
-27.99985535826357
 20
-59.99969005342212
 30
0.0
 11
-41.99978303739546
 21
-59.99969005342212
 31
0.0
  0
ARC
  5
977F
330
1E
100
AcDbEntity
  8
10
100
AcDbCircle
 10
6.999963839565879
 20
-64.99966422454061
 30
0.0
 40
4.999974171118507
210
0.0
220
0.0
230
-1.0
100
AcDbArc
 50
0.0
 51
90.0
  0
LINE
  5
9780
330
1E
100
AcDbEntity
  8
17
100
AcDbLine
 10
-6.999963839565879
 20
-71.99962806410656
 30
0.0
 11
6.999963839565991
 21
-71.99962806410656
 31
0.0
  0
CIRCLE
  5
9781
330
1E
100
AcDbEntity
  8
24
100
AcDbCircle
 10
0.0
 20
-71.99962806410656
 30
0.0
 40
4.999974171118507
  0
LINE
  5
9782
330
1E
100
AcDbEntity
  8
10
100
AcDbLine
 10
-11.99993801068435
 20
-82.4995738234554
 30
0.0
 11
-11.99993801068435
 21
-64.99966422454061
 31
0.0
  0
LINE
  5
9783
330
1E
100
AcDbEntity
  8
10
100
AcDbLine
 10
6.999963839565991
 20
-59.99969005342212
 30
0.0
 11
-6.999963839565879
 21
-59.99969005342212
 31
0.0
  0
LINE
  5
9784
330
1E
100
AcDbEntity
  8
17
100
AcDbLine
 10
27.99985535826371
 20
-71.99962806410656
 30
0.0
 11
41.9997830373955
 21
-71.99962806410656
 31
0.0
  0
LINE
  5
9785
330
1E
100
AcDbEntity
  8
10
100
AcDbLine
 10
41.9997830373955
 20
-59.99969005342212
 30
0.0
 11
27.99985535826371
 21
-59.99969005342212
 31
0.0
  0
CIRCLE
  5
9786
330
1E
100
AcDbEntity
  8
24
100
AcDbCircle
 10
34.99981919782956
 20
-71.99962806410656
 30
0.0
 40
4.999974171118507
  0
LINE
  5
9787
330
1E
100
AcDbEntity
  8
12
100
AcDbLine
 10
17.49990959891479
 20
-68.49964614432359
 30
0.0
 11
17.49990959891479
 21
-57.49970296786287
 31
0.0
  0
ARC
  5
9788
330
1E
100
AcDbEntity
  8
10
100
AcDbCircle
 10
-27.99985535826371
 20
-64.99966422454061
 30
0.0
 40
4.999974171118507
210
0.0
220
0.0
230
-1.0
100
AcDbArc
 50
0.0
 51
90.0
  0
CIRCLE
  5
9789
330
1E
100
AcDbEntity
  8
12
100
AcDbCircle
 10
17.49990959891479
 20
-62.99967455609319
 30
0.0
 40
3.999979336894806
  0
LINE
  5
978A
330
1E
100
AcDbEntity
  8
10
100
AcDbLine
 10
22.99988118714517
 20
-82.4995738234554
 30
0.0
 11
22.99988118714517
 21
-64.99966422454061
 31
0.0
  0
LINE
  5
978B
330
1E
100
AcDbEntity
  8
10
100
AcDbLine
 10
11.99993801068447
 20
-82.4995738234554
 30
0.0
 11
11.99993801068447
 21
-64.99966422454061
 31
0.0
  0
LINE
  5
978C
330
1E
100
AcDbEntity
  8
17
100
AcDbLine
 10
34.99981919782956
 20
-64.99966422454061
 30
0.0
 11
34.99981919782956
 21
-78.99959190367248
 31
0.0
  0
LINE
  5
978D
330
1E
100
AcDbEntity
  8
12
100
AcDbLine
 10
11.99993801068447
 20
-62.99967455609319
 30
0.0
 11
22.99988118714517
 21
-62.99967455609319
 31
0.0
  0
ARC
  5
978E
330
1E
100
AcDbEntity
  8
10
100
AcDbCircle
 10
-41.9997830373955
 20
-64.99966422454061
 30
0.0
 40
4.999974171118507
210
0.0
220
0.0
230
-1.0
100
AcDbArc
 50
90.0
 51
180.0
  0
ARC
  5
978F
330
1E
100
AcDbEntity
  8
10
100
AcDbCircle
 10
62.99967455609325
 20
-64.99966422454061
 30
0.0
 40
4.999974171118507
100
AcDbArc
 50
90.0
 51
180.0
  0
LINE
  5
9790
330
1E
100
AcDbEntity
  8
10
100
AcDbLine
 10
46.99975720851401
 20
-82.4995738234554
 30
0.0
 11
46.99975720851401
 21
-64.99966422454061
 31
0.0
  0
LINE
  5
9791
330
1E
100
AcDbEntity
  8
10
100
AcDbLine
 10
57.99970038497474
 20
-82.4995738234554
 30
0.0
 11
57.99970038497474
 21
-64.99966422454061
 31
0.0
  0
LINE
  5
9792
330
1E
100
AcDbEntity
  8
10
100
AcDbLine
 10
-52.49972879674434
 20
22.49987085559252
 30
0.0
 11
87.49954799457389
 21
22.49987085559251
 31
0.0
  0
LINE
  5
9793
330
1E
100
AcDbEntity
  8
10
100
AcDbLine
 10
-52.49972879674434
 20
-22.49987085559256
 30
0.0
 11
87.49954799457389
 21
-22.49987085559256
 31
0.0
  0
ARC
  5
9794
330
1E
100
AcDbEntity
  8
10
100
AcDbCircle
 10
-41.99978303739546
 20
64.99966422454059
 30
0.0
 40
4.999974171118507
100
AcDbArc
 50
180.0
 51
270.0
  0
LINE
  5
9797
330
1E
100
AcDbEntity
  8
10
100
AcDbLine
 10
-46.99975720851396
 20
82.49957382345536
 30
0.0
 11
-46.99975720851396
 21
64.99966422454059
 31
0.0
  0
LINE
  5
9798
330
1E
100
AcDbEntity
  8
10
100
AcDbLine
 10
-10.99994317646076
 20
22.49987085559252
 30
0.0
 11
-10.99994317646076
 21
-22.49987085559256
 31
0.0
  0
LINE
  5
9799
330
1E
100
AcDbEntity
  8
10
100
AcDbLine
 10
6.999963839565991
 20
-18.49990443313847
 30
0.0
 11
6.999963839566021
 21
20.15476459026723
 31
0.0
  0
LINE
  5
979A
330
1E
100
AcDbEntity
  8
10
100
AcDbLine
 10
-6.999963839565879
 20
-18.49990443313847
 30
0.0
 11
-6.999963839565879
 21
20.15476459026723
 31
0.0
  0
LINE
  5
979B
330
1E
100
AcDbEntity
  8
10
100
AcDbLine
 10
-6.999963839565879
 20
-18.49990443313847
 30
0.0
 11
6.999963839565991
 21
-18.49990443313847
 31
0.0
  0
LINE
  5
979C
330
1E
100
AcDbEntity
  8
10
100
AcDbLine
 10
6.999963839565991
 20
6.840753968874253
 30
0.0
 11
-6.999963839565026
 21
6.840753968874253
 31
0.0
  0
LINE
  5
979D
330
1E
100
AcDbEntity
  8
10
100
AcDbLine
 10
6.999963839565991
 20
15.23987771387089
 30
0.0
 11
-6.999963839565879
 21
15.23987771387089
 31
0.0
  0
LINE
  5
979E
330
1E
100
AcDbEntity
  8
10
100
AcDbLine
 10
6.999963839565991
 20
20.15476459026723
 30
0.0
 11
-6.99996383956676
 21
20.15476459026723
 31
0.0
  0
LINE
  5
97A0
330
1E
100
AcDbEntity
  8
10
100
AcDbLine
 10
10.99994317646077
 20
22.49987085559252
 30
0.0
 11
10.99994317646077
 21
-22.49987085559256
 31
0.0
  0
ARC
  5
97A1
330
1E
100
AcDbEntity
  8
10
100
AcDbCircle
 10
6.999963839565991
 20
64.99966422454059
 30
0.0
 40
4.999974171118507
100
AcDbArc
 50
270.0
 51
0.0
  0
LINE
  5
97A2
330
1E
100
AcDbEntity
  8
17
100
AcDbLine
 10
-34.99981919782955
 20
78.99959190367241
 30
0.0
 11
-34.99981919782955
 21
64.99966422454059
 31
0.0
  0
LINE
  5
97A3
330
1E
100
AcDbEntity
  8
10
100
AcDbLine
 10
-11.99993801068435
 20
82.49957382345536
 30
0.0
 11
-11.99993801068435
 21
64.99966422454059
 31
0.0
  0
LINE
  5
97A4
330
1E
100
AcDbEntity
  8
10
100
AcDbLine
 10
-22.99988118714505
 20
82.49957382345536
 30
0.0
 11
-22.99988118714505
 21
64.99966422454059
 31
0.0
  0
CIRCLE
  5
97A5
330
1E
100
AcDbEntity
  8
24
100
AcDbCircle
 10
-34.99981919782955
 20
71.99962806410656
 30
0.0
 40
4.999974171118507
  0
CIRCLE
  5
97A6
330
1E
100
AcDbEntity
  8
24
100
AcDbCircle
 10
0.0
 20
71.99962806410656
 30
0.0
 40
4.999974171118507
  0
LINE
  5
97A7
330
1E
100
AcDbEntity
  8
12
100
AcDbLine
 10
-22.99988118714505
 20
62.99967455609323
 30
0.0
 11
-11.99993801068435
 21
62.99967455609323
 31
0.0
  0
CIRCLE
  5
97A8
330
1E
100
AcDbEntity
  8
12
100
AcDbCircle
 10
-17.49990959891476
 20
62.99967455609323
 30
0.0
 40
3.999979336894806
  0
LINE
  5
97A9
330
1E
100
AcDbEntity
  8
10
100
AcDbLine
 10
-27.99985535826357
 20
59.99969005342205
 30
0.0
 11
-41.99978303739546
 21
59.99969005342205
 31
0.0
  0
LINE
  5
97AA
330
1E
100
AcDbEntity
  8
12
100
AcDbLine
 10
-17.49990959891476
 20
68.49964614432355
 30
0.0
 11
-17.49990959891476
 21
57.49970296786284
 31
0.0
  0
ARC
  5
97AB
330
1E
100
AcDbEntity
  8
10
100
AcDbCircle
 10
-27.99985535826357
 20
64.99966422454059
 30
0.0
 40
4.999974171118507
100
AcDbArc
 50
270.0
 51
0.0
  0
LINE
  5
97AC
330
1E
100
AcDbEntity
  8
10
100
AcDbLine
 10
6.999963839565991
 20
59.99969005342205
 30
0.0
 11
-6.999963839565879
 21
59.99969005342205
 31
0.0
  0
ARC
  5
97AD
330
1E
100
AcDbEntity
  8
10
100
AcDbCircle
 10
-6.999963839565879
 20
64.99966422454059
 30
0.0
 40
4.999974171118507
100
AcDbArc
 50
180.0
 51
270.0
  0
LINE
  5
97AE
330
1E
100
AcDbEntity
  8
17
100
AcDbLine
 10
-41.99978303739546
 20
71.99962806410656
 30
0.0
 11
-27.99985535826357
 21
71.99962806410656
 31
0.0
  0
LINE
  5
97AF
330
1E
100
AcDbEntity
  8
17
100
AcDbLine
 10
-6.999963839565879
 20
71.99962806410656
 30
0.0
 11
6.999963839565991
 21
71.99962806410656
 31
0.0
  0
LINE
  5
97B2
330
1E
100
AcDbEntity
  8
17
100
AcDbLine
 10
34.99981919782956
 20
78.99959190367241
 30
0.0
 11
34.99981919782956
 21
64.99966422454059
 31
0.0
  0
LINE
  5
97B3
330
1E
100
AcDbEntity
  8
10
100
AcDbLine
 10
22.99988118714517
 20
82.49957382345536
 30
0.0
 11
22.99988118714517
 21
64.99966422454059
 31
0.0
  0
LINE
  5
97B4
330
1E
100
AcDbEntity
  8
10
100
AcDbLine
 10
46.99975720851401
 20
82.49957382345536
 30
0.0
 11
46.99975720851401
 21
64.99966422454059
 31
0.0
  0
LINE
  5
97B5
330
1E
100
AcDbEntity
  8
10
100
AcDbLine
 10
11.99993801068447
 20
82.49957382345536
 30
0.0
 11
11.99993801068447
 21
64.99966422454059
 31
0.0
  0
LINE
  5
97B6
330
1E
100
AcDbEntity
  8
10
100
AcDbLine
 10
57.99970038497474
 20
82.49957382345536
 30
0.0
 11
57.99970038497474
 21
64.99966422454059
 31
0.0
  0
CIRCLE
  5
97B7
330
1E
100
AcDbEntity
  8
24
100
AcDbCircle
 10
34.99981919782956
 20
71.99962806410656
 30
0.0
 40
4.999974171118507
  0
LINE
  5
97B8
330
1E
100
AcDbEntity
  8
10
100
AcDbLine
 10
41.9997830373955
 20
59.99969005342205
 30
0.0
 11
27.99985535826371
 21
59.99969005342205
 31
0.0
  0
ARC
  5
97B9
330
1E
100
AcDbEntity
  8
10
100
AcDbCircle
 10
27.99985535826371
 20
64.99966422454059
 30
0.0
 40
4.999974171118507
100
AcDbArc
 50
180.0
 51
270.0
  0
LINE
  5
97BA
330
1E
100
AcDbEntity
  8
12
100
AcDbLine
 10
17.49990959891479
 20
68.49964614432355
 30
0.0
 11
17.49990959891479
 21
57.49970296786284
 31
0.0
  0
CIRCLE
  5
97BB
330
1E
100
AcDbEntity
  8
12
100
AcDbCircle
 10
-17.49990959891479
 20
62.99967455609323
 30
0.0
 40
3.999979336894806
210
0.0
220
0.0
230
-1.0
  0
LINE
  5
97BC
330
1E
100
AcDbEntity
  8
12
100
AcDbLine
 10
11.99993801068447
 20
62.99967455609323
 30
0.0
 11
22.99988118714517
 21
62.99967455609323
 31
0.0
  0
ARC
  5
97BD
330
1E
100
AcDbEntity
  8
10
100
AcDbCircle
 10
41.9997830373955
 20
64.99966422454059
 30
0.0
 40
4.999974171118507
100
AcDbArc
 50
270.0
 51
0.0
  0
ARC
  5
97BE
330
1E
100
AcDbEntity
  8
10
100
AcDbCircle
 10
-62.99967455609325
 20
64.99966422454059
 30
0.0
 40
4.999974171118507
210
0.0
220
0.0
230
-1.0
100
AcDbArc
 50
270.0
 51
0.0
  0
LINE
  5
97BF
330
1E
100
AcDbEntity
  8
17
100
AcDbLine
 10
27.99985535826371
 20
71.99962806410656
 30
0.0
 11
41.9997830373955
 21
71.99962806410656
 31
0.0
  0
LINE
  5
97C1
330
1E
100
AcDbEntity
  8
10
100
AcDbLine
 10
87.49954799457389
 20
82.49957382345536
 30
0.0
 11
87.49954799457389
 21
-82.4995738234554
 31
0.0
  0
DIMENSION
  5
97C2
330
1E
100
AcDbEntity
  8
30
100
AcDbDimension
  2
*D3
 10
100.6779304226177
 20
82.49957382345534
 30
0.0
 11
97.67793042261772
 21
-0.0000000000000058
 31
0.0
 70
    32
  3
STANDARD
100
AcDbAlignedDimension
 13
87.49954799457388
 23
-82.4995738234554
 33
0.0
 14
87.49954799457388
 24
82.49957382345536
 34
0.0
 50
270.0
100
AcDbRotatedDimension
  0
ARC
  5
97C3
330
1E
100
AcDbEntity
  8
10
100
AcDbCircle
 10
76.99960223522507
 20
-64.99966422454061
 30
0.0
 40
4.999974171118507
100
AcDbArc
 50
0.0
 51
90.0
  0
LINE
  5
97C4
330
1E
100
AcDbEntity
  8
17
100
AcDbLine
 10
69.99963839565912
 20
-64.99966422454061
 30
0.0
 11
69.99963839565912
 21
-78.99959190367248
 31
0.0
  0
CIRCLE
  5
97C5
330
1E
100
AcDbEntity
  8
24
100
AcDbCircle
 10
-69.99963839565912
 20
-71.99962806410656
 30
0.0
 40
4.999974171118507
210
0.0
220
0.0
230
-1.0
  0
LINE
  5
97C6
330
1E
100
AcDbEntity
  8
10
100
AcDbLine
 10
81.99957640634357
 20
-82.4995738234554
 30
0.0
 11
81.99957640634357
 21
-64.99966422454061
 31
0.0
  0
LINE
  5
97C7
330
1E
100
AcDbEntity
  8
10
100
AcDbLine
 10
66.4996564758762
 20
32.45693911503348
 30
0.0
 11
67.49965131009986
 21
33.45693394925723
 31
0.0
  0
LINE
  5
97C8
330
1E
100
AcDbEntity
  8
10
100
AcDbLine
 10
72.73312872632363
 20
31.97293164538614
 30
0.0
 11
73.49962031544217
 21
32.7394232345045
 31
0.0
  0
LINE
  5
97C9
330
1E
100
AcDbEntity
  8
10
100
AcDbLine
 10
67.49965131009986
 20
39.44932795427729
 30
0.0
 11
72.88929568747218
 21
31.74983598660253
 31
0.0
  0
LINE
  5
97CA
330
1E
100
AcDbEntity
  8
10
100
AcDbLine
 10
67.49965131009986
 20
39.44932795427729
 30
0.0
 11
67.49965131009986
 21
31.74983598660253
 31
0.0
  0
LINE
  5
97CB
330
1E
100
AcDbEntity
  8
10
100
AcDbLine
 10
66.4996564758762
 20
32.10338755081805
 30
0.0
 11
67.49965131009986
 21
33.10338238504175
 31
0.0
  0
LINE
  5
97CC
330
1E
100
AcDbEntity
  8
10
100
AcDbLine
 10
73.49962031544217
 20
31.74983598660247
 30
0.0
 11
73.49962031544217
 21
41.74978432883954
 31
0.0
  0
LINE
  5
97CD
330
1E
100
AcDbEntity
  8
10
100
AcDbLine
 10
72.44196861461681
 20
32.38887466211025
 30
0.0
 11
73.49962031544217
 21
33.44652636293557
 31
0.0
  0
LINE
  5
97CE
330
1E
100
AcDbEntity
  8
10
100
AcDbLine
 10
66.4996564758762
 20
31.74983598660247
 30
0.0
 11
67.49965131009986
 21
32.74983082082616
 31
0.0
  0
LINE
  5
97CF
330
1E
100
AcDbEntity
  8
10
100
AcDbLine
 10
72.58754867047028
 20
32.18090315374819
 30
0.0
 11
73.49962031544217
 21
33.09297479872002
 31
0.0
  0
LINE
  5
97D0
330
1E
100
AcDbEntity
  8
10
100
AcDbLine
 10
66.4996564758762
 20
31.74983598660247
 30
0.0
 11
66.4996564758762
 21
41.74978432883954
 31
0.0
  0
LINE
  5
97D1
330
1E
100
AcDbEntity
  8
10
100
AcDbLine
 10
67.20675960430728
 20
31.74983598660253
 30
0.0
 11
67.49965131009986
 21
32.04272769239507
 31
0.0
  0
LINE
  5
97D2
330
1E
100
AcDbEntity
  8
10
100
AcDbLine
 10
66.8532080400918
 20
31.74983598660253
 30
0.0
 11
67.49965131009986
 21
32.39627925661068
 31
0.0
  0
LINE
  5
97D3
330
1E
100
AcDbEntity
  8
10
100
AcDbLine
 10
66.4996564758762
 20
31.74983598660253
 30
0.0
 11
67.49965131009986
 21
31.74983598660253
 31
0.0
  0
LINE
  5
97D4
330
1E
100
AcDbEntity
  8
10
100
AcDbLine
 10
72.86358463175568
 20
31.74983598660253
 30
0.0
 11
73.49962031544217
 21
32.38587167028891
 31
0.0
  0
LINE
  5
97D5
330
1E
100
AcDbEntity
  8
10
100
AcDbLine
 10
73.49962031544217
 20
31.74983598660253
 30
0.0
 11
72.88929568747231
 21
31.74983598660253
 31
0.0
  0
LINE
  5
97D6
330
1E
100
AcDbEntity
  8
10
100
AcDbLine
 10
73.21713619597111
 20
31.74983598660253
 30
0.0
 11
73.49962031544217
 21
32.03232010607342
 31
0.0
  0
LINE
  5
97D7
330
1E
100
AcDbEntity
  8
17
100
AcDbLine
 10
69.99963839565912
 20
78.99959190367241
 30
0.0
 11
69.99963839565912
 21
64.99966422454059
 31
0.0
  0
LINE
  5
97D8
330
1E
100
AcDbEntity
  8
10
100
AcDbLine
 10
81.99957640634357
 20
82.49957382345536
 30
0.0
 11
81.99957640634357
 21
64.99966422454059
 31
0.0
  0
CIRCLE
  5
97D9
330
1E
100
AcDbEntity
  8
24
100
AcDbCircle
 10
-69.99963839565912
 20
71.99962806410656
 30
0.0
 40
4.999974171118507
210
0.0
220
0.0
230
-1.0
  0
LINE
  5
97DA
330
1E
100
AcDbEntity
  8
10
100
AcDbLine
 10
70.69500794437539
 20
34.88453276245513
 30
0.0
 11
71.41303691845758
 21
35.60256173653725
 31
0.0
  0
LINE
  5
97DB
330
1E
100
AcDbEntity
  8
10
100
AcDbLine
 10
70.54942788852191
 20
35.09250427081719
 30
0.0
 11
71.26745686260417
 21
35.81053324489932
 31
0.0
  0
LINE
  5
97DC
330
1E
100
AcDbEntity
  8
10
100
AcDbLine
 10
70.258267776815
 20
35.50844728754134
 30
0.0
 11
70.9762967508972
 21
36.22647626162363
 31
0.0
  0
LINE
  5
97DD
330
1E
100
AcDbEntity
  8
10
100
AcDbLine
 10
70.4038478326685
 20
35.30047577917928
 30
0.0
 11
71.12187680675075
 21
36.01850475326154
 31
0.0
  0
LINE
  5
97DE
330
1E
100
AcDbEntity
  8
10
100
AcDbLine
 10
67.10998110384614
 20
41.74978432883949
 30
0.0
 11
72.49962548121837
 21
34.05029236116478
 31
0.0
  0
LINE
  5
97DF
330
1E
100
AcDbEntity
  8
10
100
AcDbLine
 10
70.84058800022885
 20
34.67656125409303
 30
0.0
 11
71.55861697431112
 21
35.39459022817527
 31
0.0
  0
LINE
  5
97E0
330
1E
100
AcDbEntity
  8
10
100
AcDbLine
 10
66.4996564758762
 20
35.28535162875771
 30
0.0
 11
67.49965131009986
 21
36.2853464629814
 31
0.0
  0
LINE
  5
97E1
330
1E
100
AcDbEntity
  8
10
100
AcDbLine
 10
66.4996564758762
 20
41.64927978463707
 30
0.0
 11
66.60016102007862
 21
41.74978432883954
 31
0.0
  0
LINE
  5
97E2
330
1E
100
AcDbEntity
  8
10
100
AcDbLine
 10
68.65688716242712
 20
37.79613387952418
 30
0.0
 11
69.37491613650931
 21
38.51416285360631
 31
0.0
  0
LINE
  5
97E3
330
1E
100
AcDbEntity
  8
10
100
AcDbLine
 10
66.4996564758762
 20
37.76021257826635
 30
0.0
 11
67.49965131009986
 21
38.76020741249016
 31
0.0
  0
LINE
  5
97E4
330
1E
100
AcDbEntity
  8
10
100
AcDbLine
 10
67.92898688315982
 20
38.83599142133459
 30
0.0
 11
68.64701585724211
 21
39.55402039541671
 31
0.0
  0
LINE
  5
97E5
330
1E
100
AcDbEntity
  8
10
100
AcDbLine
 10
69.67594755340124
 20
36.34033332098978
 30
0.0
 11
70.39397652748355
 21
37.05836229507184
 31
0.0
  0
LINE
  5
97E6
330
1E
100
AcDbEntity
  8
10
100
AcDbLine
 10
66.4996564758762
 20
40.23507352777511
 30
0.0
 11
67.48237541041456
 21
41.21779246231324
 31
0.0
  0
LINE
  5
97E7
330
1E
100
AcDbEntity
  8
10
100
AcDbLine
 10
66.4996564758762
 20
36.34600632140433
 30
0.0
 11
67.49965131009986
 21
37.34600115562796
 31
0.0
  0
LINE
  5
97E8
330
1E
100
AcDbEntity
  8
10
100
AcDbLine
 10
69.0936273299874
 20
37.1722193544379
 30
0.0
 11
69.8116563040696
 21
37.8902483285201
 31
0.0
  0
LINE
  5
97E9
330
1E
100
AcDbEntity
  8
10
100
AcDbLine
 10
68.07456693901329
 20
38.62801991297249
 30
0.0
 11
68.79259591309547
 21
39.34604888705468
 31
0.0
  0
LINE
  5
97EA
330
1E
100
AcDbEntity
  8
10
100
AcDbLine
 10
66.4996564758762
 20
38.82086727091297
 30
0.0
 11
68.06469563382828
 21
40.38590642886497
 31
0.0
  0
LINE
  5
97EB
330
1E
100
AcDbEntity
  8
10
100
AcDbLine
 10
70.11268772096162
 20
35.71641879590333
 30
0.0
 11
70.83071669504383
 21
36.43444776998558
 31
0.0
  0
LINE
  5
97EC
330
1E
100
AcDbEntity
  8
10
100
AcDbLine
 10
66.4996564758762
 20
34.93180006454223
 30
0.0
 11
67.49965131009986
 21
35.93179489876593
 31
0.0
  0
LINE
  5
97ED
330
1E
100
AcDbEntity
  8
10
100
AcDbLine
 10
68.36572705072021
 20
38.21207689624827
 30
0.0
 11
69.0837560248024
 21
38.93010587033046
 31
0.0
  0
LINE
  5
97EE
330
1E
100
AcDbEntity
  8
10
100
AcDbLine
 10
66.4996564758762
 20
37.40666101405088
 30
0.0
 11
67.49965131009986
 21
38.40665584827462
 31
0.0
  0
LINE
  5
97EF
330
1E
100
AcDbEntity
  8
10
100
AcDbLine
 10
69.53036749754787
 20
36.5483048293517
 30
0.0
 11
70.24839647163005
 21
37.26633380343388
 31
0.0
  0
LINE
  5
97F0
330
1E
100
AcDbEntity
  8
10
100
AcDbLine
 10
66.4996564758762
 20
33.5175938076801
 30
0.0
 11
67.49965131009986
 21
34.51758864190378
 31
0.0
  0
LINE
  5
97F1
330
1E
100
AcDbEntity
  8
10
100
AcDbLine
 10
66.4996564758762
 20
39.88152196355952
 30
0.0
 11
67.6279554662679
 21
41.00982095395118
 31
0.0
  0
LINE
  5
97F2
330
1E
100
AcDbEntity
  8
10
100
AcDbLine
 10
66.4996564758762
 20
35.99245475718872
 30
0.0
 11
67.49965131009986
 21
36.99244959141242
 31
0.0
  0
LINE
  5
97F3
330
1E
100
AcDbEntity
  8
10
100
AcDbLine
 10
66.4996564758762
 20
39.52797039934397
 30
0.0
 11
67.77353552212129
 21
40.80184944558914
 31
0.0
  0
LINE
  5
97F4
330
1E
100
AcDbEntity
  8
10
100
AcDbLine
 10
68.94804727413387
 20
37.38019086280008
 30
0.0
 11
69.66607624821614
 21
38.09821983688221
 31
0.0
  0
LINE
  5
97F5
330
1E
100
AcDbEntity
  8
10
100
AcDbLine
 10
68.22014699486678
 20
38.42004840461038
 30
0.0
 11
68.93817596894885
 21
39.1380773786925
 31
0.0
  0
LINE
  5
97F6
330
1E
100
AcDbEntity
  8
10
100
AcDbLine
 10
66.4996564758762
 20
36.69955788561981
 30
0.0
 11
67.49965131009986
 21
37.69955271984349
 31
0.0
  0
LINE
  5
97F7
330
1E
100
AcDbEntity
  8
10
100
AcDbLine
 10
69.2392073858409
 20
36.96424784607585
 30
0.0
 11
69.9572363599231
 21
37.6822768201581
 31
0.0
  0
LINE
  5
97F8
330
1E
100
AcDbEntity
  8
10
100
AcDbLine
 10
66.4996564758762
 20
32.81049067924907
 30
0.0
 11
67.49965131009986
 21
33.81048551347276
 31
0.0
  0
LINE
  5
97F9
330
1E
100
AcDbEntity
  8
10
100
AcDbLine
 10
66.4996564758762
 20
37.05310944983534
 30
0.0
 11
67.49965131009986
 21
38.05310428405907
 31
0.0
  0
LINE
  5
97FA
330
1E
100
AcDbEntity
  8
10
100
AcDbLine
 10
66.4996564758762
 20
39.17441883512845
 30
0.0
 11
67.9191155779748
 21
40.59387793722702
 31
0.0
  0
LINE
  5
97FB
330
1E
100
AcDbEntity
  8
10
100
AcDbLine
 10
66.4996564758762
 20
33.87114537189563
 30
0.0
 11
67.49965131009986
 21
34.87114020611932
 31
0.0
  0
LINE
  5
97FC
330
1E
100
AcDbEntity
  8
10
100
AcDbLine
 10
66.4996564758762
 20
40.58862509199054
 30
0.0
 11
67.33679535456096
 21
41.42576397067535
 31
0.0
  0
LINE
  5
97FD
330
1E
100
AcDbEntity
  8
10
100
AcDbLine
 10
66.4996564758762
 20
38.1137641424819
 30
0.0
 11
67.49965131009986
 21
39.11375897670558
 31
0.0
  0
LINE
  5
97FE
330
1E
100
AcDbEntity
  8
10
100
AcDbLine
 10
66.4996564758762
 20
41.29572822042166
 30
0.0
 11
66.9537125842941
 21
41.74978432883954
 31
0.0
  0
LINE
  5
97FF
330
1E
100
AcDbEntity
  8
10
100
AcDbLine
 10
66.4996564758762
 20
40.94217665620613
 30
0.0
 11
67.1912152987076
 21
41.63373547903745
 31
0.0
  0
LINE
  5
9800
330
1E
100
AcDbEntity
  8
10
100
AcDbLine
 10
66.4996564758762
 20
38.46731570669749
 30
0.0
 11
68.21027568968173
 21
40.17793492050294
 31
0.0
  0
LINE
  5
9801
330
1E
100
AcDbEntity
  8
10
100
AcDbLine
 10
69.96710766510807
 20
35.92439030426556
 30
0.0
 11
70.68513663919026
 21
36.64241927834769
 31
0.0
  0
LINE
  5
9802
330
1E
100
AcDbEntity
  8
10
100
AcDbLine
 10
66.4996564758762
 20
34.57824850032658
 30
0.0
 11
67.49965131009986
 21
35.57824333455033
 31
0.0
  0
LINE
  5
9803
330
1E
100
AcDbEntity
  8
10
100
AcDbLine
 10
68.51130710657367
 20
38.00410538788622
 30
0.0
 11
69.22933608065594
 21
38.7221343619684
 31
0.0
  0
LINE
  5
9804
330
1E
100
AcDbEntity
  8
10
100
AcDbLine
 10
69.38478744169433
 20
36.75627633771375
 30
0.0
 11
70.10281641577657
 21
37.47430531179606
 31
0.0
  0
LINE
  5
9805
330
1E
100
AcDbEntity
  8
10
100
AcDbLine
 10
66.4996564758762
 20
33.16404224346462
 30
0.0
 11
67.49965131009986
 21
34.1640370776883
 31
0.0
  0
LINE
  5
9806
330
1E
100
AcDbEntity
  8
10
100
AcDbLine
 10
66.4996564758762
 20
35.63890319297326
 30
0.0
 11
67.49965131009986
 21
36.63889802719693
 31
0.0
  0
LINE
  5
9807
330
1E
100
AcDbEntity
  8
10
100
AcDbLine
 10
68.80246721828047
 20
37.58816237116212
 30
0.0
 11
69.52049619236274
 21
38.3061913452442
 31
0.0
  0
LINE
  5
9808
330
1E
100
AcDbEntity
  8
10
100
AcDbLine
 10
67.78340682730635
 20
39.04396292969659
 30
0.0
 11
68.50143580138861
 21
39.76199190377883
 31
0.0
  0
LINE
  5
9809
330
1E
100
AcDbEntity
  8
10
100
AcDbLine
 10
66.4996564758762
 20
41.74978432883954
 30
0.0
 11
67.109981103846
 21
41.74978432883954
 31
0.0
  0
LINE
  5
980A
330
1E
100
AcDbEntity
  8
10
100
AcDbLine
 10
69.82152760925467
 20
36.13236181262755
 30
0.0
 11
70.53955658333686
 21
36.85039078670973
 31
0.0
  0
LINE
  5
980B
330
1E
100
AcDbEntity
  8
10
100
AcDbLine
 10
67.63782677145299
 20
39.2519344380587
 30
0.0
 11
68.35585574553518
 21
39.96996341214088
 31
0.0
  0
LINE
  5
980C
330
1E
100
AcDbEntity
  8
10
100
AcDbLine
 10
66.4996564758762
 20
34.22469693611117
 30
0.0
 11
67.49965131009986
 21
35.22469177033491
 31
0.0
  0
LINE
  5
980D
330
1E
100
AcDbEntity
  8
10
100
AcDbLine
 10
72.49962548121837
 20
35.27494404243606
 30
0.0
 11
73.49962031544217
 21
36.27493887665973
 31
0.0
  0
LINE
  5
980E
330
1E
100
AcDbEntity
  8
10
100
AcDbLine
 10
72.49962548121837
 20
41.63887219831547
 30
0.0
 11
72.61053761174244
 21
41.74978432883954
 31
0.0
  0
LINE
  5
980F
330
1E
100
AcDbEntity
  8
10
100
AcDbLine
 10
71.85964839120297
 20
33.22076069555861
 30
0.0
 11
73.49962031544217
 21
34.8607326197977
 31
0.0
  0
LINE
  5
9810
330
1E
100
AcDbEntity
  8
10
100
AcDbLine
 10
72.49962548121837
 20
34.21428934978939
 30
0.0
 11
73.49962031544217
 21
35.21428418401313
 31
0.0
  0
LINE
  5
9811
330
1E
100
AcDbEntity
  8
10
100
AcDbLine
 10
72.49962548121837
 20
38.8104596845913
 30
0.0
 11
73.49962031544217
 21
39.81045451881493
 31
0.0
  0
LINE
  5
9812
330
1E
100
AcDbEntity
  8
10
100
AcDbLine
 10
72.49962548121837
 20
36.33559873508267
 30
0.0
 11
73.49962031544217
 21
37.33559356930634
 31
0.0
  0
LINE
  5
9813
330
1E
100
AcDbEntity
  8
10
100
AcDbLine
 10
72.49962548121837
 20
37.74980499194475
 30
0.0
 11
73.49962031544217
 21
38.74979982616843
 31
0.0
  0
LINE
  5
9814
330
1E
100
AcDbEntity
  8
10
100
AcDbLine
 10
72.29638855876334
 20
32.5968461704723
 30
0.0
 11
73.49962031544217
 21
33.80007792715115
 31
0.0
  0
LINE
  5
9815
330
1E
100
AcDbEntity
  8
10
100
AcDbLine
 10
72.49962548121837
 20
37.39625342772922
 30
0.0
 11
73.49962031544217
 21
38.3962482619529
 31
0.0
  0
LINE
  5
9816
330
1E
100
AcDbEntity
  8
10
100
AcDbLine
 10
72.49962548121837
 20
34.05029236116478
 30
0.0
 11
72.49962548121837
 21
41.74978432883954
 31
0.0
  0
LINE
  5
9817
330
1E
100
AcDbEntity
  8
10
100
AcDbLine
 10
71.13174811193569
 20
34.26061823736886
 30
0.0
 11
71.84977708601795
 21
34.97864721145111
 31
0.0
  0
LINE
  5
9818
330
1E
100
AcDbEntity
  8
10
100
AcDbLine
 10
71.71406833534951
 20
33.42873220392061
 30
0.0
 11
72.43209730943171
 21
34.14676117800274
 31
0.0
  0
LINE
  5
9819
330
1E
100
AcDbEntity
  8
10
100
AcDbLine
 10
72.49962548121837
 20
34.92139247822057
 30
0.0
 11
73.49962031544217
 21
35.92138731244427
 31
0.0
  0
LINE
  5
981A
330
1E
100
AcDbEntity
  8
10
100
AcDbLine
 10
72.49962548121837
 20
39.16401124880684
 30
0.0
 11
73.49962031544217
 21
40.16400608303053
 31
0.0
  0
LINE
  5
981B
330
1E
100
AcDbEntity
  8
10
100
AcDbLine
 10
72.49962548121837
 20
41.28532063409989
 30
0.0
 11
72.96408917595801
 21
41.74978432883954
 31
0.0
  0
LINE
  5
981C
330
1E
100
AcDbEntity
  8
10
100
AcDbLine
 10
72.49962548121837
 20
40.22466594145338
 30
0.0
 11
73.49962031544217
 21
41.22466077567707
 31
0.0
  0
LINE
  5
981D
330
1E
100
AcDbEntity
  8
10
100
AcDbLine
 10
72.49962548121837
 20
36.6891502992982
 30
0.0
 11
73.49962031544217
 21
37.68914513352189
 31
0.0
  0
LINE
  5
981E
330
1E
100
AcDbEntity
  8
10
100
AcDbLine
 10
72.49962548121837
 20
41.74978432883954
 30
0.0
 11
73.49962031544217
 21
41.74978432883954
 31
0.0
  0
LINE
  5
981F
330
1E
100
AcDbEntity
  8
10
100
AcDbLine
 10
72.49962548121837
 20
40.57821750566882
 30
0.0
 11
73.49962031544217
 21
41.57821233989261
 31
0.0
  0
LINE
  5
9820
330
1E
100
AcDbEntity
  8
10
100
AcDbLine
 10
71.27732816778929
 20
34.05264672900681
 30
0.0
 11
71.99535714187141
 21
34.77067570308901
 31
0.0
  0
LINE
  5
9821
330
1E
100
AcDbEntity
  8
10
100
AcDbLine
 10
72.49962548121837
 20
39.87111437723791
 30
0.0
 11
73.49962031544217
 21
40.87110921146154
 31
0.0
  0
LINE
  5
9822
330
1E
100
AcDbEntity
  8
10
100
AcDbLine
 10
72.49962548121837
 20
35.62849560665164
 30
0.0
 11
73.49962031544217
 21
36.62849044087534
 31
0.0
  0
LINE
  5
9823
330
1E
100
AcDbEntity
  8
10
100
AcDbLine
 10
72.49962548121837
 20
39.51756281302232
 30
0.0
 11
73.49962031544217
 21
40.51755764724606
 31
0.0
  0
LINE
  5
9824
330
1E
100
AcDbEntity
  8
10
100
AcDbLine
 10
72.49962548121837
 20
38.45690812037577
 30
0.0
 11
73.49962031544217
 21
39.4569029545995
 31
0.0
  0
LINE
  5
9825
330
1E
100
AcDbEntity
  8
10
100
AcDbLine
 10
72.15080850290994
 20
32.80481767883435
 30
0.0
 11
73.49962031544217
 21
34.15362949136659
 31
0.0
  0
LINE
  5
9826
330
1E
100
AcDbEntity
  8
10
100
AcDbLine
 10
72.49962548121837
 20
38.10335655616018
 30
0.0
 11
73.49962031544217
 21
39.10335139038392
 31
0.0
  0
LINE
  5
9827
330
1E
100
AcDbEntity
  8
10
100
AcDbLine
 10
70.98616805608227
 20
34.46858974573098
 30
0.0
 11
71.70419703016445
 21
35.18661871981317
 31
0.0
  0
LINE
  5
9828
330
1E
100
AcDbEntity
  8
10
100
AcDbLine
 10
72.49962548121837
 20
40.93176906988452
 30
0.0
 11
73.31764074017351
 21
41.74978432883954
 31
0.0
  0
LINE
  5
9829
330
1E
100
AcDbEntity
  8
10
100
AcDbLine
 10
72.49962548121837
 20
34.56784091400499
 30
0.0
 11
73.49962031544217
 21
35.56783574822867
 31
0.0
  0
LINE
  5
982A
330
1E
100
AcDbEntity
  8
10
100
AcDbLine
 10
71.56848827949611
 20
33.63670371228266
 30
0.0
 11
72.28651725357829
 21
34.3547326863649
 31
0.0
  0
LINE
  5
982B
330
1E
100
AcDbEntity
  8
10
100
AcDbLine
 10
72.49962548121837
 20
37.04270186351362
 30
0.0
 11
73.49962031544217
 21
38.04269669773731
 31
0.0
  0
LINE
  5
982C
330
1E
100
AcDbEntity
  8
10
100
AcDbLine
 10
72.49962548121837
 20
35.98204717086707
 30
0.0
 11
73.49962031544217
 21
36.98204200509081
 31
0.0
  0
LINE
  5
982D
330
1E
100
AcDbEntity
  8
10
100
AcDbLine
 10
71.42290822364268
 20
33.84467522064476
 30
0.0
 11
72.14093719772488
 21
34.56270419472707
 31
0.0
  0
LINE
  5
982E
330
1E
100
AcDbEntity
  8
10
100
AcDbLine
 10
72.00522844705638
 20
33.01278918719651
 30
0.0
 11
73.49962031544217
 21
34.50718105558218
 31
0.0
  0
ARC
  5
982F
330
1E
100
AcDbEntity
  8
10
100
AcDbCircle
 10
-76.99960223522507
 20
64.99966422454059
 30
0.0
 40
4.999974171118507
210
0.0
220
0.0
230
-1.0
100
AcDbArc
 50
180.0
 51
270.0
  0
LINE
  5
9E14
330
1E
100
AcDbEntity
  8
18
 48
2.0
100
AcDbLine
 10
-52.4997287967443
 20
-152.5004261765445
 30
0.0
 11
-52.4997287967443
 21
-317.4995738234553
 31
0.0
  0
LINE
  5
9E15
330
1E
100
AcDbEntity
  8
18
 48
2.0
100
AcDbLine
 10
87.49954799457396
 20
-152.5004261765445
 30
0.0
 11
87.49954799457396
 21
-317.4995738234553
 31
0.0
  0
DIMENSION
  5
9E17
330
1E
100
AcDbEntity
  8
30
100
AcDbDimension
  2
*D4
 10
119.4963922793083
 20
-172.0003254439068
 30
0.0
 11
116.4963922793083
 21
-234.9999999999999
 31
0.0
 70
    32
  3
STANDARD
100
AcDbAlignedDimension
 13
19.99989670097397
 23
-297.9996745560931
 33
0.0
 14
19.99989670097397
 24
-172.0003254439066
 34
0.0
 50
270.0
100
AcDbRotatedDimension
  0
DIMENSION
  5
9E18
330
1E
100
AcDbEntity
  8
30
100
AcDbDimension
  2
*D5
 10
144.4962631349009
 20
-163.0003719358934
 30
0.0
 11
141.496263134901
 21
-235.0
 31
0.0
 70
    32
  3
STANDARD
100
AcDbAlignedDimension
 13
72.49962549771817
 23
-306.9996280641065
 33
0.0
 14
72.49962549771817
 24
-163.0003719358934
 34
0.0
 50
270.0
100
AcDbRotatedDimension
  0
LINE
  5
9E19
330
1E
100
AcDbEntity
  8
18
 48
2.0
100
AcDbLine
 10
-52.4997287967443
 20
-317.4995738234553
 30
0.0
 11
87.49954799457396
 21
-317.4995738234553
 31
0.0
  0
LINE
  5
9E1A
330
1E
100
AcDbEntity
  8
22
100
AcDbLine
 10
-51.99973137963239
 20
-306.9996280641065
 30
0.0
 11
86.99955057746207
 21
-306.9996280641065
 31
0.0
  0
CIRCLE
  5
9E1B
330
1E
100
AcDbEntity
  8
22
100
AcDbCircle
 10
-34.99981919782953
 20
-306.9996280641065
 30
0.0
 40
11.99993801068442
210
0.0
220
0.0
230
-1.0
  0
DIMENSION
  5
9E1D
330
1E
100
AcDbEntity
  8
30
100
AcDbDimension
  2
*D6
 10
34.99981919782953
 20
-350.2250062623431
 30
0.0
 11
17.49990959891476
 21
-347.2250062623432
 31
0.0
 70
    32
  3
STANDARD
100
AcDbAlignedDimension
 13
0.0
 23
-309.4996151661657
 33
0.0
 14
34.99981919782953
 24
-306.9996280641065
 34
0.0
 50
180.0
100
AcDbRotatedDimension
  0
DIMENSION
  5
9E1E
330
1E
100
AcDbEntity
  8
30
100
AcDbDimension
  2
*D7
 10
-0.0000000000000002
 20
-349.7250062623431
 30
0.0
 11
-17.49990959891476
 21
-346.7250062623431
 31
0.0
 70
    32
  3
STANDARD
100
AcDbAlignedDimension
 13
-34.99981919782953
 23
-309.4996151661657
 33
0.0
 14
0.0
 24
-346.9994214330546
 34
0.0
 50
180.0
100
AcDbRotatedDimension
  0
CIRCLE
  5
9E1F
330
1E
100
AcDbEntity
  8
22
100
AcDbCircle
 10
34.99981919782953
 20
-306.9996280641065
 30
0.0
 40
11.99993801068442
210
0.0
220
0.0
230
-1.0
  0
LINE
  5
9E20
330
1E
100
AcDbEntity
  8
22
100
AcDbLine
 10
-34.99981919782953
 20
-289.9997158823035
 30
0.0
 11
-34.99981919782953
 21
-323.9995402459094
 31
0.0
  0
DIMENSION
  5
9E21
330
1E
100
AcDbEntity
  8
30
100
AcDbDimension
  2
*D8
 10
17.49990959891488
 20
-330.6448422481143
 30
0.0
 11
0.0000000000001103
 21
-327.6448422481143
 31
0.0
 70
    32
  3
STANDARD
100
AcDbAlignedDimension
 13
-17.49990959891464
 23
-300.4996616581523
 33
0.0
 14
17.49990959891488
 24
-300.4996616581523
 34
0.0
 50
180.0
100
AcDbRotatedDimension
  0
CIRCLE
  5
9E22
330
1E
100
AcDbEntity
  8
22
100
AcDbCircle
 10
0.0
 20
-306.9996280641065
 30
0.0
 40
11.99993801068442
210
0.0
220
0.0
230
-1.0
  0
LINE
  5
9E23
330
1E
100
AcDbEntity
  8
12
100
AcDbLine
 10
-17.49990959891476
 20
-303.4996461443236
 30
0.0
 11
-17.49990959891476
 21
-292.4997029678627
 31
0.0
  0
CIRCLE
  5
9E24
330
1E
100
AcDbEntity
  8
12
100
AcDbCircle
 10
17.49990959891476
 20
-297.9996745560931
 30
0.0
 40
1.999989668447403
210
0.0
220
0.0
230
-1.0
  0
LINE
  5
9E25
330
1E
100
AcDbEntity
  8
12
100
AcDbLine
 10
-22.99988118714508
 20
-297.9996745560931
 30
0.0
 11
-11.99993801068444
 21
-297.9996745560931
 31
0.0
  0
LINE
  5
9E26
330
1E
100
AcDbEntity
  8
12
100
AcDbLine
 10
17.49990959891488
 20
-303.4996461443236
 30
0.0
 11
17.49990959891488
 21
-292.4997029678627
 31
0.0
  0
CIRCLE
  5
9E27
330
1E
100
AcDbEntity
  8
12
100
AcDbCircle
 10
17.49990959891488
 20
-297.9996745560931
 30
0.0
 40
1.999989668447403
  0
LINE
  5
9E28
330
1E
100
AcDbEntity
  8
12
100
AcDbLine
 10
11.99993801068444
 20
-297.9996745560931
 30
0.0
 11
22.99988118714531
 21
-297.9996745560931
 31
0.0
  0
DIMENSION
  5
9E2A
330
1E
100
AcDbEntity
  8
30
100
AcDbDimension
  2
*D9
 10
69.99963839565907
 20
-350.7250062623431
 30
0.0
 11
52.4997287967443
 21
-347.7250062623431
 31
0.0
 70
    32
  3
STANDARD
100
AcDbAlignedDimension
 13
34.99981919782953
 23
-309.4996151661657
 33
0.0
 14
69.99963839565907
 24
-309.4996151661657
 34
0.0
 50
180.0
100
AcDbRotatedDimension
  0
CIRCLE
  5
9E2C
330
1E
100
AcDbEntity
  8
22
100
AcDbCircle
 10
-69.99963839565928
 20
-306.9996280641065
 30
0.0
 40
11.99993801068442
210
0.0
220
0.0
230
-1.0
  0
LINE
  5
9E2D
330
1E
100
AcDbEntity
  8
22
100
AcDbLine
 10
34.99981919782953
 20
-289.9997158823035
 30
0.0
 11
34.99981919782953
 21
-323.9995402459094
 31
0.0
  0
LINE
  5
9E2E
330
1E
100
AcDbEntity
  8
22
100
AcDbLine
 10
69.99963839565928
 20
-289.9997158823035
 30
0.0
 11
69.99963839565928
 21
-323.9995402459094
 31
0.0
  0
LINE
  5
9E32
330
1E
100
AcDbEntity
  8
18
 48
2.0
100
AcDbLine
 10
87.49954799457396
 20
-152.5004261765445
 30
0.0
 11
-52.4997287967443
 21
-152.5004261765445
 31
0.0
  0
LINE
  5
9E33
330
1E
100
AcDbEntity
  8
22
100
AcDbLine
 10
-51.99973137963239
 20
-163.0003719358934
 30
0.0
 11
86.99955057746207
 21
-163.0003719358934
 31
0.0
  0
CIRCLE
  5
9E34
330
1E
100
AcDbEntity
  8
22
100
AcDbCircle
 10
34.99981919782953
 20
-163.0003719358934
 30
0.0
 40
11.99993801068442
  0
CIRCLE
  5
9E36
330
1E
100
AcDbEntity
  8
22
100
AcDbCircle
 10
-34.99981919782953
 20
-163.0003719358934
 30
0.0
 40
11.99993801068442
  0
LINE
  5
9E37
330
1E
100
AcDbEntity
  8
22
100
AcDbLine
 10
-34.99981919782953
 20
-146.0004597540905
 30
0.0
 11
-34.99981919782953
 21
-180.0002841176964
 31
0.0
  0
CIRCLE
  5
9E38
330
1E
100
AcDbEntity
  8
22
100
AcDbCircle
 10
0.0
 20
-163.0003719358934
 30
0.0
 40
11.99993801068442
  0
LINE
  5
9E39
330
1E
100
AcDbEntity
  8
12
100
AcDbLine
 10
-22.99988118714508
 20
-172.0003254439066
 30
0.0
 11
-11.99993801068444
 21
-172.0003254439066
 31
0.0
  0
LINE
  5
9E3A
330
1E
100
AcDbEntity
  8
12
100
AcDbLine
 10
-17.49990959891476
 20
-166.5003538556764
 30
0.0
 11
-17.49990959891476
 21
-177.500297032137
 31
0.0
  0
CIRCLE
  5
9E3B
330
1E
100
AcDbEntity
  8
12
100
AcDbCircle
 10
-17.49990959891476
 20
-172.0003254439066
 30
0.0
 40
1.999989668447403
  0
LINE
  5
9E3C
330
1E
100
AcDbEntity
  8
12
100
AcDbLine
 10
11.99993801068444
 20
-172.0003254439066
 30
0.0
 11
22.99988118714531
 21
-172.0003254439066
 31
0.0
  0
LINE
  5
9E3D
330
1E
100
AcDbEntity
  8
12
100
AcDbLine
 10
17.49990959891488
 20
-166.5003538556764
 30
0.0
 11
17.49990959891488
 21
-177.500297032137
 31
0.0
  0
CIRCLE
  5
9E3E
330
1E
100
AcDbEntity
  8
12
100
AcDbCircle
 10
-17.49990959891488
 20
-172.0003254439066
 30
0.0
 40
1.999989668447403
210
0.0
220
0.0
230
-1.0
  0
CIRCLE
  5
9E42
330
1E
100
AcDbEntity
  8
22
100
AcDbCircle
 10
69.99963839565928
 20
-163.0003719358934
 30
0.0
 40
11.99993801068442
  0
LINE
  5
9E43
330
1E
100
AcDbEntity
  8
22
100
AcDbLine
 10
34.99981919782953
 20
-146.0004597540905
 30
0.0
 11
34.99981919782953
 21
-180.0002841176964
 31
0.0
  0
LINE
  5
9E44
330
1E
100
AcDbEntity
  8
22
100
AcDbLine
 10
69.99963839565928
 20
-146.0004597540905
 30
0.0
 11
69.99963839565928
 21
-180.0002841176964
 31
0.0
  0
DIMENSION
  5
9EEE
330
1E
100
AcDbEntity
  8
30
100
AcDbDimension
  2
*D10
 10
-65.33335521408208
 20
-22.49987085559256
 30
0.0
 11
-68.33335521408208
 21
-0.0000000000000312
 31
0.0
 70
    32
  3
STANDARD
100
AcDbAlignedDimension
 13
-52.49972879674434
 23
22.49987085559252
 33
0.0
 14
-52.49972879674434
 24
-22.49987085559256
 34
0.0
 50
90.0
100
AcDbRotatedDimension
  0
LEADER
  5
9F70
330
1E
100
AcDbEntity
  8
30
100
AcDbLeader
  3
STANDARD
 76
     3
 10
-38.13200454139678
 20
-313.9567880945508
 30
0.0
 10
-43.5799719983911
 20
-325.238401394519
 30
0.0
 10
-63.24580129463493
 20
-325.238401394519
 30
0.0
1001
ACAD
1000
DSTYLE
1002
{
1070
     5
1000
OPEN
1070
    77
1070
     0
1070
    79
1070
     3
1070
   147
1040
1.0
1070
   342
1005
3B2
1002
}
  0
TEXT
  5
9F71
330
1E
100
AcDbEntity
  8
30
100
AcDbText
 10
-58.99372724998238
 20
-324.176602227147
 30
0.0
 40
5.0
  1
%%c24
  7
STANDARD1
100
AcDbText
  0
LINE
  5
A29F
330
1E
100
AcDbEntity
  8
10
100
AcDbLine
 10
173.6116997432806
 20
-82.5
 30
0.0
 11
269.6116997432806
 21
-82.5
 31
0.0
  0
LINE
  5
A2A0
330
1E
100
AcDbEntity
  8
10
100
AcDbLine
 10
269.6116997432806
 20
82.5
 30
0.0
 11
173.6116997432806
 21
82.5
 31
0.0
  0
LINE
  5
A2A1
330
1E
100
AcDbEntity
  8
10
100
AcDbLine
 10
173.6116997432806
 20
82.5
 30
0.0
 11
173.6116997432806
 21
51.0
 31
0.0
  0
LINE
  5
A2A2
330
1E
100
AcDbEntity
  8
10
100
AcDbLine
 10
166.6116997432806
 20
51.0
 30
0.0
 11
166.6116997432806
 21
-51.0
 31
0.0
  0
LINE
  5
A2A3
330
1E
100
AcDbEntity
  8
10
100
AcDbLine
 10
166.6116997432806
 20
-51.0
 30
0.0
 11
173.6116997432806
 21
-51.0
 31
0.0
  0
LINE
  5
A2A4
330
1E
100
AcDbEntity
  8
10
100
AcDbLine
 10
173.6116997432806
 20
-51.0
 30
0.0
 11
173.6116997432806
 21
-82.5
 31
0.0
  0
LINE
  5
A2A5
330
1E
100
AcDbEntity
  8
10
100
AcDbLine
 10
162.6116997432806
 20
22.5
 30
0.0
 11
162.6116997432806
 21
-22.5
 31
0.0
  0
LINE
  5
A2A6
330
1E
100
AcDbEntity
  8
10
100
AcDbLine
 10
158.6116997432806
 20
22.5
 30
0.0
 11
158.6116997432806
 21
-22.5
 31
0.0
  0
LINE
  5
A2A7
330
1E
100
AcDbEntity
  8
10
100
AcDbLine
 10
158.6116997432806
 20
-22.5
 30
0.0
 11
166.6116997432806
 21
-22.5
 31
0.0
  0
ARC
  5
A2A8
330
1E
100
AcDbEntity
  8
30
100
AcDbCircle
 10
173.6116997432806
 20
0.0
 30
0.0
 40
31.0
100
AcDbArc
 50
150.5534441956586
 51
180.0
  0
LINE
  5
A2A9
330
1E
100
AcDbEntity
  8
10
100
AcDbLine
 10
158.6116997432806
 20
6.840789306861323
 30
0.0
 11
146.6164459436853
 21
15.23995644007664
 31
0.0
  0
LINE
  5
A2AA
330
1E
100
AcDbEntity
  8
10
100
AcDbLine
 10
158.6116997432806
 20
14.16543683943007
 30
0.0
 11
150.0579045617915
 21
20.1548687058106
 31
0.0
  0
LINE
  5
A2AB
330
1E
100
AcDbEntity
  8
10
100
AcDbLine
 10
146.6164459436853
 20
15.23995644007664
 30
0.0
 11
150.0579045617915
 21
20.1548687058106
 31
0.0
  0
LINE
  5
A2AC
330
1E
100
AcDbEntity
  8
10
100
AcDbLine
 10
166.6116997432806
 20
51.0
 30
0.0
 11
173.6116997432806
 21
51.0
 31
0.0
  0
LINE
  5
A2AD
330
1E
100
AcDbEntity
  8
10
100
AcDbLine
 10
158.6116997432806
 20
22.5
 30
0.0
 11
166.6116997432806
 21
22.5
 31
0.0
  0
LINE
  5
A2B2
330
1E
100
AcDbEntity
  8
18
100
AcDbLine
 10
272.8116997432806
 20
112.4999999999999
 30
0.0
 11
272.8116997432806
 21
-112.5
 31
0.0
  0
LINE
  5
A2B3
330
1E
100
AcDbEntity
  8
10
100
AcDbLine
 10
269.6116997432806
 20
82.5
 30
0.0
 11
269.6116997432806
 21
-82.5
 31
0.0
  0
LINE
  5
A2B4
330
1E
100
AcDbEntity
  8
21
100
AcDbLine
 10
340.6561083986288
 20
-82.0
 30
0.0
 11
372.9322078189691
 21
-82.0
 31
0.0
  0
LINE
  5
A2B5
330
1E
100
AcDbEntity
  8
21
100
AcDbLine
 10
340.6561083986288
 20
-62.0
 30
0.0
 11
372.9322078189691
 21
-62.0
 31
0.0
  0
LINE
  5
A2B6
330
1E
100
AcDbEntity
  8
17
100
AcDbLine
 10
299.6123041391035
 20
-72.0
 30
0.0
 11
421.1123041391037
 21
-72.0
 31
0.0
  0
LINE
  5
A2B8
330
1E
100
AcDbEntity
  8
21
100
AcDbLine
 10
269.6116997432806
 20
-82.0
 30
0.0
 11
337.9322078189691
 21
-82.0
 31
0.0
  0
LINE
  5
A2B9
330
1E
100
AcDbEntity
  8
21
100
AcDbLine
 10
269.6116997432806
 20
-62.0
 30
0.0
 11
337.9322078189691
 21
-62.0
 31
0.0
  0
CIRCLE
  5
A2BA
330
1E
100
AcDbEntity
  8
21
100
AcDbCircle
 10
325.6116997432806
 20
-72.0
 30
0.0
 40
4.5
  0
ARC
  5
A2BB
330
1E
100
AcDbEntity
  8
21
100
AcDbCircle
 10
320.6116997432806
 20
-72.0
 30
0.0
 40
20.0
100
AcDbArc
 50
329.999999999999
 51
30.00000000000095
  0
LINE
  5
A2BC
330
1E
100
AcDbEntity
  8
17
100
AcDbLine
 10
325.6116997432806
 20
-59.0
 30
0.0
 11
325.6116997432806
 21
-85.0
 31
0.0
  0
LINE
  5
A2BD
330
1E
100
AcDbEntity
  8
21
100
AcDbLine
 10
297.1116997432805
 20
-62.0
 30
0.0
 11
297.1116997432805
 21
-82.0
 31
0.0
  0
LINE
  5
A2BE
330
1E
100
AcDbEntity
  8
21
100
AcDbLine
 10
297.1116997432805
 20
-77.0
 30
0.0
 11
303.6116997432806
 21
-77.0
 31
0.0
  0
ARC
  5
A2BF
330
1E
100
AcDbEntity
  8
21
100
AcDbCircle
 10
-322.9766164743175
 20
-72.0
 30
0.0
 40
20.0
210
0.0
220
0.0
230
-1.0
100
AcDbArc
 50
329.999999999999
 51
345.5224878140705
  0
ARC
  5
A2C0
330
1E
100
AcDbEntity
  8
21
100
AcDbCircle
 10
-357.9766164743174
 20
-72.0
 30
0.0
 40
20.0
210
0.0
220
0.0
230
-1.0
100
AcDbArc
 50
329.999999999999
 51
339.0869051817048
  0
LINE
  5
A2C1
330
1E
100
AcDbEntity
  8
21
100
AcDbLine
 10
297.1116997432805
 20
-67.0
 30
0.0
 11
303.6116997432806
 21
-67.0
 31
0.0
  0
ARC
  5
A2C2
330
1E
100
AcDbEntity
  8
21
100
AcDbCircle
 10
-322.9766164743175
 20
-72.0
 30
0.0
 40
20.0
210
0.0
220
0.0
230
-1.0
100
AcDbArc
 50
14.47751218592942
 51
30.00000000000095
  0
ARC
  5
A2C3
330
1E
100
AcDbEntity
  8
21
100
AcDbCircle
 10
-357.9766164743174
 20
-72.0
 30
0.0
 40
20.0
210
0.0
220
0.0
230
-1.0
100
AcDbArc
 50
20.9130948182951
 51
30.00000000000095
  0
CIRCLE
  5
A2C4
330
1E
100
AcDbEntity
  8
21
100
AcDbCircle
 10
360.6116997432806
 20
-72.0
 30
0.0
 40
4.5
  0
ARC
  5
A2C5
330
1E
100
AcDbEntity
  8
21
100
AcDbCircle
 10
355.6116997432805
 20
-72.0
 30
0.0
 40
20.0
100
AcDbArc
 50
329.999999999999
 51
30.00000000000095
  0
LINE
  5
A2C6
330
1E
100
AcDbEntity
  8
17
100
AcDbLine
 10
360.6116997432806
 20
-59.0
 30
0.0
 11
360.6116997432806
 21
-85.0
 31
0.0
  0
LINE
  5
A2D9
330
1E
100
AcDbEntity
  8
18
100
AcDbLine
 10
269.6116997432806
 20
82.5
 30
0.0
 11
269.6116997432806
 21
112.5
 31
0.0
  0
LINE
  5
A2DA
330
1E
100
AcDbEntity
  8
18
100
AcDbLine
 10
269.6116997432806
 20
112.999155395575
 30
0.0
 11
269.6116997432806
 21
-111.9996823047576
 31
0.0
  0
DIMENSION
  5
A2DB
330
1E
100
AcDbEntity
  8
30
100
AcDbDimension
  2
*D19
 10
375.6114414544621
 20
-121.2238884618642
 30
0.0
 11
322.6117152406058
 21
-118.2238884618642
 31
0.0
 70
    32
  3
STANDARD
100
AcDbAlignedDimension
 13
269.6119890267496
 23
-83.49992251335548
 33
0.0
 14
375.6114414544621
 24
-72.99997675400664
 34
0.0
 50
180.0
100
AcDbRotatedDimension
  0
DIMENSION
  5
A2DC
330
1E
100
AcDbEntity
  8
30
100
AcDbDimension
  2
*D21
 10
340.6116222566323
 20
-106.4088480101337
 30
0.0
 11
305.111805641691
 21
-103.4088480101337
 31
0.0
 70
    32
  3
STANDARD
100
AcDbAlignedDimension
 13
269.6119890267496
 23
-83.49992251335548
 33
0.0
 14
340.6116222566323
 24
-72.99997675400664
 34
0.0
 50
180.0
100
AcDbRotatedDimension
  0
DIMENSION
  5
A2DD
330
1E
100
AcDbEntity
  8
30
100
AcDbDimension
  2
*D14
 10
269.6119890267496
 20
-138.0758941849739
 30
0.0
 11
216.1118727967847
 21
-135.0758941849739
 31
0.0
 70
    32
  3
STANDARD
100
AcDbAlignedDimension
 13
162.6117565668199
 23
-22.50013431018377
 33
0.0
 14
269.6119890267496
 24
-83.49992251335548
 34
0.0
 50
180.0
100
AcDbRotatedDimension
  0
DIMENSION
  5
A2DE
330
1E
100
AcDbEntity
  8
30
100
AcDbDimension
  2
*D17
 10
269.6119890267496
 20
-121.2238884618642
 30
0.0
 11
218.1118624652321
 21
-118.2238884618642
 31
0.0
 70
    32
  3
STANDARD
100
AcDbAlignedDimension
 13
166.6117359037148
 23
-51.0
 33
0.0
 14
269.6119890267496
 24
-83.49992251335548
 34
0.0
 50
180.0
100
AcDbRotatedDimension
  0
DIMENSION
  5
A2DF
330
1E
100
AcDbEntity
  8
30
100
AcDbDimension
  2
*D18
 10
269.6119890267496
 20
-106.4088480101337
 30
0.0
 11
221.6118443850151
 21
-103.4088480101337
 31
0.0
 70
    32
  3
STANDARD
100
AcDbAlignedDimension
 13
173.6116997432806
 23
-82.49983727804661
 33
0.0
 14
269.6119890267496
 24
-83.49992251335548
 34
0.0
 50
180.0
100
AcDbRotatedDimension
  0
DIMENSION
  5
A2E0
330
1E
100
AcDbEntity
  8
30
100
AcDbDimension
  2
*D16
 10
269.6119890267496
 20
-153.4001764604196
 30
0.0
 11
206.1119244545478
 21
-150.4001764604196
 31
0.0
 70
    32
  3
STANDARD
100
AcDbAlignedDimension
 13
142.6118598823459
 23
-2.500250556650428
 33
0.0
 14
269.6119890267496
 24
-83.49992251335548
 34
0.0
 50
180.0
100
AcDbRotatedDimension
  0
DIMENSION
  5
A2E1
330
1E
100
AcDbEntity
  8
30
100
AcDbDimension
  2
*D15
 10
162.6117565668199
 20
-138.0758941849739
 30
0.0
 11
168.9450899001533
 21
-135.0758941849739
 31
0.0
 70
    32
  3
STANDARD
100
AcDbAlignedDimension
 13
158.611777229925
 23
-22.50013431018377
 33
0.0
 14
162.6117565668199
 24
-22.50013431018377
 34
0.0
 50
180.0
100
AcDbRotatedDimension
  0
DIMENSION
  5
A2E3
330
1E
100
AcDbEntity
  8
30
100
AcDbDimension
  2
*D20
 10
375.6114414544621
 20
-96.68622174859365
 30
0.0
 11
368.1114801977843
 21
-93.68622174859366
 31
0.0
 70
    32
  3
STANDARD
100
AcDbAlignedDimension
 13
360.6115189411065
 23
-75.4999638560658
 33
0.0
 14
375.6114414544621
 24
-83.30768760646387
 34
0.0
 50
180.0
100
AcDbRotatedDimension
  0
DIMENSION
  5
A2E4
330
1E
100
AcDbEntity
  8
30
100
AcDbDimension
  2
*D22
 10
340.6116222566323
 20
-96.68622174859365
 30
0.0
 11
333.1116609999546
 21
-93.68622174859366
 31
0.0
 70
    32
  3
STANDARD
100
AcDbAlignedDimension
 13
325.6116997432768
 23
-75.4999638560658
 33
0.0
 14
340.6116222566323
 24
-83.30768760646387
 34
0.0
 50
180.0
100
AcDbRotatedDimension
  0
DIMENSION
  5
A2E5
330
1E
100
AcDbEntity
  8
30
100
AcDbDimension
  2
*D11
 10
325.6116997432806
 20
-46.54923385056746
 30
0.0
 11
314.6117565668197
 21
-43.54923385056746
 31
0.0
 70
    32
  3
STANDARD
100
AcDbAlignedDimension
 13
303.6118133903589
 23
-63.00002841176962
 33
0.0
 14
325.6116997432806
 24
-68.5
 34
0.0
100
AcDbRotatedDimension
  0
LEADER
  5
A2E6
330
1E
100
AcDbEntity
  8
30
100
AcDbLeader
  3
STANDARD
 76
     3
 10
364.0364632377308
 20
-67.65666041895676
 30
0.0
 10
377.9679019257283
 20
-49.80798862098061
 30
0.0
 10
396.5514334361001
 20
-49.80798862098061
 30
0.0
1001
ACAD
1000
DSTYLE
1002
{
1070
     5
1000
OPEN
1070
    77
1070
     0
1070
    79
1070
     3
1070
   147
1040
1.0
1070
   342
1005
3B2
1002
}
  0
TEXT
  5
A2E7
330
1E
100
AcDbEntity
  8
30
100
AcDbText
 10
382.1651485136332
 20
-48.7598790637968
 30
0.0
 40
5.0
  1
%%c9
  7
STANDARD1
100
AcDbText
  0
DIMENSION
  5
A2E8
330
1E
100
AcDbEntity
  8
30
100
AcDbDimension
  2
*D12
 10
422.5806151473267
 20
-71.9998915186989
 30
0.0
 11
419.5806151473266
 21
-0.0002634545926809
 31
0.0
 70
    32
  3
STANDARD
100
AcDbAlignedDimension
 13
412.8695656986769
 23
71.99936460951341
 33
0.0
 14
399.0658434417578
 24
-71.99989151869889
 34
0.0
 50
90.0
100
AcDbRotatedDimension
  0
DIMENSION
  5
A2E9
330
1E
100
AcDbEntity
  8
30
100
AcDbDimension
  2
*D23
 10
411.1254964760215
 20
75.0
 30
0.0
 11
408.1254964760216
 21
72.00001549732895
 31
0.0
 70
    32
  3
STANDARD
100
AcDbAlignedDimension
 13
375.8786689800605
 23
69.00003099465777
 33
0.0
 14
375.8786689800605
 24
75.0
 34
0.0
 50
270.0
100
AcDbRotatedDimension
1001
ACAD
1000
DSTYLE
1002
{
1070
   340
1005
11
1002
}
  0
DIMENSION
  5
A2EA
330
1E
100
AcDbEntity
  8
30
100
AcDbDimension
  2
*D13
 10
406.2963334701713
 20
-82.99992509624365
 30
0.0
 11
403.2963334701713
 21
-72.99997675400644
 31
0.0
 70
    32
  3
STANDARD
100
AcDbAlignedDimension
 13
372.9319633718064
 23
-63.00002841176935
 33
0.0
 14
372.9319633718064
 24
-82.99992509624365
 34
0.0
 50
90.0
100
AcDbRotatedDimension
  0
LINE
  5
A51C
330
1E
100
AcDbEntity
  8
21
100
AcDbLine
 10
337.6116997432806
 20
82.0
 30
0.0
 11
337.6116997432806
 21
75.0
 31
0.0
  0
LINE
  5
A51D
330
1E
100
AcDbEntity
  8
17
100
AcDbLine
 10
360.6116997432806
 20
85.0
 30
0.0
 11
360.6116997432806
 21
59.00000000000003
 31
0.0
  0
LINE
  5
A51E
330
1E
100
AcDbEntity
  8
17
100
AcDbLine
 10
325.6116997432806
 20
85.0
 30
0.0
 11
325.6116997432806
 21
59.0
 31
0.0
  0
LINE
  5
A51F
330
1E
100
AcDbEntity
  8
21
100
AcDbLine
 10
297.1116997432805
 20
82.0
 30
0.0
 11
297.1116997432805
 21
62.0
 31
0.0
  0
LINE
  5
A520
330
1E
100
AcDbEntity
  8
21
100
AcDbLine
 10
337.6116997432806
 20
67.0
 30
0.0
 11
344.1116997432806
 21
67.0
 31
0.0
  0
LINE
  5
A521
330
1E
100
AcDbEntity
  8
21
100
AcDbLine
 10
337.6116997432806
 20
77.0
 30
0.0
 11
344.1116997432806
 21
77.0
 31
0.0
  0
LINE
  5
A522
330
1E
100
AcDbEntity
  8
17
100
AcDbLine
 10
290.2292910563195
 20
72.0
 30
0.0
 11
380.6116997432805
 21
72.0
 31
0.0
  0
LINE
  5
A523
330
1E
100
AcDbEntity
  8
21
100
AcDbLine
 10
269.6116997432806
 20
62.0
 30
0.0
 11
337.6116997432806
 21
62.0
 31
0.0
  0
LINE
  5
A524
330
1E
100
AcDbEntity
  8
21
100
AcDbLine
 10
303.6116997432806
 20
69.0
 30
0.0
 11
340.6116997432806
 21
69.0
 31
0.0
  0
LINE
  5
A525
330
1E
100
AcDbEntity
  8
21
100
AcDbLine
 10
303.6116997432806
 20
75.0
 30
0.0
 11
340.6116997432806
 21
75.0
 31
0.0
  0
LINE
  5
A526
330
1E
100
AcDbEntity
  8
21
100
AcDbLine
 10
297.1116997432805
 20
67.0
 30
0.0
 11
303.6116997432806
 21
67.0
 31
0.0
  0
LINE
  5
A527
330
1E
100
AcDbEntity
  8
21
100
AcDbLine
 10
297.1116997432805
 20
77.0
 30
0.0
 11
303.6116997432806
 21
77.0
 31
0.0
  0
LINE
  5
A528
330
1E
100
AcDbEntity
  8
21
100
AcDbLine
 10
303.6116997432806
 20
69.0
 30
0.0
 11
303.6116997432806
 21
67.0
 31
0.0
  0
LINE
  5
A529
330
1E
100
AcDbEntity
  8
21
100
AcDbLine
 10
303.6116997432806
 20
77.0
 30
0.0
 11
303.6116997432806
 21
75.0
 31
0.0
  0
LINE
  5
A52A
330
1E
100
AcDbEntity
  8
21
100
AcDbLine
 10
337.6116997432806
 20
69.0
 30
0.0
 11
337.6116997432806
 21
62.0
 31
0.0
  0
LINE
  5
A52B
330
1E
100
AcDbEntity
  8
21
100
AcDbLine
 10
340.6116997432806
 20
69.0
 30
0.0
 11
340.6116997432806
 21
75.0
 31
0.0
  0
LINE
  5
A52C
330
1E
100
AcDbEntity
  8
21
100
AcDbLine
 10
344.1116997432801
 20
75.0
 30
0.0
 11
375.6116997432806
 21
75.0
 31
0.0
  0
LINE
  5
A52D
330
1E
100
AcDbEntity
  8
21
100
AcDbLine
 10
344.1116997432801
 20
69.0
 30
0.0
 11
375.6116997432806
 21
69.0
 31
0.0
  0
LINE
  5
A52E
330
1E
100
AcDbEntity
  8
21
100
AcDbLine
 10
344.1116997432806
 20
69.0
 30
0.0
 11
344.1116997432806
 21
67.0
 31
0.0
  0
LINE
  5
A52F
330
1E
100
AcDbEntity
  8
21
100
AcDbLine
 10
344.1116997432806
 20
77.0
 30
0.0
 11
344.1116997432806
 21
75.0
 31
0.0
  0
LINE
  5
A530
330
1E
100
AcDbEntity
  8
21
100
AcDbLine
 10
375.6116997432806
 20
69.0
 30
0.0
 11
375.6116997432806
 21
75.0
 31
0.0
  0
LINE
  5
A531
330
1E
100
AcDbEntity
  8
21
100
AcDbLine
 10
269.6116997432806
 20
82.0
 30
0.0
 11
337.6116997432806
 21
82.0
 31
0.0
  0
LINE
  5
A61B
330
1E
100
AcDbEntity
  8
10
100
AcDbLine
 10
87.49999999999998
 20
156.7932906240165
 30
0.0
 11
87.5
 21
263.7932906240166
 31
0.0
  0
LINE
  5
A61C
330
1E
100
AcDbEntity
  8
10
100
AcDbLine
 10
-52.5
 20
156.7932906240166
 30
0.0
 11
-52.5
 21
263.7932906240166
 31
0.0
  0
LINE
  5
A61E
330
1E
100
AcDbEntity
  8
10
100
AcDbLine
 10
87.5
 20
167.7932906240165
 30
0.0
 11
-52.49999999999989
 21
167.7932906240165
 31
0.0
  0
LINE
  5
A61F
330
1E
100
AcDbEntity
  8
10
100
AcDbLine
 10
87.49999999999998
 20
156.7932906240165
 30
0.0
 11
-52.5
 21
156.7932906240166
 31
0.0
  0
LINE
  5
A620
330
1E
100
AcDbEntity
  8
10
100
AcDbLine
 10
87.5
 20
160.7932906240165
 30
0.0
 11
-52.5
 21
160.7932906240165
 31
0.0
  0
LINE
  5
A622
330
1E
100
AcDbEntity
  8
10
100
AcDbLine
 10
-7.0
 20
152.7932906240165
 30
0.0
 11
-7.0
 21
140.7980368244213
 31
0.0
  0
LINE
  5
A623
330
1E
100
AcDbEntity
  8
10
100
AcDbLine
 10
7.0
 20
152.7932906240165
 30
0.0
 11
7.0
 21
140.7980368244213
 31
0.0
  0
LINE
  5
A624
330
1E
100
AcDbEntity
  8
10
100
AcDbLine
 10
-7.0
 20
140.7980368244213
 30
0.0
 11
7.0
 21
140.7980368244213
 31
0.0
  0
LINE
  5
A625
330
1E
100
AcDbEntity
  8
10
100
AcDbLine
 10
11.0
 20
152.7932906240165
 30
0.0
 11
-11.0
 21
152.7932906240165
 31
0.0
  0
LINE
  5
A626
330
1E
100
AcDbEntity
  8
10
100
AcDbLine
 10
-11.0
 20
152.7932906240167
 30
0.0
 11
-11.0
 21
156.7932906240165
 31
0.0
  0
LINE
  5
A627
330
1E
100
AcDbEntity
  8
10
100
AcDbLine
 10
11.0
 20
152.7932906240167
 30
0.0
 11
11.0
 21
156.7932906240165
 31
0.0
  0
LINE
  5
A629
330
1E
100
AcDbEntity
  8
18
100
AcDbLine
 10
107.4999999999999
 20
266.9932906240167
 30
0.0
 11
-72.5
 21
266.9932906240167
 31
0.0
  0
LINE
  5
A62A
330
1E
100
AcDbEntity
  8
18
100
AcDbLine
 10
-52.5
 20
263.7932906240166
 30
0.0
 11
-72.5
 21
263.7932906240166
 31
0.0
  0
LINE
  5
A62B
330
1E
100
AcDbEntity
  8
21
100
AcDbLine
 10
-32.0
 20
297.7932906240166
 30
0.0
 11
-32.0
 21
334.7932906240166
 31
0.0
  0
LINE
  5
A62C
330
1E
100
AcDbEntity
  8
21
100
AcDbLine
 10
-38.0
 20
297.7932906240166
 30
0.0
 11
-38.0
 21
334.7932906240166
 31
0.0
  0
LINE
  5
A62D
330
1E
100
AcDbEntity
  8
21
100
AcDbLine
 10
38.0
 20
297.7932906240166
 30
0.0
 11
38.0
 21
334.7932906240166
 31
0.0
  0
LINE
  5
A62E
330
1E
100
AcDbEntity
  8
21
100
AcDbLine
 10
32.0
 20
297.7932906240166
 30
0.0
 11
32.0
 21
334.7932906240166
 31
0.0
  0
LINE
  5
A630
330
1E
100
AcDbEntity
  8
21
100
AcDbLine
 10
10.0
 20
263.7932906240166
 30
0.0
 11
10.0
 21
331.7932906240166
 31
0.0
  0
LINE
  5
A631
330
1E
100
AcDbEntity
  8
21
100
AcDbLine
 10
-10.0
 20
263.7932906240166
 30
0.0
 11
-10.0
 21
331.7932906240166
 31
0.0
  0
LINE
  5
A633
330
1E
100
AcDbEntity
  8
21
100
AcDbLine
 10
80.0
 20
263.7932906240166
 30
0.0
 11
80.0
 21
331.7932906240166
 31
0.0
  0
LINE
  5
A634
330
1E
100
AcDbEntity
  8
21
100
AcDbLine
 10
60.0
 20
263.7932906240166
 30
0.0
 11
60.0
 21
331.7932906240166
 31
0.0
  0
LINE
  5
A636
330
1E
100
AcDbEntity
  8
10
100
AcDbLine
 10
87.5
 20
263.7932906240166
 30
0.0
 11
-52.5
 21
263.7932906240166
 31
0.0
  0
LINE
  5
A637
330
1E
100
AcDbEntity
  8
21
100
AcDbLine
 10
45.0
 20
291.2932906240166
 30
0.0
 11
25.0
 21
291.2932906240166
 31
0.0
  0
LINE
  5
A638
330
1E
100
AcDbEntity
  8
21
100
AcDbLine
 10
-25.0
 20
263.7932906240166
 30
0.0
 11
-25.0
 21
291.2932906240166
 31
0.0
  0
LINE
  5
A639
330
1E
100
AcDbEntity
  8
21
100
AcDbLine
 10
-45.0
 20
263.7932906240166
 30
0.0
 11
-45.0
 21
291.2932906240166
 31
0.0
  0
LINE
  5
A63A
330
1E
100
AcDbEntity
  8
12
100
AcDbLine
 10
-15.5
 20
271.7932906240166
 30
0.0
 11
-19.5
 21
271.7932906240166
 31
0.0
  0
LINE
  5
A63B
330
1E
100
AcDbEntity
  8
12
100
AcDbLine
 10
-19.5
 20
263.7932906240166
 30
0.0
 11
-19.5
 21
271.7932906240166
 31
0.0
  0
LINE
  5
A63C
330
1E
100
AcDbEntity
  8
12
100
AcDbLine
 10
-15.5
 20
263.7932906240166
 30
0.0
 11
-15.5
 21
271.7932906240166
 31
0.0
  0
LINE
  5
A63D
330
1E
100
AcDbEntity
  8
21
100
AcDbLine
 10
-25.0
 20
291.2932906240166
 30
0.0
 11
-45.0
 21
291.2932906240166
 31
0.0
  0
LINE
  5
A63E
330
1E
100
AcDbEntity
  8
21
100
AcDbLine
 10
-30.0
 20
291.2932906240166
 30
0.0
 11
-30.0
 21
297.7932906240166
 31
0.0
  0
LINE
  5
A63F
330
1E
100
AcDbEntity
  8
21
100
AcDbLine
 10
-40.0
 20
291.2932906240166
 30
0.0
 11
-40.0
 21
297.7932906240166
 31
0.0
  0
LINE
  5
A640
330
1E
100
AcDbEntity
  8
21
100
AcDbLine
 10
-40.0
 20
297.7932906240166
 30
0.0
 11
-37.99999999999988
 21
297.7932906240166
 31
0.0
  0
LINE
  5
A641
330
1E
100
AcDbEntity
  8
21
100
AcDbLine
 10
-32.0
 20
297.7932906240166
 30
0.0
 11
-30.0
 21
297.7932906240166
 31
0.0
  0
LINE
  5
A642
330
1E
100
AcDbEntity
  8
21
100
AcDbLine
 10
25.0
 20
263.7932906240166
 30
0.0
 11
25.0
 21
291.2932906240166
 31
0.0
  0
LINE
  5
A643
330
1E
100
AcDbEntity
  8
12
100
AcDbLine
 10
19.5
 20
271.7932906240166
 30
0.0
 11
15.5
 21
271.7932906240166
 31
0.0
  0
LINE
  5
A644
330
1E
100
AcDbEntity
  8
12
100
AcDbLine
 10
15.5
 20
263.7932906240166
 30
0.0
 11
15.5
 21
271.7932906240166
 31
0.0
  0
LINE
  5
A645
330
1E
100
AcDbEntity
  8
12
100
AcDbLine
 10
19.5
 20
263.7932906240166
 30
0.0
 11
19.5
 21
271.7932906240166
 31
0.0
  0
LINE
  5
A646
330
1E
100
AcDbEntity
  8
21
100
AcDbLine
 10
40.0
 20
291.2932906240166
 30
0.0
 11
40.0
 21
297.7932906240166
 31
0.0
  0
LINE
  5
A647
330
1E
100
AcDbEntity
  8
21
100
AcDbLine
 10
30.0
 20
291.2932906240166
 30
0.0
 11
30.0
 21
297.7932906240166
 31
0.0
  0
LINE
  5
A648
330
1E
100
AcDbEntity
  8
21
100
AcDbLine
 10
30.0
 20
297.7932906240166
 30
0.0
 11
32.0
 21
297.7932906240166
 31
0.0
  0
LINE
  5
A649
330
1E
100
AcDbEntity
  8
21
100
AcDbLine
 10
38.0
 20
297.7932906240166
 30
0.0
 11
40.0
 21
297.7932906240166
 31
0.0
  0
LINE
  5
A64A
330
1E
100
AcDbEntity
  8
18
100
AcDbLine
 10
107.4999999999999
 20
263.7932906240166
 30
0.0
 11
87.5
 21
263.7932906240166
 31
0.0
  0
LINE
  5
A64B
330
1E
100
AcDbEntity
  8
21
100
AcDbLine
 10
45.0
 20
263.7932906240166
 30
0.0
 11
45.0
 21
291.2932906240166
 31
0.0
  0
LINE
  5
A64C
330
1E
100
AcDbEntity
  8
17
100
AcDbLine
 10
47.99999999999966
 20
319.7932906240166
 30
0.0
 11
21.99999999999965
 21
319.7932906240166
 31
0.0
  0
LINE
  5
A64D
330
1E
100
AcDbEntity
  8
21
100
AcDbLine
 10
-3.0
 20
338.2932906240164
 30
0.0
 11
-3.0
 21
369.7932906240166
 31
0.0
  0
LINE
  5
A64E
330
1E
100
AcDbEntity
  8
21
100
AcDbLine
 10
3.0
 20
338.2932906240164
 30
0.0
 11
3.0
 21
369.7932906240166
 31
0.0
  0
LINE
  5
A64F
330
1E
100
AcDbEntity
  8
17
100
AcDbLine
 10
-22.0
 20
319.7932906240166
 30
0.0
 11
-48.0
 21
319.7932906240166
 31
0.0
  0
LINE
  5
A650
330
1E
100
AcDbEntity
  8
21
100
AcDbLine
 10
-38.0
 20
334.7932906240166
 30
0.0
 11
-32.0
 21
334.7932906240166
 31
0.0
  0
LINE
  5
A651
330
1E
100
AcDbEntity
  8
21
100
AcDbLine
 10
5.0
 20
331.7932906240166
 30
0.0
 11
5.0
 21
338.2932906240166
 31
0.0
  0
LINE
  5
A652
330
1E
100
AcDbEntity
  8
21
100
AcDbLine
 10
-5.0
 20
331.7932906240166
 30
0.0
 11
-5.0
 21
338.2932906240166
 31
0.0
  0
LINE
  5
A653
330
1E
100
AcDbEntity
  8
21
100
AcDbLine
 10
10.0
 20
331.7932906240166
 30
0.0
 11
-10.0
 21
331.7932906240166
 31
0.0
  0
LINE
  5
A654
330
1E
100
AcDbEntity
  8
21
100
AcDbLine
 10
32.0
 20
334.7932906240166
 30
0.0
 11
38.0
 21
334.7932906240166
 31
0.0
  0
LINE
  5
A655
330
1E
100
AcDbEntity
  8
21
100
AcDbLine
 10
-3.0
 20
338.2932906240166
 30
0.0
 11
-5.0
 21
338.2932906240166
 31
0.0
  0
LINE
  5
A656
330
1E
100
AcDbEntity
  8
21
100
AcDbLine
 10
5.0
 20
338.2932906240166
 30
0.0
 11
3.0
 21
338.2932906240166
 31
0.0
  0
LINE
  5
A657
330
1E
100
AcDbEntity
  8
17
100
AcDbLine
 10
13.0
 20
354.7932906240166
 30
0.0
 11
-13.0
 21
354.7932906240166
 31
0.0
  0
LINE
  5
A658
330
1E
100
AcDbEntity
  8
21
100
AcDbLine
 10
-3.0
 20
369.7932906240166
 30
0.0
 11
3.0
 21
369.7932906240166
 31
0.0
  0
LINE
  5
A659
330
1E
100
AcDbEntity
  8
21
100
AcDbLine
 10
67.0
 20
338.2932906240164
 30
0.0
 11
67.0
 21
369.7932906240166
 31
0.0
  0
LINE
  5
A65A
330
1E
100
AcDbEntity
  8
21
100
AcDbLine
 10
73.0
 20
338.2932906240164
 30
0.0
 11
73.0
 21
369.7932906240166
 31
0.0
  0
LINE
  5
A65B
330
1E
100
AcDbEntity
  8
21
100
AcDbLine
 10
75.0
 20
331.7932906240166
 30
0.0
 11
75.0
 21
338.2932906240166
 31
0.0
  0
LINE
  5
A65C
330
1E
100
AcDbEntity
  8
21
100
AcDbLine
 10
65.0
 20
331.7932906240166
 30
0.0
 11
65.0
 21
338.2932906240166
 31
0.0
  0
LINE
  5
A65D
330
1E
100
AcDbEntity
  8
21
100
AcDbLine
 10
80.0
 20
331.7932906240166
 30
0.0
 11
60.0
 21
331.7932906240166
 31
0.0
  0
LINE
  5
A65E
330
1E
100
AcDbEntity
  8
21
100
AcDbLine
 10
75.0
 20
338.2932906240166
 30
0.0
 11
73.0
 21
338.2932906240166
 31
0.0
  0
LINE
  5
A65F
330
1E
100
AcDbEntity
  8
17
100
AcDbLine
 10
82.99999999999966
 20
354.7932906240166
 30
0.0
 11
56.99999999999966
 21
354.7932906240166
 31
0.0
  0
LINE
  5
A660
330
1E
100
AcDbEntity
  8
21
100
AcDbLine
 10
67.0
 20
338.2932906240166
 30
0.0
 11
65.0
 21
338.2932906240166
 31
0.0
  0
LINE
  5
A661
330
1E
100
AcDbEntity
  8
21
100
AcDbLine
 10
67.0
 20
369.7932906240166
 30
0.0
 11
73.0
 21
369.7932906240166
 31
0.0
  0
DIMENSION
  5
A662
330
1E
100
AcDbEntity
  8
30
100
AcDbDimension
  2
*D24
 10
87.5
 20
122.5669299216751
 30
0.0
 11
17.5003616043408
 21
125.5669299216751
 31
0.0
 70
    32
  3
STANDARD
100
AcDbAlignedDimension
 13
-52.4992767913184
 23
156.7932906240166
 33
0.0
 14
87.5
 24
156.7932906240165
 34
0.0
100
AcDbRotatedDimension
1001
ACAD
1000
DSTYLE
1002
{
1070
   287
1070
     4
1070
   287
1070
     4
1070
    79
1070
     3
1070
   279
1070
     1
1002
}
  0
DIMENSION
  5
A663
330
1E
100
AcDbEntity
  8
30
100
AcDbDimension
  2
*D27
 10
70.00009040108523
 20
387.4338958056117
 30
0.0
 11
52.50018080217046
 21
390.4338958056117
 31
0.0
 70
    32
  3
STANDARD
100
AcDbAlignedDimension
 13
35.00027120325569
 23
345.0400414430429
 33
0.0
 14
70.00009040108523
 24
381.5398528922077
 34
0.0
100
AcDbRotatedDimension
1001
ACAD
1000
DSTYLE
1002
{
1070
   287
1070
     4
1070
   287
1070
     4
1070
   279
1070
     1
1002
}
  0
DIMENSION
  5
A664
330
1E
100
AcDbEntity
  8
30
100
AcDbDimension
  2
*D25
 10
0.0004520054260986
 20
387.4338958056117
 30
0.0
 11
-17.49945759348874
 21
390.4338958056117
 31
0.0
 70
    32
  3
STANDARD
100
AcDbAlignedDimension
 13
-34.99936719240361
 23
345.0400414430429
 33
0.0
 14
0.0004520054260979
 24
376.5398787210893
 34
0.0
100
AcDbRotatedDimension
  0
DIMENSION
  5
A665
330
1E
100
AcDbEntity
  8
30
100
AcDbDimension
  2
*D26
 10
35.00027120325569
 20
387.4338958056117
 30
0.0
 11
17.50036160434089
 21
390.4338958056117
 31
0.0
 70
    32
  3
STANDARD
100
AcDbAlignedDimension
 13
0.0004520054260979
 23
376.5398787210893
 33
0.0
 14
35.00027120325569
 24
345.0400414430429
 34
0.0
100
AcDbRotatedDimension
1001
ACAD
1000
DSTYLE
1002
{
1070
   287
1070
     4
1070
   287
1070
     4
1070
   279
1070
     1
1002
}
  0
DIMENSION
  5
A6DE
330
1E
100
AcDbEntity
  8
30
100
AcDbDimension
  2
*D28
 10
124.9968158729645
 20
263.7932906240166
 30
0.0
 11
121.9968158729645
 21
267.7932699609113
 31
0.0
 70
    32
  3
STANDARD
100
AcDbAlignedDimension
 13
19.50035127278828
 23
271.7932492978062
 33
0.0
 14
107.4998966844739
 24
263.7932906240166
 34
0.0
 50
90.0
100
AcDbRotatedDimension
1001
ACAD
1000
DSTYLE
1002
{
1070
   287
1070
     4
1070
   287
1070
     4
1070
    79
1070
     3
1070
   279
1070
     1
1002
}
  0
MTEXT
  5
A752
330
1E
100
AcDbEntity
  8
19
100
AcDbMText
 10
177.2362568782941
 20
272.2647131727603
 30
0.0
 40
5.0
 41
70.0
 71
     1
 72
     5
  1
H125-NJ 4P RC\PL125-NJ 4P RC\PH160-NJ 4P RC\PL160-NJ 4P RC\PH250-NJ 4P RC\PL250-NJ 4P RC\PS250-PE 4P RC\PH250-NE 4P RC
  7
STANDARD1
1001
ACAD
1000
MTEXTBEGIN
1070
    73
1070
     1
1070
    44
1040
1.0
1070
    74
1070
     0
1000
MTEXTEND
  0
VIEWPORT
  5
9AC
330
1A
100
AcDbEntity
 67
     1
  8
0
  6
CONTINUOUS
100
AcDbViewport
 10
171.9995348790992
 20
144.1384735538403
 30
0.0
 40
488.8676857773511
 41
292.3514905034161
 68
     1
 69
     1
1001
ACAD
1000
MVIEW
1002
{
1070
    16
1010
0.0
1020
0.0
1030
0.0
1010
0.0
1020
0.0
1030
1.0
1040
0.0
1040
292.3514905034161
1040
171.9995348790992
1040
144.1384735538403
1040
50.0
1040
0.0
1040
0.0
1070
     0
1070
   100
1070
     1
1070
     1
1070
     0
1070
     0
1070
     0
1070
     0
1040
0.0
1040
0.0
1040
0.0
1040
10.0
1040
10.0
1040
10.0
1040
10.0
1070
     0
1002
{
1002
}
1002
}
  0
ENDSEC
  0
SECTION
  2
OBJECTS
  0
DICTIONARY
  5
C
330
0
100
AcDbDictionary
  3
ACAD_GROUP
350
D
  3
ACAD_LAYOUT
350
19
  3
ACAD_MLINESTYLE
350
16
  3
ACAD_PLOTSETTINGS
350
18
  3
ACAD_PLOTSTYLENAME
350
E
  3
ACADDIM
350
92CE
  3
ACDBHEADERROUNDTRIPXREC
350
A7E6
  3
ACDBVARIABLEDICTIONARY
350
5B5E
  0
DICTIONARY
  5
178
330
1E
100
AcDbDictionary
280
     1
  3
ACAD_LAYOUTSELFREF
360
A808
  0
DICTIONARY
  5
17A
330
1A
100
AcDbDictionary
280
     1
  3
ACAD_LAYOUTSELFREF
360
A807
  0
DICTIONARY
  5
D
102
{ACAD_REACTORS
330
C
102
}
330
C
100
AcDbDictionary
  0
DICTIONARY
  5
19
102
{ACAD_REACTORS
330
C
102
}
330
C
100
AcDbDictionary
  0
DICTIONARY
  5
16
102
{ACAD_REACTORS
330
C
102
}
330
C
100
AcDbDictionary
  3
STANDARD
350
17
  0
DICTIONARY
  5
18
102
{ACAD_REACTORS
330
C
102
}
330
C
100
AcDbDictionary
  0
ACDBDICTIONARYWDFLT
  5
E
102
{ACAD_REACTORS
330
C
102
}
330
C
100
AcDbDictionary
281
     1
  3
Normal
350
F
100
AcDbDictionaryWithDefault
340
F
  0
XRECORD
  5
92CE
102
{ACAD_REACTORS
330
C
102
}
330
C
100
AcDbXrecord
 90
   990106
  3

 60
     0
 61
     0
 62
     1
 63
     3
 64
     0
 65
     0
 66
     0
 67
     3
 68
     1
 69
     0
 70
     0
 71
     0
 72
     0
 40
0.0
170
     0
  0
DICTIONARY
  5
A7E6
102
{ACAD_REACTORS
330
C
102
}
330
C
100
AcDbDictionary
  3
CEPSNTYPE
350
A7F0
  3
DIMSTYLEDATA
350
A7F4
  3
FINGERPRINTGUID
350
A7F1
  3
HYPERLINKBASE
350
A7E9
  3
INSUNITS
350
A7EF
  3
LAYOUTDICT
350
A7EB
  3
LWETCUNION
350
A7EE
  3
PLOTSETDICT
350
A7EC
  3
PLOTSTYLNAMDICT
350
A7ED
  3
PSVPSCALE
350
A7F3
  3
PUCSBASE
350
A7F7
  3
PUCSORGBACK
350
A7FD
  3
PUCSORGBOTTOM
350
A7F9
  3
PUCSORGFRONT
350
A7FC
  3
PUCSORGLEFT
350
A7FA
  3
PUCSORGRIGHT
350
A7FB
  3
PUCSORGTOP
350
A7F8
  3
PUCSORTHOREF
350
A7F5
  3
PUCSORTHOVIEW
350
A7F6
  3
STYLESHEET
350
A7EA
  3
TSTACKALIGN
350
A7E7
  3
TSTACKSIZE
350
A7E8
  3
UCSBASE
350
A800
  3
UCSORGBACK
350
A806
  3
UCSORGBOTTOM
350
A802
  3
UCSORGFRONT
350
A805
  3
UCSORGLEFT
350
A803
  3
UCSORGRIGHT
350
A804
  3
UCSORGTOP
350
A801
  3
UCSORTHOREF
350
A7FE
  3
UCSORTHOVIEW
350
A7FF
  3
VERSIONGUID
350
A7F2
  0
DICTIONARY
  5
5B5E
102
{ACAD_REACTORS
330
C
102
}
330
C
100
AcDbDictionary
  3
DIMASSOC
350
5B5F
  0
XRECORD
  5
A808
102
{ACAD_REACTORS
330
178
102
}
330
178
100
AcDbXrecord
340
1E
  0
XRECORD
  5
A807
102
{ACAD_REACTORS
330
17A
102
}
330
17A
100
AcDbXrecord
340
1A
  0
MLINESTYLE
  5
17
102
{ACAD_REACTORS
330
16
102
}
330
16
100
AcDbMlineStyle
  2
STANDARD
 70
     0
  3

 62
   256
 51
90.0
 52
90.0
 71
     2
 49
0.5
 62
   256
  6
BYLAYER
 49
-0.5
 62
   256
  6
BYLAYER
  0
ACDBPLACEHOLDER
  5
F
102
{ACAD_REACTORS
330
E
102
}
330
E
100
AcDbPlaceHolder
280
     0
  0
XRECORD
  5
A7F0
102
{ACAD_REACTORS
330
A7E6
102
}
330
A7E6
100
AcDbXrecord
 90
        0
  0
XRECORD
  5
A7F4
102
{ACAD_REACTORS
330
A7E6
102
}
330
A7E6
100
AcDbXrecord
1000
DSTYLE
1002
{
1070
   341
340
3B2
1070
   342
340
3B2
1002
}
  0
XRECORD
  5
A7F1
102
{ACAD_REACTORS
330
A7E6
102
}
330
A7E6
100
AcDbXrecord
  1

  0
XRECORD
  5
A7E9
102
{ACAD_REACTORS
330
A7E6
102
}
330
A7E6
100
AcDbXrecord
  1

  0
XRECORD
  5
A7EF
102
{ACAD_REACTORS
330
A7E6
102
}
330
A7E6
100
AcDbXrecord
 90
        0
  0
XRECORD
  5
A7EB
102
{ACAD_REACTORS
330
A7E6
102
}
330
A7E6
100
AcDbXrecord
340
19
  0
XRECORD
  5
A7EE
102
{ACAD_REACTORS
330
A7E6
102
}
330
A7E6
100
AcDbXrecord
 90
    10781
  0
XRECORD
  5
A7EC
102
{ACAD_REACTORS
330
A7E6
102
}
330
A7E6
100
AcDbXrecord
340
18
  0
XRECORD
  5
A7ED
102
{ACAD_REACTORS
330
A7E6
102
}
330
A7E6
100
AcDbXrecord
340
E
  0
XRECORD
  5
A7F3
102
{ACAD_REACTORS
330
A7E6
102
}
330
A7E6
100
AcDbXrecord
 40
0.0
  0
XRECORD
  5
A7F7
102
{ACAD_REACTORS
330
A7E6
102
}
330
A7E6
100
AcDbXrecord
340
0
  0
XRECORD
  5
A7FD
102
{ACAD_REACTORS
330
A7E6
102
}
330
A7E6
100
AcDbXrecord
 10
0.0
 20
0.0
 30
0.0
  0
XRECORD
  5
A7F9
102
{ACAD_REACTORS
330
A7E6
102
}
330
A7E6
100
AcDbXrecord
 10
0.0
 20
0.0
 30
0.0
  0
XRECORD
  5
A7FC
102
{ACAD_REACTORS
330
A7E6
102
}
330
A7E6
100
AcDbXrecord
 10
0.0
 20
0.0
 30
0.0
  0
XRECORD
  5
A7FA
102
{ACAD_REACTORS
330
A7E6
102
}
330
A7E6
100
AcDbXrecord
 10
0.0
 20
0.0
 30
0.0
  0
XRECORD
  5
A7FB
102
{ACAD_REACTORS
330
A7E6
102
}
330
A7E6
100
AcDbXrecord
 10
0.0
 20
0.0
 30
0.0
  0
XRECORD
  5
A7F8
102
{ACAD_REACTORS
330
A7E6
102
}
330
A7E6
100
AcDbXrecord
 10
0.0
 20
0.0
 30
0.0
  0
XRECORD
  5
A7F5
102
{ACAD_REACTORS
330
A7E6
102
}
330
A7E6
100
AcDbXrecord
340
0
  0
XRECORD
  5
A7F6
102
{ACAD_REACTORS
330
A7E6
102
}
330
A7E6
100
AcDbXrecord
 70
     0
  0
XRECORD
  5
A7EA
102
{ACAD_REACTORS
330
A7E6
102
}
330
A7E6
100
AcDbXrecord
  1
kiki.ctb
  0
XRECORD
  5
A7E7
102
{ACAD_REACTORS
330
A7E6
102
}
330
A7E6
100
AcDbXrecord
 90
        1
  0
XRECORD
  5
A7E8
102
{ACAD_REACTORS
330
A7E6
102
}
330
A7E6
100
AcDbXrecord
 90
       70
  0
XRECORD
  5
A800
102
{ACAD_REACTORS
330
A7E6
102
}
330
A7E6
100
AcDbXrecord
340
0
  0
XRECORD
  5
A806
102
{ACAD_REACTORS
330
A7E6
102
}
330
A7E6
100
AcDbXrecord
 10
0.0
 20
0.0
 30
0.0
  0
XRECORD
  5
A802
102
{ACAD_REACTORS
330
A7E6
102
}
330
A7E6
100
AcDbXrecord
 10
0.0
 20
0.0
 30
0.0
  0
XRECORD
  5
A805
102
{ACAD_REACTORS
330
A7E6
102
}
330
A7E6
100
AcDbXrecord
 10
0.0
 20
0.0
 30
0.0
  0
XRECORD
  5
A803
102
{ACAD_REACTORS
330
A7E6
102
}
330
A7E6
100
AcDbXrecord
 10
0.0
 20
0.0
 30
0.0
  0
XRECORD
  5
A804
102
{ACAD_REACTORS
330
A7E6
102
}
330
A7E6
100
AcDbXrecord
 10
0.0
 20
0.0
 30
0.0
  0
XRECORD
  5
A801
102
{ACAD_REACTORS
330
A7E6
102
}
330
A7E6
100
AcDbXrecord
 10
0.0
 20
0.0
 30
0.0
  0
XRECORD
  5
A7FE
102
{ACAD_REACTORS
330
A7E6
102
}
330
A7E6
100
AcDbXrecord
340
0
  0
XRECORD
  5
A7FF
102
{ACAD_REACTORS
330
A7E6
102
}
330
A7E6
100
AcDbXrecord
 70
     0
  0
XRECORD
  5
A7F2
102
{ACAD_REACTORS
330
A7E6
102
}
330
A7E6
100
AcDbXrecord
  1
{35C17EB4-84AF-42E1-9059-D6675CD19357}
  0
DICTIONARYVAR
  5
5B5F
102
{ACAD_REACTORS
330
5B5E
102
}
330
5B5E
100
DictionaryVariables
280
     0
  1
1
  0
ENDSEC
  0
EOF
