  0
SECTION
  2
HEADER
  9
$ACADVER
  1
AC1014
  9
$ACADMAINTVER
 70
     9
  9
$DWGCODEPAGE
  3
ANSI_932
  9
$INSBASE
 10
0.0
 20
0.0
 30
0.0
  9
$EXTMIN
 10
-122.5533200387683
 20
-530.8541156769193
 30
-0.000000000000013
  9
$EXTMAX
 10
527.7800088018625
 20
499.5874346976015
 30
0.0000000000000023
  9
$LIMMIN
 10
-296.316999476111
 20
-370.7034300441653
  9
$LIMMAX
 10
623.3128432133979
 20
328.6261559379898
  9
$ORTHOMODE
 70
     1
  9
$REGENMODE
 70
     1
  9
$FILLMODE
 70
     1
  9
$QTEXTMODE
 70
     0
  9
$MIRRTEXT
 70
     1
  9
$DRAGMODE
 70
     2
  9
$LTSCALE
 40
10.0
  9
$OSMODE
 70
    39
  9
$ATTMODE
 70
     1
  9
$TEXTSIZE
 40
5.0
  9
$TRACEWID
 40
0.05
  9
$TEXTSTYLE
  7
STANDARD1
  9
$CLAYER
  8
30
  9
$CELTYPE
  6
CONTINUOUS
  9
$CECOLOR
 62
   256
  9
$CELTSCALE
 40
1.0
  9
$DELOBJ
 70
     1
  9
$DISPSILH
 70
     0
  9
$DIMSCALE
 40
1.0
  9
$DIMASZ
 40
2.0
  9
$DIMEXO
 40
1.0
  9
$DIMDLI
 40
0.5
  9
$DIMRND
 40
0.0
  9
$DIMDLE
 40
0.0
  9
$DIMEXE
 40
0.5
  9
$DIMTP
 40
0.0
  9
$DIMTM
 40
0.0
  9
$DIMTXT
 40
6.0
  9
$DIMCEN
 40
0.09
  9
$DIMTSZ
 40
0.0
  9
$DIMTOL
 70
     0
  9
$DIMLIM
 70
     0
  9
$DIMTIH
 70
     0
  9
$DIMTOH
 70
     1
  9
$DIMSE1
 70
     0
  9
$DIMSE2
 70
     0
  9
$DIMTAD
 70
     3
  9
$DIMZIN
 70
    12
  9
$DIMBLK
  1
OPEN
  9
$DIMASO
 70
     1
  9
$DIMSHO
 70
     1
  9
$DIMPOST
  1

  9
$DIMAPOST
  1

  9
$DIMALT
 70
     0
  9
$DIMALTD
 70
     2
  9
$DIMALTF
 40
25.4
  9
$DIMLFAC
 40
1.0
  9
$DIMTOFL
 70
     0
  9
$DIMTVP
 40
0.0
  9
$DIMTIX
 70
     0
  9
$DIMSOXD
 70
     0
  9
$DIMSAH
 70
     0
  9
$DIMBLK1
  1

  9
$DIMBLK2
  1

  9
$DIMSTYLE
  2
STANDARD
  9
$DIMCLRD
 70
     0
  9
$DIMCLRE
 70
     0
  9
$DIMCLRT
 70
     0
  9
$DIMTFAC
 40
1.0
  9
$DIMGAP
 40
1.0
  9
$DIMJUST
 70
     0
  9
$DIMSD1
 70
     0
  9
$DIMSD2
 70
     0
  9
$DIMTOLJ
 70
     1
  9
$DIMTZIN
 70
     0
  9
$DIMALTZ
 70
     0
  9
$DIMALTTZ
 70
     0
  9
$DIMFIT
 70
     3
  9
$DIMUPT
 70
     0
  9
$DIMUNIT
 70
     2
  9
$DIMDEC
 70
     1
  9
$DIMTDEC
 70
     1
  9
$DIMALTU
 70
     2
  9
$DIMALTTD
 70
     2
  9
$DIMTXSTY
  7
STANDARD
  9
$DIMAUNIT
 70
     0
  9
$LUNITS
 70
     2
  9
$LUPREC
 70
     4
  9
$SKETCHINC
 40
0.1
  9
$FILLETRAD
 40
0.0
  9
$AUNITS
 70
     0
  9
$AUPREC
 70
     0
  9
$MENU
  1
.
  9
$ELEVATION
 40
0.0
  9
$PELEVATION
 40
0.0
  9
$THICKNESS
 40
0.0
  9
$LIMCHECK
 70
     0
  9
$BLIPMODE
 70
     0
  9
$CHAMFERA
 40
0.0
  9
$CHAMFERB
 40
0.0
  9
$CHAMFERC
 40
0.0
  9
$CHAMFERD
 40
0.0
  9
$SKPOLY
 70
     0
  9
$TDCREATE
 40
2452286.555658657
  9
$TDUPDATE
 40
2453635.773595729
  9
$TDINDWG
 40
1.4417605208
  9
$TDUSRTIMER
 40
1.4417574884
  9
$USRTIMER
 70
     1
  9
$ANGBASE
 50
0.0
  9
$ANGDIR
 70
     0
  9
$PDMODE
 70
     0
  9
$PDSIZE
 40
0.0
  9
$PLINEWID
 40
0.0
  9
$COORDS
 70
     1
  9
$SPLFRAME
 70
     0
  9
$SPLINETYPE
 70
     6
  9
$SPLINESEGS
 70
     8
  9
$ATTDIA
 70
     0
  9
$ATTREQ
 70
     1
  9
$HANDLING
 70
-16383
  9
$HANDSEED
  5
99B5
  9
$SURFTAB1
 70
     6
  9
$SURFTAB2
 70
     6
  9
$SURFTYPE
 70
     6
  9
$SURFU
 70
     6
  9
$SURFV
 70
     6
  9
$UCSNAME
  2

  9
$UCSORG
 10
0.0
 20
0.0
 30
0.0
  9
$UCSXDIR
 10
1.0
 20
0.0
 30
0.0
  9
$UCSYDIR
 10
0.0
 20
1.0
 30
0.0
  9
$PUCSNAME
  2

  9
$PUCSORG
 10
0.0
 20
0.0
 30
0.0
  9
$PUCSXDIR
 10
1.0
 20
0.0
 30
0.0
  9
$PUCSYDIR
 10
0.0
 20
1.0
 30
0.0
  9
$USERI1
 70
     0
  9
$USERI2
 70
     0
  9
$USERI3
 70
     0
  9
$USERI4
 70
     0
  9
$USERI5
 70
     0
  9
$USERR1
 40
0.0
  9
$USERR2
 40
0.0
  9
$USERR3
 40
0.0
  9
$USERR4
 40
0.0
  9
$USERR5
 40
0.0
  9
$WORLDVIEW
 70
     1
  9
$SHADEDGE
 70
     3
  9
$SHADEDIF
 70
    70
  9
$TILEMODE
 70
     1
  9
$MAXACTVP
 70
    48
  9
$PINSBASE
 10
0.0
 20
0.0
 30
0.0
  9
$PLIMCHECK
 70
     0
  9
$PEXTMIN
 10
4.273573
 20
5.205245999999998
 30
0.0
  9
$PEXTMAX
 10
194.610095
 20
283.0697009999996
 30
0.0
  9
$PLIMMIN
 10
-5.873749
 20
-5.87375
  9
$PLIMMAX
 10
204.099579
 20
291.1369009999999
  9
$UNITMODE
 70
     0
  9
$VISRETAIN
 70
     1
  9
$PLINEGEN
 70
     0
  9
$PSLTSCALE
 70
     1
  9
$TREEDEPTH
 70
  3020
  9
$PICKSTYLE
 70
     1
  9
$CMLSTYLE
  2
STANDARD
  9
$CMLJUST
 70
     0
  9
$CMLSCALE
 40
1.0
  9
$PROXYGRAPHICS
 70
     1
  9
$MEASUREMENT
 70
     0
  0
ENDSEC
  0
SECTION
  2
CLASSES
  0
CLASS
  1
ACDBDICTIONARYWDFLT
  2
AcDbDictionaryWithDefault
  3
AutoCAD 2000
 90
        0
280
     0
281
     0
  0
CLASS
  1
ACDBPLACEHOLDER
  2
AcDbPlaceHolder
  3
AutoCAD 2000
 90
        0
280
     0
281
     0
  0
CLASS
  1
LAYOUT
  2
AcDbLayout
  3
AutoCAD 2000
 90
        0
280
     0
281
     0
  0
CLASS
  1
LONG_TRANSACTION
  2
AcDbLongTransaction
  3
AutoCAD 2000
 90
        0
280
     0
281
     0
  0
CLASS
  1
LWPOLYLINE
  2
AcDbPolyline
  3
AutoCAD 2000
 90
        0
280
     0
281
     1
  0
CLASS
  1
HATCH
  2
AcDbHatch
  3
AutoCAD 2000
 90
        0
280
     0
281
     1
  0
CLASS
  1
XRECORD
  2
AcDbXrecord
  3
AutoCAD 2000
 90
        0
280
     0
281
     0
  0
CLASS
  1
LONG_TRANSACTION
  2
AcDbLongTransaction
  3
AutoCAD 2000
 90
        0
280
     0
281
     0
  0
CLASS
  1
LWPOLYLINE
  2
AcDbPolyline
  3
AutoCAD 2000
 90
        0
280
     0
281
     1
  0
CLASS
  1
HATCH
  2
AcDbHatch
  3
AutoCAD 2000
 90
        0
280
     0
281
     1
  0
CLASS
  1
XRECORD
  2
AcDbXrecord
  3
AutoCAD 2000
 90
        0
280
     0
281
     0
  0
CLASS
  1
LONG_TRANSACTION
  2
AcDbLongTransaction
  3
AutoCAD 2000
 90
        0
280
     0
281
     0
  0
CLASS
  1
LWPOLYLINE
  2
AcDbPolyline
  3
AutoCAD 2000
 90
        0
280
     0
281
     1
  0
CLASS
  1
HATCH
  2
AcDbHatch
  3
AutoCAD 2000
 90
        0
280
     0
281
     1
  0
CLASS
  1
XRECORD
  2
AcDbXrecord
  3
AutoCAD 2000
 90
        0
280
     0
281
     0
  0
CLASS
  1
LONG_TRANSACTION
  2
AcDbLongTransaction
  3
AutoCAD 2000
 90
        0
280
     0
281
     0
  0
CLASS
  1
LWPOLYLINE
  2
AcDbPolyline
  3
AutoCAD 2000
 90
        0
280
     0
281
     1
  0
CLASS
  1
HATCH
  2
AcDbHatch
  3
AutoCAD 2000
 90
        0
280
     0
281
     1
  0
CLASS
  1
XRECORD
  2
AcDbXrecord
  3
AutoCAD 2000
 90
        0
280
     0
281
     0
  0
CLASS
  1
LONG_TRANSACTION
  2
AcDbLongTransaction
  3
AutoCAD 2000
 90
        0
280
     0
281
     0
  0
CLASS
  1
LWPOLYLINE
  2
AcDbPolyline
  3
AutoCAD 2000
 90
        0
280
     0
281
     1
  0
CLASS
  1
HATCH
  2
AcDbHatch
  3
AutoCAD 2000
 90
        0
280
     0
281
     1
  0
CLASS
  1
XRECORD
  2
AcDbXrecord
  3
AutoCAD 2000
 90
        0
280
     0
281
     0
  0
CLASS
  1
LONG_TRANSACTION
  2
AcDbLongTransaction
  3
AutoCAD 2000
 90
        0
280
     0
281
     0
  0
CLASS
  1
LWPOLYLINE
  2
AcDbPolyline
  3
AutoCAD 2000
 90
        0
280
     0
281
     1
  0
CLASS
  1
HATCH
  2
AcDbHatch
  3
AutoCAD 2000
 90
        0
280
     0
281
     1
  0
CLASS
  1
XRECORD
  2
AcDbXrecord
  3
AutoCAD 2000
 90
        0
280
     0
281
     0
  0
CLASS
  1
LONG_TRANSACTION
  2
AcDbLongTransaction
  3
AutoCAD 2000
 90
        0
280
     0
281
     0
  0
CLASS
  1
LWPOLYLINE
  2
AcDbPolyline
  3
AutoCAD 2000
 90
        0
280
     0
281
     1
  0
CLASS
  1
HATCH
  2
AcDbHatch
  3
AutoCAD 2000
 90
        0
280
     0
281
     1
  0
CLASS
  1
XRECORD
  2
AcDbXrecord
  3
AutoCAD 2000
 90
        0
280
     0
281
     0
  0
CLASS
  1
LONG_TRANSACTION
  2
AcDbLongTransaction
  3
AutoCAD 2000
 90
        0
280
     0
281
     0
  0
CLASS
  1
LWPOLYLINE
  2
AcDbPolyline
  3
AutoCAD 2000
 90
        0
280
     0
281
     1
  0
CLASS
  1
HATCH
  2
AcDbHatch
  3
AutoCAD 2000
 90
        0
280
     0
281
     1
  0
CLASS
  1
XRECORD
  2
AcDbXrecord
  3
AutoCAD 2000
 90
        0
280
     0
281
     0
  0
CLASS
  1
LONG_TRANSACTION
  2
AcDbLongTransaction
  3
AutoCAD 2000
 90
        0
280
     0
281
     0
  0
CLASS
  1
LWPOLYLINE
  2
AcDbPolyline
  3
AutoCAD 2000
 90
        0
280
     0
281
     1
  0
CLASS
  1
HATCH
  2
AcDbHatch
  3
AutoCAD 2000
 90
        0
280
     0
281
     1
  0
CLASS
  1
XRECORD
  2
AcDbXrecord
  3
AutoCAD 2000
 90
        0
280
     0
281
     0
  0
CLASS
  1
LONG_TRANSACTION
  2
AcDbLongTransaction
  3
AutoCAD 2000
 90
        0
280
     0
281
     0
  0
CLASS
  1
LWPOLYLINE
  2
AcDbPolyline
  3
AutoCAD 2000
 90
        0
280
     0
281
     1
  0
CLASS
  1
HATCH
  2
AcDbHatch
  3
AutoCAD 2000
 90
        0
280
     0
281
     1
  0
CLASS
  1
XRECORD
  2
AcDbXrecord
  3
AutoCAD 2000
 90
        0
280
     0
281
     0
  0
CLASS
  1
LONG_TRANSACTION
  2
AcDbLongTransaction
  3
AutoCAD 2000
 90
        0
280
     0
281
     0
  0
CLASS
  1
LWPOLYLINE
  2
AcDbPolyline
  3
AutoCAD 2000
 90
        0
280
     0
281
     1
  0
CLASS
  1
HATCH
  2
AcDbHatch
  3
AutoCAD 2000
 90
        0
280
     0
281
     1
  0
CLASS
  1
XRECORD
  2
AcDbXrecord
  3
AutoCAD 2000
 90
        0
280
     0
281
     0
  0
CLASS
  1
LONG_TRANSACTION
  2
AcDbLongTransaction
  3
AutoCAD 2000
 90
        0
280
     0
281
     0
  0
CLASS
  1
LWPOLYLINE
  2
AcDbPolyline
  3
AutoCAD 2000
 90
        0
280
     0
281
     1
  0
CLASS
  1
HATCH
  2
AcDbHatch
  3
AutoCAD 2000
 90
        0
280
     0
281
     1
  0
CLASS
  1
XRECORD
  2
AcDbXrecord
  3
AutoCAD 2000
 90
        0
280
     0
281
     0
  0
CLASS
  1
LONG_TRANSACTION
  2
AcDbLongTransaction
  3
AutoCAD 2000
 90
        0
280
     0
281
     0
  0
CLASS
  1
LWPOLYLINE
  2
AcDbPolyline
  3
AutoCAD 2000
 90
        0
280
     0
281
     1
  0
CLASS
  1
HATCH
  2
AcDbHatch
  3
AutoCAD 2000
 90
        0
280
     0
281
     1
  0
CLASS
  1
XRECORD
  2
AcDbXrecord
  3
AutoCAD 2000
 90
        0
280
     0
281
     0
  0
CLASS
  1
LONG_TRANSACTION
  2
AcDbLongTransaction
  3
AutoCAD 2000
 90
        0
280
     0
281
     0
  0
CLASS
  1
LWPOLYLINE
  2
AcDbPolyline
  3
AutoCAD 2000
 90
        0
280
     0
281
     1
  0
CLASS
  1
HATCH
  2
AcDbHatch
  3
AutoCAD 2000
 90
        0
280
     0
281
     1
  0
CLASS
  1
XRECORD
  2
AcDbXrecord
  3
AutoCAD 2000
 90
        0
280
     0
281
     0
  0
CLASS
  1
LONG_TRANSACTION
  2
AcDbLongTransaction
  3
AutoCAD 2000
 90
        0
280
     0
281
     0
  0
CLASS
  1
LWPOLYLINE
  2
AcDbPolyline
  3
AutoCAD 2000
 90
        0
280
     0
281
     1
  0
CLASS
  1
HATCH
  2
AcDbHatch
  3
AutoCAD 2000
 90
        0
280
     0
281
     1
  0
CLASS
  1
XRECORD
  2
AcDbXrecord
  3
AutoCAD 2000
 90
        0
280
     0
281
     0
  0
CLASS
  1
LONG_TRANSACTION
  2
AcDbLongTransaction
  3
AutoCAD 2000
 90
        0
280
     0
281
     0
  0
CLASS
  1
LWPOLYLINE
  2
AcDbPolyline
  3
AutoCAD 2000
 90
        0
280
     0
281
     1
  0
CLASS
  1
HATCH
  2
AcDbHatch
  3
AutoCAD 2000
 90
        0
280
     0
281
     1
  0
CLASS
  1
XRECORD
  2
AcDbXrecord
  3
AutoCAD 2000
 90
        0
280
     0
281
     0
  0
CLASS
  1
LONG_TRANSACTION
  2
AcDbLongTransaction
  3
AutoCAD 2000
 90
        0
280
     0
281
     0
  0
CLASS
  1
LWPOLYLINE
  2
AcDbPolyline
  3
AutoCAD 2000
 90
        0
280
     0
281
     1
  0
CLASS
  1
HATCH
  2
AcDbHatch
  3
AutoCAD 2000
 90
        0
280
     0
281
     1
  0
CLASS
  1
XRECORD
  2
AcDbXrecord
  3
AutoCAD 2000
 90
        0
280
     0
281
     0
  0
CLASS
  1
LONG_TRANSACTION
  2
AcDbLongTransaction
  3
AutoCAD 2000
 90
        0
280
     0
281
     0
  0
CLASS
  1
LWPOLYLINE
  2
AcDbPolyline
  3
AutoCAD 2000
 90
        0
280
     0
281
     1
  0
CLASS
  1
HATCH
  2
AcDbHatch
  3
AutoCAD 2000
 90
        0
280
     0
281
     1
  0
CLASS
  1
XRECORD
  2
AcDbXrecord
  3
AutoCAD 2000
 90
        0
280
     0
281
     0
  0
CLASS
  1
LONG_TRANSACTION
  2
AcDbLongTransaction
  3
AutoCAD 2000
 90
        0
280
     0
281
     0
  0
CLASS
  1
LWPOLYLINE
  2
AcDbPolyline
  3
AutoCAD 2000
 90
        0
280
     0
281
     1
  0
CLASS
  1
HATCH
  2
AcDbHatch
  3
AutoCAD 2000
 90
        0
280
     0
281
     1
  0
CLASS
  1
XRECORD
  2
AcDbXrecord
  3
AutoCAD 2000
 90
        0
280
     0
281
     0
  0
CLASS
  1
LONG_TRANSACTION
  2
AcDbLongTransaction
  3
AutoCAD 2000
 90
        0
280
     0
281
     0
  0
CLASS
  1
LWPOLYLINE
  2
AcDbPolyline
  3
AutoCAD 2000
 90
        0
280
     0
281
     1
  0
CLASS
  1
HATCH
  2
AcDbHatch
  3
AutoCAD 2000
 90
        0
280
     0
281
     1
  0
CLASS
  1
XRECORD
  2
AcDbXrecord
  3
AutoCAD 2000
 90
        0
280
     0
281
     0
  0
CLASS
  1
LONG_TRANSACTION
  2
AcDbLongTransaction
  3
AutoCAD 2000
 90
        0
280
     0
281
     0
  0
CLASS
  1
LWPOLYLINE
  2
AcDbPolyline
  3
AutoCAD 2000
 90
        0
280
     0
281
     1
  0
CLASS
  1
HATCH
  2
AcDbHatch
  3
AutoCAD 2000
 90
        0
280
     0
281
     1
  0
CLASS
  1
XRECORD
  2
AcDbXrecord
  3
AutoCAD 2000
 90
        0
280
     0
281
     0
  0
CLASS
  1
LONG_TRANSACTION
  2
AcDbLongTransaction
  3
AutoCAD 2000
 90
        0
280
     0
281
     0
  0
CLASS
  1
LWPOLYLINE
  2
AcDbPolyline
  3
AutoCAD 2000
 90
        0
280
     0
281
     1
  0
CLASS
  1
HATCH
  2
AcDbHatch
  3
AutoCAD 2000
 90
        0
280
     0
281
     1
  0
CLASS
  1
XRECORD
  2
AcDbXrecord
  3
AutoCAD 2000
 90
        0
280
     0
281
     0
  0
CLASS
  1
LONG_TRANSACTION
  2
AcDbLongTransaction
  3
AutoCAD 2000
 90
        0
280
     0
281
     0
  0
CLASS
  1
LWPOLYLINE
  2
AcDbPolyline
  3
AutoCAD 2000
 90
        0
280
     0
281
     1
  0
CLASS
  1
HATCH
  2
AcDbHatch
  3
AutoCAD 2000
 90
        0
280
     0
281
     1
  0
CLASS
  1
XRECORD
  2
AcDbXrecord
  3
AutoCAD 2000
 90
        0
280
     0
281
     0
  0
CLASS
  1
LONG_TRANSACTION
  2
AcDbLongTransaction
  3
AutoCAD 2000
 90
        0
280
     0
281
     0
  0
CLASS
  1
LWPOLYLINE
  2
AcDbPolyline
  3
AutoCAD 2000
 90
        0
280
     0
281
     1
  0
CLASS
  1
HATCH
  2
AcDbHatch
  3
AutoCAD 2000
 90
        0
280
     0
281
     1
  0
CLASS
  1
XRECORD
  2
AcDbXrecord
  3
AutoCAD 2000
 90
        0
280
     0
281
     0
  0
CLASS
  1
LONG_TRANSACTION
  2
AcDbLongTransaction
  3
AutoCAD 2000
 90
        0
280
     0
281
     0
  0
CLASS
  1
LWPOLYLINE
  2
AcDbPolyline
  3
AutoCAD 2000
 90
        0
280
     0
281
     1
  0
CLASS
  1
HATCH
  2
AcDbHatch
  3
AutoCAD 2000
 90
        0
280
     0
281
     1
  0
CLASS
  1
XRECORD
  2
AcDbXrecord
  3
AutoCAD 2000
 90
        0
280
     0
281
     0
  0
CLASS
  1
LONG_TRANSACTION
  2
AcDbLongTransaction
  3
AutoCAD 2000
 90
        0
280
     0
281
     0
  0
CLASS
  1
LWPOLYLINE
  2
AcDbPolyline
  3
AutoCAD 2000
 90
        0
280
     0
281
     1
  0
CLASS
  1
HATCH
  2
AcDbHatch
  3
AutoCAD 2000
 90
        0
280
     0
281
     1
  0
CLASS
  1
XRECORD
  2
AcDbXrecord
  3
AutoCAD 2000
 90
        0
280
     0
281
     0
  0
CLASS
  1
LONG_TRANSACTION
  2
AcDbLongTransaction
  3
AutoCAD 2000
 90
        0
280
     0
281
     0
  0
CLASS
  1
LWPOLYLINE
  2
AcDbPolyline
  3
AutoCAD 2000
 90
        0
280
     0
281
     1
  0
CLASS
  1
HATCH
  2
AcDbHatch
  3
AutoCAD 2000
 90
        0
280
     0
281
     1
  0
CLASS
  1
XRECORD
  2
AcDbXrecord
  3
AutoCAD 2000
 90
        0
280
     0
281
     0
  0
CLASS
  1
LONG_TRANSACTION
  2
AcDbLongTransaction
  3
AutoCAD 2000
 90
        0
280
     0
281
     0
  0
CLASS
  1
LWPOLYLINE
  2
AcDbPolyline
  3
AutoCAD 2000
 90
        0
280
     0
281
     1
  0
CLASS
  1
HATCH
  2
AcDbHatch
  3
AutoCAD 2000
 90
        0
280
     0
281
     1
  0
CLASS
  1
XRECORD
  2
AcDbXrecord
  3
AutoCAD 2000
 90
        0
280
     0
281
     0
  0
CLASS
  1
LONG_TRANSACTION
  2
AcDbLongTransaction
  3
AutoCAD 2000
 90
        0
280
     0
281
     0
  0
CLASS
  1
LWPOLYLINE
  2
AcDbPolyline
  3
AutoCAD 2000
 90
        0
280
     0
281
     1
  0
CLASS
  1
HATCH
  2
AcDbHatch
  3
AutoCAD 2000
 90
        0
280
     0
281
     1
  0
CLASS
  1
XRECORD
  2
AcDbXrecord
  3
AutoCAD 2000
 90
        0
280
     0
281
     0
  0
CLASS
  1
LONG_TRANSACTION
  2
AcDbLongTransaction
  3
AutoCAD 2000
 90
        0
280
     0
281
     0
  0
CLASS
  1
LWPOLYLINE
  2
AcDbPolyline
  3
AutoCAD 2000
 90
        0
280
     0
281
     1
  0
CLASS
  1
HATCH
  2
AcDbHatch
  3
AutoCAD 2000
 90
        0
280
     0
281
     1
  0
CLASS
  1
XRECORD
  2
AcDbXrecord
  3
AutoCAD 2000
 90
        0
280
     0
281
     0
  0
CLASS
  1
LONG_TRANSACTION
  2
AcDbLongTransaction
  3
AutoCAD 2000
 90
        0
280
     0
281
     0
  0
CLASS
  1
LWPOLYLINE
  2
AcDbPolyline
  3
AutoCAD 2000
 90
        0
280
     0
281
     1
  0
CLASS
  1
HATCH
  2
AcDbHatch
  3
AutoCAD 2000
 90
        0
280
     0
281
     1
  0
CLASS
  1
XRECORD
  2
AcDbXrecord
  3
AutoCAD 2000
 90
        0
280
     0
281
     0
  0
CLASS
  1
LONG_TRANSACTION
  2
AcDbLongTransaction
  3
AutoCAD 2000
 90
        0
280
     0
281
     0
  0
CLASS
  1
LWPOLYLINE
  2
AcDbPolyline
  3
AutoCAD 2000
 90
        0
280
     0
281
     1
  0
CLASS
  1
HATCH
  2
AcDbHatch
  3
AutoCAD 2000
 90
        0
280
     0
281
     1
  0
CLASS
  1
XRECORD
  2
AcDbXrecord
  3
AutoCAD 2000
 90
        0
280
     0
281
     0
  0
CLASS
  1
LONG_TRANSACTION
  2
AcDbLongTransaction
  3
AutoCAD 2000
 90
        0
280
     0
281
     0
  0
CLASS
  1
LWPOLYLINE
  2
AcDbPolyline
  3
AutoCAD 2000
 90
        0
280
     0
281
     1
  0
CLASS
  1
HATCH
  2
AcDbHatch
  3
AutoCAD 2000
 90
        0
280
     0
281
     1
  0
CLASS
  1
XRECORD
  2
AcDbXrecord
  3
AutoCAD 2000
 90
        0
280
     0
281
     0
  0
CLASS
  1
DICTIONARYVAR
  2
AcDbDictionaryVar
  3
AutoCAD 2000
 90
        0
280
     0
281
     0
  0
CLASS
  1
LONG_TRANSACTION
  2
AcDbLongTransaction
  3
AutoCAD 2000
 90
        0
280
     0
281
     0
  0
CLASS
  1
LWPOLYLINE
  2
AcDbPolyline
  3
AutoCAD 2000
 90
        0
280
     0
281
     1
  0
CLASS
  1
HATCH
  2
AcDbHatch
  3
AutoCAD 2000
 90
        0
280
     0
281
     1
  0
CLASS
  1
XRECORD
  2
AcDbXrecord
  3
AutoCAD 2000
 90
        0
280
     0
281
     0
  0
CLASS
  1
LONG_TRANSACTION
  2
AcDbLongTransaction
  3
AutoCAD 2000
 90
        0
280
     0
281
     0
  0
CLASS
  1
LWPOLYLINE
  2
AcDbPolyline
  3
AutoCAD 2000
 90
        0
280
     0
281
     1
  0
CLASS
  1
HATCH
  2
AcDbHatch
  3
AutoCAD 2000
 90
        0
280
     0
281
     1
  0
CLASS
  1
XRECORD
  2
AcDbXrecord
  3
AutoCAD 2000
 90
        0
280
     0
281
     0
  0
CLASS
  1
LONG_TRANSACTION
  2
AcDbLongTransaction
  3
AutoCAD 2000
 90
        0
280
     0
281
     0
  0
CLASS
  1
LWPOLYLINE
  2
AcDbPolyline
  3
AutoCAD 2000
 90
        0
280
     0
281
     1
  0
CLASS
  1
HATCH
  2
AcDbHatch
  3
AutoCAD 2000
 90
        0
280
     0
281
     1
  0
CLASS
  1
XRECORD
  2
AcDbXrecord
  3
AutoCAD 2000
 90
        0
280
     0
281
     0
  0
CLASS
  1
LONG_TRANSACTION
  2
AcDbLongTransaction
  3
AutoCAD 2000
 90
        0
280
     0
281
     0
  0
CLASS
  1
LWPOLYLINE
  2
AcDbPolyline
  3
AutoCAD 2000
 90
        0
280
     0
281
     1
  0
CLASS
  1
HATCH
  2
AcDbHatch
  3
AutoCAD 2000
 90
        0
280
     0
281
     1
  0
CLASS
  1
XRECORD
  2
AcDbXrecord
  3
AutoCAD 2000
 90
        0
280
     0
281
     0
  0
CLASS
  1
LONG_TRANSACTION
  2
AcDbLongTransaction
  3
AutoCAD 2000
 90
        0
280
     0
281
     0
  0
CLASS
  1
LWPOLYLINE
  2
AcDbPolyline
  3
AutoCAD 2000
 90
        0
280
     0
281
     1
  0
CLASS
  1
HATCH
  2
AcDbHatch
  3
AutoCAD 2000
 90
        0
280
     0
281
     1
  0
CLASS
  1
XRECORD
  2
AcDbXrecord
  3
AutoCAD 2000
 90
        0
280
     0
281
     0
  0
CLASS
  1
LONG_TRANSACTION
  2
AcDbLongTransaction
  3
AutoCAD 2000
 90
        0
280
     0
281
     0
  0
CLASS
  1
LWPOLYLINE
  2
AcDbPolyline
  3
AutoCAD 2000
 90
        0
280
     0
281
     1
  0
CLASS
  1
HATCH
  2
AcDbHatch
  3
AutoCAD 2000
 90
        0
280
     0
281
     1
  0
CLASS
  1
XRECORD
  2
AcDbXrecord
  3
AutoCAD 2000
 90
        0
280
     0
281
     0
  0
CLASS
  1
LONG_TRANSACTION
  2
AcDbLongTransaction
  3
AutoCAD 2000
 90
        0
280
     0
281
     0
  0
CLASS
  1
LWPOLYLINE
  2
AcDbPolyline
  3
AutoCAD 2000
 90
        0
280
     0
281
     1
  0
CLASS
  1
HATCH
  2
AcDbHatch
  3
AutoCAD 2000
 90
        0
280
     0
281
     1
  0
CLASS
  1
XRECORD
  2
AcDbXrecord
  3
AutoCAD 2000
 90
        0
280
     0
281
     0
  0
CLASS
  1
LONG_TRANSACTION
  2
AcDbLongTransaction
  3
AutoCAD 2000
 90
        0
280
     0
281
     0
  0
CLASS
  1
LWPOLYLINE
  2
AcDbPolyline
  3
AutoCAD 2000
 90
        0
280
     0
281
     1
  0
CLASS
  1
HATCH
  2
AcDbHatch
  3
AutoCAD 2000
 90
        0
280
     0
281
     1
  0
CLASS
  1
XRECORD
  2
AcDbXrecord
  3
AutoCAD 2000
 90
        0
280
     0
281
     0
  0
CLASS
  1
LONG_TRANSACTION
  2
AcDbLongTransaction
  3
AutoCAD 2000
 90
        0
280
     0
281
     0
  0
CLASS
  1
LWPOLYLINE
  2
AcDbPolyline
  3
AutoCAD 2000
 90
        0
280
     0
281
     1
  0
CLASS
  1
HATCH
  2
AcDbHatch
  3
AutoCAD 2000
 90
        0
280
     0
281
     1
  0
CLASS
  1
XRECORD
  2
AcDbXrecord
  3
AutoCAD 2000
 90
        0
280
     0
281
     0
  0
CLASS
  1
LONG_TRANSACTION
  2
AcDbLongTransaction
  3
AutoCAD 2000
 90
        0
280
     0
281
     0
  0
CLASS
  1
LWPOLYLINE
  2
AcDbPolyline
  3
AutoCAD 2000
 90
        0
280
     0
281
     1
  0
CLASS
  1
HATCH
  2
AcDbHatch
  3
AutoCAD 2000
 90
        0
280
     0
281
     1
  0
CLASS
  1
XRECORD
  2
AcDbXrecord
  3
AutoCAD 2000
 90
        0
280
     0
281
     0
  0
CLASS
  1
LONG_TRANSACTION
  2
AcDbLongTransaction
  3
AutoCAD 2000
 90
        0
280
     0
281
     0
  0
CLASS
  1
LWPOLYLINE
  2
AcDbPolyline
  3
AutoCAD 2000
 90
        0
280
     0
281
     1
  0
CLASS
  1
HATCH
  2
AcDbHatch
  3
AutoCAD 2000
 90
        0
280
     0
281
     1
  0
CLASS
  1
XRECORD
  2
AcDbXrecord
  3
AutoCAD 2000
 90
        0
280
     0
281
     0
  0
CLASS
  1
LONG_TRANSACTION
  2
AcDbLongTransaction
  3
AutoCAD 2000
 90
        0
280
     0
281
     0
  0
CLASS
  1
LWPOLYLINE
  2
AcDbPolyline
  3
AutoCAD 2000
 90
        0
280
     0
281
     1
  0
CLASS
  1
HATCH
  2
AcDbHatch
  3
AutoCAD 2000
 90
        0
280
     0
281
     1
  0
CLASS
  1
XRECORD
  2
AcDbXrecord
  3
AutoCAD 2000
 90
        0
280
     0
281
     0
  0
CLASS
  1
LONG_TRANSACTION
  2
AcDbLongTransaction
  3
AutoCAD 2000
 90
        0
280
     0
281
     0
  0
CLASS
  1
LWPOLYLINE
  2
AcDbPolyline
  3
AutoCAD 2000
 90
        0
280
     0
281
     1
  0
CLASS
  1
HATCH
  2
AcDbHatch
  3
AutoCAD 2000
 90
        0
280
     0
281
     1
  0
CLASS
  1
XRECORD
  2
AcDbXrecord
  3
AutoCAD 2000
 90
        0
280
     0
281
     0
  0
CLASS
  1
LONG_TRANSACTION
  2
AcDbLongTransaction
  3
AutoCAD 2000
 90
        0
280
     0
281
     0
  0
CLASS
  1
LWPOLYLINE
  2
AcDbPolyline
  3
AutoCAD 2000
 90
        0
280
     0
281
     1
  0
CLASS
  1
HATCH
  2
AcDbHatch
  3
AutoCAD 2000
 90
        0
280
     0
281
     1
  0
CLASS
  1
XRECORD
  2
AcDbXrecord
  3
AutoCAD 2000
 90
        0
280
     0
281
     0
  0
CLASS
  1
LONG_TRANSACTION
  2
AcDbLongTransaction
  3
AutoCAD 2000
 90
        0
280
     0
281
     0
  0
CLASS
  1
LWPOLYLINE
  2
AcDbPolyline
  3
AutoCAD 2000
 90
        0
280
     0
281
     1
  0
CLASS
  1
HATCH
  2
AcDbHatch
  3
AutoCAD 2000
 90
        0
280
     0
281
     1
  0
CLASS
  1
XRECORD
  2
AcDbXrecord
  3
AutoCAD 2000
 90
        0
280
     0
281
     0
  0
CLASS
  1
LONG_TRANSACTION
  2
AcDbLongTransaction
  3
AutoCAD 2000
 90
        0
280
     0
281
     0
  0
CLASS
  1
LWPOLYLINE
  2
AcDbPolyline
  3
AutoCAD 2000
 90
        0
280
     0
281
     1
  0
CLASS
  1
HATCH
  2
AcDbHatch
  3
AutoCAD 2000
 90
        0
280
     0
281
     1
  0
CLASS
  1
XRECORD
  2
AcDbXrecord
  3
AutoCAD 2000
 90
        0
280
     0
281
     0
  0
CLASS
  1
LONG_TRANSACTION
  2
AcDbLongTransaction
  3
AutoCAD 2000
 90
        0
280
     0
281
     0
  0
CLASS
  1
LWPOLYLINE
  2
AcDbPolyline
  3
AutoCAD 2000
 90
        0
280
     0
281
     1
  0
CLASS
  1
HATCH
  2
AcDbHatch
  3
AutoCAD 2000
 90
        0
280
     0
281
     1
  0
CLASS
  1
XRECORD
  2
AcDbXrecord
  3
AutoCAD 2000
 90
        0
280
     0
281
     0
  0
CLASS
  1
LONG_TRANSACTION
  2
AcDbLongTransaction
  3
AutoCAD 2000
 90
        0
280
     0
281
     0
  0
CLASS
  1
LWPOLYLINE
  2
AcDbPolyline
  3
AutoCAD 2000
 90
        0
280
     0
281
     1
  0
CLASS
  1
HATCH
  2
AcDbHatch
  3
AutoCAD 2000
 90
        0
280
     0
281
     1
  0
CLASS
  1
XRECORD
  2
AcDbXrecord
  3
AutoCAD 2000
 90
        0
280
     0
281
     0
  0
CLASS
  1
LONG_TRANSACTION
  2
AcDbLongTransaction
  3
AutoCAD 2000
 90
        0
280
     0
281
     0
  0
CLASS
  1
LWPOLYLINE
  2
AcDbPolyline
  3
AutoCAD 2000
 90
        0
280
     0
281
     1
  0
CLASS
  1
HATCH
  2
AcDbHatch
  3
AutoCAD 2000
 90
        0
280
     0
281
     1
  0
CLASS
  1
XRECORD
  2
AcDbXrecord
  3
AutoCAD 2000
 90
        0
280
     0
281
     0
  0
ENDSEC
  0
SECTION
  2
TABLES
  0
TABLE
  2
VPORT
  5
8
330
0
100
AcDbSymbolTable
 70
     2
  0
VPORT
  5
996D
330
8
100
AcDbSymbolTableRecord
100
AcDbViewportTableRecord
  2
*ACTIVE
 70
     0
 10
0.0
 20
0.0
 11
1.0
 21
1.0
 12
307.7303731331283
 22
-15.59403406338265
 13
0.0
 23
0.0
 14
1.0
 24
1.0
 15
10.0
 25
10.0
 16
0.0
 26
0.0
 36
1.0
 17
0.0
 27
0.0
 37
0.0
 40
1038.915199545524
 41
1.672222222222222
 42
50.0
 43
0.0
 44
0.0
 50
0.0
 51
0.0
 71
     0
 72
   100
 73
     1
 74
     1
 75
     0
 76
     0
 77
     0
 78
     0
  0
ENDTAB
  0
TABLE
  2
LTYPE
  5
5
330
0
100
AcDbSymbolTable
 70
     8
  0
LTYPE
  5
13
330
5
100
AcDbSymbolTableRecord
100
AcDbLinetypeTableRecord
  2
BYBLOCK
 70
     0
  3

 72
    65
 73
     0
 40
0.0
  0
LTYPE
  5
14
330
5
100
AcDbSymbolTableRecord
100
AcDbLinetypeTableRecord
  2
BYLAYER
 70
     0
  3

 72
    65
 73
     0
 40
0.0
  0
LTYPE
  5
15
330
5
100
AcDbSymbolTableRecord
100
AcDbLinetypeTableRecord
  2
CONTINUOUS
 70
     0
  3
Solid line
 72
    65
 73
     0
 40
0.0
  0
LTYPE
  5
22
330
5
100
AcDbSymbolTableRecord
100
AcDbLinetypeTableRecord
  2
CONTINOUS
 70
     0
  3
Solid line
 72
    65
 73
     0
 40
0.0
  0
LTYPE
  5
23
330
5
100
AcDbSymbolTableRecord
100
AcDbLinetypeTableRecord
  2
DASHED
 70
     0
  3
__ __ __ __ __ __ __ __ __ __ __ __ __ __ __
 72
    65
 73
     2
 40
0.75
 49
0.5
 74
     0
 49
-0.25
 74
     0
  0
LTYPE
  5
24
330
5
100
AcDbSymbolTableRecord
100
AcDbLinetypeTableRecord
  2
DASHDOT
 70
     0
  3
__ . __ . __ . __ . __ . __ . __ . __ . __ . __
 72
    65
 73
     4
 40
1.0
 49
0.5
 74
     0
 49
-0.25
 74
     0
 49
0.0
 74
     0
 49
-0.25
 74
     0
  0
LTYPE
  5
4C47
330
5
100
AcDbSymbolTableRecord
100
AcDbLinetypeTableRecord
  2
DIVIDE
 70
     0
  3
Divide ____ . . ____ . . ____ . . ____ . . ____
 72
    65
 73
     6
 40
1.25
 49
0.5
 74
     0
 49
-0.25
 74
     0
 49
0.0
 74
     0
 49
-0.25
 74
     0
 49
0.0
 74
     0
 49
-0.25
 74
     0
  0
LTYPE
  5
6265
330
5
100
AcDbSymbolTableRecord
100
AcDbLinetypeTableRecord
  2
CENTER
 70
     0
  3
Center ____ _ ____ _ ____ _ ____ _ ____ _ ____
 72
    65
 73
     4
 40
50.8
 49
31.75
 74
     0
 49
-6.349999999999997
 74
     0
 49
6.349999999999997
 74
     0
 49
-6.349999999999997
 74
     0
  0
LTYPE
  5
685F
330
5
100
AcDbSymbolTableRecord
100
AcDbLinetypeTableRecord
  2
PHANTOM
 70
     0
  3
Phantom ______  __  __  ______  __  __  ______
 72
    65
 73
     6
 40
63.5
 49
31.75
 74
     0
 49
-6.349999999999997
 74
     0
 49
6.349999999999997
 74
     0
 49
-6.349999999999997
 74
     0
 49
6.349999999999997
 74
     0
 49
-6.349999999999997
 74
     0
  0
LTYPE
  5
6FA1
330
5
100
AcDbSymbolTableRecord
100
AcDbLinetypeTableRecord
  2
HIDDEN
 70
     0
  3
_ _ _ _ _ _ _ _ _ _ _ _ _ _ _ _ _ _ _ _ _ _ _
 72
    65
 73
     2
 40
0.5
 49
0.25
 74
     0
 49
-0.25
 74
     0
  0
ENDTAB
  0
TABLE
  2
LAYER
  5
2
330
0
100
AcDbSymbolTable
 70
    16
  0
LAYER
  5
10
330
2
100
AcDbSymbolTableRecord
100
AcDbLayerTableRecord
  2
0
 70
     0
 62
     7
  6
CONTINOUS
  0
LAYER
  5
2F
330
2
100
AcDbSymbolTableRecord
100
AcDbLayerTableRecord
  2
10
 70
     0
 62
     4
  6
CONTINOUS
  0
LAYER
  5
31
330
2
100
AcDbSymbolTableRecord
100
AcDbLayerTableRecord
  2
12
 70
     0
 62
     3
  6
CONTINOUS
  0
LAYER
  5
35
330
2
100
AcDbSymbolTableRecord
100
AcDbLayerTableRecord
  2
16
 70
     4
 62
     6
  6
DASHDOT
  0
LAYER
  5
38
330
2
100
AcDbSymbolTableRecord
100
AcDbLayerTableRecord
  2
19
 70
     0
 62
     7
  6
CONTINOUS
  0
LAYER
  5
3D
330
2
100
AcDbSymbolTableRecord
100
AcDbLayerTableRecord
  2
24
 70
     0
 62
     2
  6
CONTINOUS
  0
LAYER
  5
3A2
330
2
100
AcDbSymbolTableRecord
100
AcDbLayerTableRecord
  2
30
 70
     0
 62
     9
  6
CONTINUOUS
  0
LAYER
  5
3A4
330
2
100
AcDbSymbolTableRecord
100
AcDbLayerTableRecord
  2
DEFPOINTS
 70
     0
 62
     7
  6
CONTINUOUS
  0
LAYER
  5
3BBA
330
2
100
AcDbSymbolTableRecord
100
AcDbLayerTableRecord
  2
18
 70
     0
 62
     5
  6
DIVIDE
  0
LAYER
  5
67A8
330
2
100
AcDbSymbolTableRecord
100
AcDbLayerTableRecord
  2
11
 70
     0
 62
     1
  6
CONTINOUS
  0
LAYER
  5
7837
330
2
100
AcDbSymbolTableRecord
100
AcDbLayerTableRecord
  2
17
 70
     0
 62
     2
  6
DASHDOT
  0
LAYER
  5
7BC8
330
2
100
AcDbSymbolTableRecord
100
AcDbLayerTableRecord
  2
1
 70
     0
 62
     7
  6
CONTINUOUS
  0
LAYER
  5
7BC9
330
2
100
AcDbSymbolTableRecord
100
AcDbLayerTableRecord
  2
2
 70
     0
 62
     7
  6
CONTINUOUS
  0
LAYER
  5
8037
330
2
100
AcDbSymbolTableRecord
100
AcDbLayerTableRecord
  2
TOP
 70
     0
 62
     7
  6
CONTINUOUS
  0
LAYER
  5
8A0F
330
2
100
AcDbSymbolTableRecord
100
AcDbLayerTableRecord
  2
21
 70
     0
 62
     7
  6
CONTINUOUS
  0
LAYER
  5
8CDE
330
2
100
AcDbSymbolTableRecord
100
AcDbLayerTableRecord
  2
22
 70
     0
 62
     3
  6
CONTINUOUS
  0
ENDTAB
  0
TABLE
  2
STYLE
  5
3
330
0
100
AcDbSymbolTable
 70
     4
  0
STYLE
  5
11
330
3
100
AcDbSymbolTableRecord
100
AcDbTextStyleTableRecord
  2
STANDARD
 70
     0
 40
0.0
 41
1.0
 50
0.0
 71
     0
 42
2.0
  3
txt.shx
  4
bigfont.shx
  0
STYLE
  5
42
330
3
100
AcDbSymbolTableRecord
100
AcDbTextStyleTableRecord
  2
STANDARD1
 70
     0
 40
0.0
 41
1.0
 50
0.0
 71
     0
 42
5.0
  3
MONOTXT
  4
BIGFONT
  0
STYLE
  5
6861
330
3
100
AcDbSymbolTableRecord
100
AcDbTextStyleTableRecord
  2
MX_NOTE_STANDARD
 70
     0
 40
0.0
 41
1.0
 50
0.0
 71
     0
 42
5.891046
  3
txt.shx
  4
extfont.shx
  0
STYLE
  5
6D9B
330
3
100
AcDbSymbolTableRecord
100
AcDbTextStyleTableRecord
  2
UGMTXT
 70
     0
 40
0.0
 41
1.0
 50
0.0
 71
     0
 42
0.2
  3
ugmtxt
  4
bigfont
  0
ENDTAB
  0
TABLE
  2
VIEW
  5
6
330
0
100
AcDbSymbolTable
 70
     3
  0
VIEW
  5
230C
330
6
100
AcDbSymbolTableRecord
100
AcDbViewTableRecord
  2
OLE1
 70
     0
 40
148.912488
 10
429.497628
 20
2.560627
 41
103.145806
 11
0.0
 21
0.0
 31
1.0
 12
0.0
 22
0.0
 32
0.0
 42
50.0
 43
0.0
 44
0.0
 50
0.0
 71
     0
  0
VIEW
  5
230E
330
6
100
AcDbSymbolTableRecord
100
AcDbViewTableRecord
  2
OLE2
 70
     0
 40
170.778692
 10
322.66497
 20
-5.978304
 41
102.467215
 11
0.0
 21
0.0
 31
1.0
 12
0.0
 22
0.0
 32
0.0
 42
50.0
 43
0.0
 44
0.0
 50
0.0
 71
     0
  0
VIEW
  5
23AA
330
6
100
AcDbSymbolTableRecord
100
AcDbViewTableRecord
  2
OLE3
 70
     0
 40
591.7897389999998
 10
84.79698199999999
 20
-46.09335999999998
 41
388.792096
 11
0.0
 21
0.0
 31
1.0
 12
0.0
 22
0.0
 32
0.0
 42
50.0
 43
0.0
 44
0.0
 50
0.0
 71
     0
  0
ENDTAB
  0
TABLE
  2
UCS
  5
7
330
0
100
AcDbSymbolTable
 70
     0
  0
ENDTAB
  0
TABLE
  2
APPID
  5
9
330
0
100
AcDbSymbolTable
 70
     2
  0
APPID
  5
12
330
9
100
AcDbSymbolTableRecord
100
AcDbRegAppTableRecord
  2
ACAD
 70
     0
  0
APPID
  5
ECD
330
9
100
AcDbSymbolTableRecord
100
AcDbRegAppTableRecord
  2
CONTENTBLOCKICON
 70
     0
  0
ENDTAB
  0
TABLE
  2
DIMSTYLE
  5
A
330
0
100
AcDbSymbolTable
 70
     1
  0
DIMSTYLE
105
175
102
{ACAD_REACTORS
330
886F
330
887C
330
894F
330
8E22
330
8E42
330
8E4F
330
82C9
330
82CA
330
82CB
330
82CC
330
82D0
330
82D2
330
82D7
330
82E5
330
82EB
330
82F0
330
82FE
330
82FF
330
831D
330
93AC
330
93B9
330
93C6
330
93D3
330
93E1
330
9413
330
9420
330
943A
330
9447
330
9507
330
951F
330
951E
330
954A
330
960F
330
8E2E
330
97B9
330
97BA
330
97BB
330
97BC
102
}
330
A
100
AcDbSymbolTableRecord
100
AcDbDimStyleTableRecord
  2
STANDARD
 70
     0
  3

  4

  5
OPEN
  6

  7

 40
1.0
 41
2.0
 42
1.0
 43
0.5
 44
0.5
 45
0.0
 46
0.0
 47
0.0
 48
0.0
140
6.0
141
0.09
142
0.0
143
25.4
144
1.0
145
0.0
146
1.0
147
1.0
 71
     0
 72
     0
 73
     0
 74
     1
 75
     0
 76
     0
 77
     3
 78
    12
170
     0
171
     2
172
     0
173
     0
174
     0
175
     0
176
     0
177
     0
178
     0
270
     2
271
     1
272
     1
273
     2
274
     2
340
11
275
     0
280
     0
281
     0
282
     0
283
     1
284
     0
285
     0
286
     0
287
     3
288
     0
  0
ENDTAB
  0
TABLE
  2
BLOCK_RECORD
  5
1
330
0
100
AcDbSymbolTable
 70
    52
  0
BLOCK_RECORD
  5
1E
102
{ACAD_XDICTIONARY
360
178
102
}
330
1
100
AcDbSymbolTableRecord
100
AcDbBlockTableRecord
  2
*MODEL_SPACE
  0
BLOCK_RECORD
  5
1A
102
{ACAD_XDICTIONARY
360
17A
102
}
330
1
100
AcDbSymbolTableRecord
100
AcDbBlockTableRecord
  2
*PAPER_SPACE
  0
BLOCK_RECORD
  5
3B2
330
1
100
AcDbSymbolTableRecord
100
AcDbBlockTableRecord
  2
_OPEN
  0
BLOCK_RECORD
  5
676A
330
1
100
AcDbSymbolTableRecord
100
AcDbBlockTableRecord
  2
_OPEN30
  0
BLOCK_RECORD
  5
6D9C
330
1
100
AcDbSymbolTableRecord
100
AcDbBlockTableRecord
  2
A$C21544DCF
  0
BLOCK_RECORD
  5
725D
330
1
100
AcDbSymbolTableRecord
100
AcDbBlockTableRecord
  2
A$C15744025
  0
BLOCK_RECORD
  5
81E7
330
1
100
AcDbSymbolTableRecord
100
AcDbBlockTableRecord
  2
*U4
  0
BLOCK_RECORD
  5
81EB
330
1
100
AcDbSymbolTableRecord
100
AcDbBlockTableRecord
  2
*U5
  0
BLOCK_RECORD
  5
81F4
330
1
100
AcDbSymbolTableRecord
100
AcDbBlockTableRecord
  2
*U6
  0
BLOCK_RECORD
  5
81FA
330
1
100
AcDbSymbolTableRecord
100
AcDbBlockTableRecord
  2
*U7
  0
BLOCK_RECORD
  5
8203
330
1
100
AcDbSymbolTableRecord
100
AcDbBlockTableRecord
  2
*U8
  0
BLOCK_RECORD
  5
8208
330
1
100
AcDbSymbolTableRecord
100
AcDbBlockTableRecord
  2
*U9
  0
BLOCK_RECORD
  5
8210
330
1
100
AcDbSymbolTableRecord
100
AcDbBlockTableRecord
  2
*U10
  0
BLOCK_RECORD
  5
8217
330
1
100
AcDbSymbolTableRecord
100
AcDbBlockTableRecord
  2
*U11
  0
BLOCK_RECORD
  5
821E
330
1
100
AcDbSymbolTableRecord
100
AcDbBlockTableRecord
  2
*D12
  0
BLOCK_RECORD
  5
822B
330
1
100
AcDbSymbolTableRecord
100
AcDbBlockTableRecord
  2
*D13
  0
BLOCK_RECORD
  5
8238
330
1
100
AcDbSymbolTableRecord
100
AcDbBlockTableRecord
  2
*D14
  0
BLOCK_RECORD
  5
8245
330
1
100
AcDbSymbolTableRecord
100
AcDbBlockTableRecord
  2
*D15
  0
BLOCK_RECORD
  5
8252
330
1
100
AcDbSymbolTableRecord
100
AcDbBlockTableRecord
  2
*D16
  0
BLOCK_RECORD
  5
825F
330
1
100
AcDbSymbolTableRecord
100
AcDbBlockTableRecord
  2
*D17
  0
BLOCK_RECORD
  5
826C
330
1
100
AcDbSymbolTableRecord
100
AcDbBlockTableRecord
  2
*D18
  0
BLOCK_RECORD
  5
8279
330
1
100
AcDbSymbolTableRecord
100
AcDbBlockTableRecord
  2
*D19
  0
BLOCK_RECORD
  5
8286
330
1
100
AcDbSymbolTableRecord
100
AcDbBlockTableRecord
  2
*D20
  0
BLOCK_RECORD
  5
8293
330
1
100
AcDbSymbolTableRecord
100
AcDbBlockTableRecord
  2
*D21
  0
BLOCK_RECORD
  5
82A0
330
1
100
AcDbSymbolTableRecord
100
AcDbBlockTableRecord
  2
*D22
  0
BLOCK_RECORD
  5
82AD
330
1
100
AcDbSymbolTableRecord
100
AcDbBlockTableRecord
  2
*D23
  0
BLOCK_RECORD
  5
82BA
330
1
100
AcDbSymbolTableRecord
100
AcDbBlockTableRecord
  2
*D24
  0
BLOCK_RECORD
  5
82C7
330
1
100
AcDbSymbolTableRecord
100
AcDbBlockTableRecord
  2
A$C430B49B3
  0
BLOCK_RECORD
  5
8870
330
1
100
AcDbSymbolTableRecord
100
AcDbBlockTableRecord
  2
*D26
  0
BLOCK_RECORD
  5
887D
330
1
100
AcDbSymbolTableRecord
100
AcDbBlockTableRecord
  2
*D27
  0
BLOCK_RECORD
  5
8950
330
1
100
AcDbSymbolTableRecord
100
AcDbBlockTableRecord
  2
*D28
  0
BLOCK_RECORD
  5
8E23
330
1
100
AcDbSymbolTableRecord
100
AcDbBlockTableRecord
  2
*D29
  0
BLOCK_RECORD
  5
8E2F
330
1
100
AcDbSymbolTableRecord
100
AcDbBlockTableRecord
  2
*D30
  0
BLOCK_RECORD
  5
8E43
330
1
100
AcDbSymbolTableRecord
100
AcDbBlockTableRecord
  2
*D31
  0
BLOCK_RECORD
  5
8E50
330
1
100
AcDbSymbolTableRecord
100
AcDbBlockTableRecord
  2
*D32
  0
BLOCK_RECORD
  5
93AD
330
1
100
AcDbSymbolTableRecord
100
AcDbBlockTableRecord
  2
*D33
  0
BLOCK_RECORD
  5
93BA
330
1
100
AcDbSymbolTableRecord
100
AcDbBlockTableRecord
  2
*D34
  0
BLOCK_RECORD
  5
93C7
330
1
100
AcDbSymbolTableRecord
100
AcDbBlockTableRecord
  2
*D35
  0
BLOCK_RECORD
  5
93D4
330
1
100
AcDbSymbolTableRecord
100
AcDbBlockTableRecord
  2
*D36
  0
BLOCK_RECORD
  5
93E2
330
1
100
AcDbSymbolTableRecord
100
AcDbBlockTableRecord
  2
*D37
  0
BLOCK_RECORD
  5
9414
330
1
100
AcDbSymbolTableRecord
100
AcDbBlockTableRecord
  2
*D38
  0
BLOCK_RECORD
  5
9421
330
1
100
AcDbSymbolTableRecord
100
AcDbBlockTableRecord
  2
*D39
  0
BLOCK_RECORD
  5
942E
330
1
100
AcDbSymbolTableRecord
100
AcDbBlockTableRecord
  2
*D40
  0
BLOCK_RECORD
  5
943B
330
1
100
AcDbSymbolTableRecord
100
AcDbBlockTableRecord
  2
*D41
  0
BLOCK_RECORD
  5
9448
330
1
100
AcDbSymbolTableRecord
100
AcDbBlockTableRecord
  2
*D42
  0
BLOCK_RECORD
  5
9509
330
1
100
AcDbSymbolTableRecord
100
AcDbBlockTableRecord
  2
*D43
  0
BLOCK_RECORD
  5
9520
330
1
100
AcDbSymbolTableRecord
100
AcDbBlockTableRecord
  2
*D44
  0
BLOCK_RECORD
  5
952C
330
1
100
AcDbSymbolTableRecord
100
AcDbBlockTableRecord
  2
*D45
  0
BLOCK_RECORD
  5
954B
330
1
100
AcDbSymbolTableRecord
100
AcDbBlockTableRecord
  2
*D46
  0
BLOCK_RECORD
  5
9610
330
1
100
AcDbSymbolTableRecord
100
AcDbBlockTableRecord
  2
*D47
  0
BLOCK_RECORD
  5
97BD
330
1
100
AcDbSymbolTableRecord
100
AcDbBlockTableRecord
  2
*D48
  0
BLOCK_RECORD
  5
97C9
330
1
100
AcDbSymbolTableRecord
100
AcDbBlockTableRecord
  2
*D49
  0
BLOCK_RECORD
  5
97D5
330
1
100
AcDbSymbolTableRecord
100
AcDbBlockTableRecord
  2
*D50
  0
BLOCK_RECORD
  5
97E1
330
1
100
AcDbSymbolTableRecord
100
AcDbBlockTableRecord
  2
*D51
  0
ENDTAB
  0
ENDSEC
  0
SECTION
  2
BLOCKS
  0
BLOCK
  5
1F
330
1E
100
AcDbEntity
  8
0
100
AcDbBlockBegin
  2
*MODEL_SPACE
 70
     0
 10
0.0
 20
0.0
 30
0.0
  3
*MODEL_SPACE
  1

  0
ENDBLK
  5
20
330
1E
100
AcDbEntity
  8
0
100
AcDbBlockEnd
  0
BLOCK
  5
1B
330
1A
100
AcDbEntity
 67
     1
  8
0
100
AcDbBlockBegin
  2
*PAPER_SPACE
 70
     0
 10
0.0
 20
0.0
 30
0.0
  3
*PAPER_SPACE
  1

  0
ENDBLK
  5
1C
330
1A
100
AcDbEntity
 67
     1
  8
0
100
AcDbBlockEnd
  0
BLOCK
  5
3B6
330
3B2
100
AcDbEntity
  8
0
100
AcDbBlockBegin
  2
_OPEN
 70
     0
 10
0.0
 20
0.0
 30
0.0
  3
_OPEN
  1

  0
LINE
  5
3B3
330
3B2
100
AcDbEntity
  8
30
  6
CONTINUOUS
 62
     0
100
AcDbLine
 10
-1.0
 20
0.166667
 30
0.0
 11
0.0
 21
0.0
 31
0.0
  0
LINE
  5
3B4
330
3B2
100
AcDbEntity
  8
30
  6
CONTINUOUS
 62
     0
100
AcDbLine
 10
-1.0
 20
-0.166667
 30
0.0
 11
0.0
 21
0.0
 31
0.0
  0
LINE
  5
3B5
330
3B2
100
AcDbEntity
  8
30
  6
CONTINUOUS
 62
     0
100
AcDbLine
 10
0.0
 20
0.0
 30
0.0
 11
-1.0
 21
0.0
 31
0.0
  0
ENDBLK
  5
3B7
330
3B2
100
AcDbEntity
  8
0
100
AcDbBlockEnd
  0
BLOCK
  5
676E
330
676A
100
AcDbEntity
  8
0
100
AcDbBlockBegin
  2
_OPEN30
 70
     0
 10
0.0
 20
0.0
 30
0.0
  3
_OPEN30
  1

  0
LINE
  5
676B
330
676A
100
AcDbEntity
  8
0
  6
BYBLOCK
 62
     0
100
AcDbLine
 10
-1.0
 20
0.26794919
 30
0.0
 11
0.0
 21
0.0
 31
0.0
  0
LINE
  5
676C
330
676A
100
AcDbEntity
  8
0
  6
BYBLOCK
 62
     0
100
AcDbLine
 10
0.0
 20
0.0
 30
0.0
 11
-1.0
 21
-0.26794919
 31
0.0
  0
LINE
  5
676D
330
676A
100
AcDbEntity
  8
0
  6
BYBLOCK
 62
     0
100
AcDbLine
 10
0.0
 20
0.0
 30
0.0
 11
-1.0
 21
0.0
 31
0.0
  0
ENDBLK
  5
676F
330
676A
100
AcDbEntity
  8
0
100
AcDbBlockEnd
  0
BLOCK
  5
6E0C
330
6D9C
100
AcDbEntity
  8
0
100
AcDbBlockBegin
  2
A$C21544DCF
 70
     0
 10
0.0
 20
0.0
 30
0.0
  3
A$C21544DCF
  1

  0
LINE
  5
6D9D
330
6D9C
100
AcDbEntity
  8
0
  6
CONTINUOUS
100
AcDbLine
 10
0.0
 20
92.5
 30
0.0
 11
0.0
 21
-92.5
 31
0.0
  0
LINE
  5
6D9E
330
6D9C
100
AcDbEntity
  8
0
  6
CONTINUOUS
100
AcDbLine
 10
-52.5
 20
82.5
 30
0.0
 11
-52.5
 21
-82.5
 31
0.0
  0
LINE
  5
6D9F
330
6D9C
100
AcDbEntity
  8
0
  6
CONTINUOUS
100
AcDbLine
 10
52.5
 20
-82.5
 30
0.0
 11
52.5
 21
82.5
 31
0.0
  0
ARC
  5
6DA0
330
6D9C
100
AcDbEntity
  8
0
  6
CONTINUOUS
100
AcDbCircle
 10
28.0
 20
-65.0
 30
0.0
 40
5.0
210
0.0
220
0.0
230
-1.0
100
AcDbArc
 50
90.0
 51
180.0
  0
LINE
  5
6DA1
330
6D9C
100
AcDbEntity
  8
0
  6
CONTINUOUS
100
AcDbLine
 10
-49.0
 20
-25.0
 30
0.0
 11
49.0
 21
-25.0
 31
0.0
  0
LINE
  5
6DA2
330
6D9C
100
AcDbEntity
  8
0
  6
CONTINUOUS
100
AcDbLine
 10
-49.0
 20
25.0
 30
0.0
 11
49.0
 21
25.0
 31
0.0
  0
LINE
  5
6DA3
330
6D9C
100
AcDbEntity
  8
0
  6
CONTINUOUS
100
AcDbLine
 10
-52.5
 20
-51.0
 30
0.0
 11
47.0
 21
-51.0
 31
0.0
  0
LINE
  5
6DA4
330
6D9C
100
AcDbEntity
  8
0
  6
CONTINUOUS
100
AcDbLine
 10
-52.5
 20
-82.5
 30
0.0
 11
47.0
 21
-82.5
 31
0.0
  0
LINE
  5
6DA5
330
6D9C
100
AcDbEntity
  8
0
  6
CONTINUOUS
100
AcDbLine
 10
-57.5
 20
0.0
 30
0.0
 11
58.2251927359449
 21
0.0
 31
0.0
  0
LINE
  5
6DA6
330
6D9C
100
AcDbEntity
  8
0
  6
CONTINUOUS
100
AcDbLine
 10
-49.0
 20
-25.0
 30
0.0
 11
49.0
 21
-25.0
 31
0.0
  0
CIRCLE
  5
6DA7
330
6D9C
100
AcDbEntity
  8
0
  6
CONTINUOUS
100
AcDbCircle
 10
-35.0
 20
-72.0
 30
0.0
 40
5.0
  0
LINE
  5
6DA8
330
6D9C
100
AcDbEntity
  8
0
  6
CONTINUOUS
100
AcDbLine
 10
-47.0
 20
-82.5
 30
0.0
 11
-47.0
 21
-65.0
 31
0.0
  0
LINE
  5
6DA9
330
6D9C
100
AcDbEntity
  8
0
  6
CONTINUOUS
100
AcDbLine
 10
-35.0
 20
-65.0
 30
0.0
 11
-35.0
 21
-79.0
 31
0.0
  0
LINE
  5
6DAA
330
6D9C
100
AcDbEntity
  8
0
  6
CONTINUOUS
100
AcDbLine
 10
-49.0
 20
25.0
 30
0.0
 11
-49.0
 21
-25.0
 31
0.0
  0
ARC
  5
6DAB
330
6D9C
100
AcDbEntity
  8
0
  6
CONTINUOUS
100
AcDbCircle
 10
42.0
 20
-65.0
 30
0.0
 40
5.0
210
0.0
220
0.0
230
-1.0
100
AcDbArc
 50
0.0
 51
90.0
  0
LINE
  5
6DAC
330
6D9C
100
AcDbEntity
  8
0
  6
CONTINUOUS
100
AcDbLine
 10
-42.0
 20
-72.0
 30
0.0
 11
-28.0
 21
-72.0
 31
0.0
  0
LINE
  5
6DAD
330
6D9C
100
AcDbEntity
  8
0
  6
CONTINUOUS
100
AcDbLine
 10
-28.0
 20
-60.0
 30
0.0
 11
-42.0
 21
-60.0
 31
0.0
  0
CIRCLE
  5
6DAE
330
6D9C
100
AcDbEntity
  8
0
  6
CONTINUOUS
100
AcDbCircle
 10
35.0
 20
-72.0
 30
0.0
 40
5.0
  0
CIRCLE
  5
6DAF
330
6D9C
100
AcDbEntity
  8
0
  6
CONTINUOUS
100
AcDbCircle
 10
0.0
 20
-72.0
 30
0.0
 40
5.0
  0
LINE
  5
6DB0
330
6D9C
100
AcDbEntity
  8
0
  6
CONTINUOUS
100
AcDbLine
 10
-23.0
 20
-82.5
 30
0.0
 11
-23.0
 21
-65.0
 31
0.0
  0
LINE
  5
6DB1
330
6D9C
100
AcDbEntity
  8
0
  6
CONTINUOUS
100
AcDbLine
 10
12.0
 20
-82.5
 30
0.0
 11
12.0
 21
-65.0
 31
0.0
  0
LINE
  5
6DB2
330
6D9C
100
AcDbEntity
  8
0
  6
CONTINUOUS
100
AcDbLine
 10
-12.0
 20
-82.5
 30
0.0
 11
-12.0
 21
-65.0
 31
0.0
  0
LINE
  5
6DB3
330
6D9C
100
AcDbEntity
  8
0
  6
CONTINUOUS
100
AcDbLine
 10
47.0
 20
-82.5
 30
0.0
 11
47.0
 21
-65.0
 31
0.0
  0
LINE
  5
6DB4
330
6D9C
100
AcDbEntity
  8
0
  6
CONTINUOUS
100
AcDbLine
 10
23.0
 20
-82.5
 30
0.0
 11
23.0
 21
-65.0
 31
0.0
  0
LINE
  5
6DB5
330
6D9C
100
AcDbEntity
  8
0
  6
CONTINUOUS
100
AcDbLine
 10
35.0
 20
-65.0
 30
0.0
 11
35.0
 21
-79.0
 31
0.0
  0
LINE
  5
6DB6
330
6D9C
100
AcDbEntity
  8
0
  6
CONTINUOUS
100
AcDbLine
 10
49.0
 20
-25.0
 30
0.0
 11
49.0
 21
-131.5101879612343
 31
0.0
  0
LINE
  5
6DB7
330
6D9C
100
AcDbEntity
  8
0
  6
CONTINUOUS
100
AcDbLine
 10
47.0
 20
-25.0
 30
0.0
 11
47.0
 21
-131.5214696541707
 31
0.0
  0
LINE
  5
6DB8
330
6D9C
100
AcDbEntity
  8
0
  6
CONTINUOUS
100
AcDbLine
 10
48.0
 20
-149.845960942616
 30
0.0
 11
48.0
 21
-153.845960942616
 31
0.0
  0
LINE
  5
6DB9
330
6D9C
100
AcDbEntity
  8
0
  6
CONTINUOUS
100
AcDbLine
 10
47.0
 20
-134.5214696541707
 30
0.0
 11
47.0
 21
-153.845960942616
 31
0.0
  0
LINE
  5
6DBA
330
6D9C
100
AcDbEntity
  8
0
  6
CONTINUOUS
100
AcDbLine
 10
49.0
 20
-134.5101879612343
 30
0.0
 11
49.0
 21
-153.845960942616
 31
0.0
  0
SPLINE
  5
6DBB
330
6D9C
100
AcDbEntity
  8
0
  6
CONTINUOUS
100
AcDbSpline
210
0.0
220
0.0
230
1.0
 70
     8
 71
     3
 72
    12
 73
     8
 74
     0
 42
0.0000000001
 43
0.0000000001
 40
0.0
 40
0.0
 40
0.0
 40
0.0
 40
0.25
 40
0.5
 40
0.75
 40
0.9027560157721172
 40
1.0
 40
1.0
 40
1.0
 40
1.0
 10
49.0
 20
-153.845960942616
 30
0.0
 10
49.15692719906866
 20
-155.0345150325693
 30
0.0
 10
49.37589598553778
 20
-155.9207784093739
 30
0.0
 10
49.76687264274589
 20
-157.0318195661038
 30
0.0
 10
50.35438487459838
 20
-158.4317914732045
 30
0.0
 10
50.65699082607824
 20
-159.2027110017873
 30
0.0
 10
50.9174311296145
 20
-159.8815494359974
 30
0.0
 10
51.10274862781523
 20
-160.4220588057494
 30
0.0
  0
SPLINE
  5
6DBC
330
6D9C
100
AcDbEntity
  8
0
  6
CONTINUOUS
100
AcDbSpline
210
0.0
220
0.0
230
1.0
 70
     8
 71
     3
 72
    12
 73
     8
 74
     0
 42
0.0000000001
 43
0.0000000001
 40
0.0
 40
0.0
 40
0.0
 40
0.0
 40
0.25
 40
0.5
 40
0.75
 40
0.9027560157721172
 40
1.0
 40
1.0
 40
1.0
 40
1.0
 10
47.0
 20
-153.845960942616
 30
0.0
 10
46.84307280093134
 20
-155.0345150325693
 30
0.0
 10
46.6241040144622
 20
-155.9207784093739
 30
0.0
 10
46.23312735725408
 20
-157.0318195661038
 30
0.0
 10
45.64561512540166
 20
-158.4317914732045
 30
0.0
 10
45.34300917392175
 20
-159.2027110017873
 30
0.0
 10
45.0825688703855
 20
-159.8815494359974
 30
0.0
 10
44.8972513721848
 20
-160.4220588057494
 30
0.0
  0
ARC
  5
6DBD
330
6D9C
100
AcDbEntity
  8
0
  6
CONTINUOUS
100
AcDbCircle
 10
48.0
 20
-161.545960942616
 30
0.0
 40
3.299999999999998
100
AcDbArc
 50
160.0881997351804
 51
19.91180026481925
  0
CIRCLE
  5
6DBE
330
6D9C
100
AcDbEntity
  8
0
  6
CONTINUOUS
100
AcDbCircle
 10
48.0
 20
-161.545960942616
 30
0.0
 40
2.149999999999999
  0
LINE
  5
6DBF
330
6D9C
100
AcDbEntity
  8
0
  6
CONTINUOUS
100
AcDbLine
 10
47.0
 20
-153.845960942616
 30
0.0
 11
49.0
 21
-153.845960942616
 31
0.0
  0
LINE
  5
6DC0
330
6D9C
100
AcDbEntity
  8
0
  6
CONTINUOUS
100
AcDbLine
 10
47.0
 20
-149.845960942616
 30
0.0
 11
49.0
 21
-149.845960942616
 31
0.0
  0
SPLINE
  5
6DC1
330
6D9C
100
AcDbEntity
  8
0
  6
CONTINUOUS
100
AcDbSpline
210
0.0
220
0.0
230
1.0
 70
     8
 71
     3
 72
     8
 73
     4
 74
     0
 42
0.0000000001
 43
0.0000000001
 40
0.0
 40
0.0
 40
0.0
 40
0.0
 40
1.0
 40
1.0
 40
1.0
 40
1.0
 10
47.00000000073258
 20
-134.5214696541707
 30
0.0
 10
47.5463266700256
 20
-133.5619339293595
 30
0.0
 10
48.48752698565374
 20
-135.8187863795232
 30
0.0
 10
49.00000000116675
 20
-134.5101879612343
 30
0.0
  0
SPLINE
  5
6DC2
330
6D9C
100
AcDbEntity
  8
0
  6
CONTINUOUS
100
AcDbSpline
210
0.0
220
0.0
230
1.0
 70
     8
 71
     3
 72
     8
 73
     4
 74
     0
 42
0.0000000001
 43
0.0000000001
 40
0.0
 40
0.0
 40
0.0
 40
0.0
 40
1.0
 40
1.0
 40
1.0
 40
1.0
 10
47.00000000073258
 20
-131.5214696541707
 30
0.0
 10
47.5463266700256
 20
-130.5619339293595
 30
0.0
 10
48.48752698565374
 20
-132.8187863795232
 30
0.0
 10
49.00000000116675
 20
-131.5101879612343
 30
0.0
  0
LINE
  5
6DC3
330
6D9C
100
AcDbEntity
  8
0
  6
CONTINUOUS
100
AcDbLine
 10
49.0
 20
-82.5
 30
0.0
 11
52.5
 21
-82.5
 31
0.0
  0
LINE
  5
6DC4
330
6D9C
100
AcDbEntity
  8
0
  6
CONTINUOUS
100
AcDbLine
 10
-11.0
 20
25.0
 30
0.0
 11
-11.0
 21
-25.0
 31
0.0
  0
LINE
  5
6DC5
330
6D9C
100
AcDbEntity
  8
0
  6
CONTINUOUS
100
AcDbLine
 10
11.0
 20
25.0
 30
0.0
 11
11.0
 21
-25.0
 31
0.0
  0
LINE
  5
6DC6
330
6D9C
100
AcDbEntity
  8
0
  6
CONTINUOUS
100
AcDbLine
 10
49.0
 20
25.0
 30
0.0
 11
49.0
 21
-25.0
 31
0.0
  0
CIRCLE
  5
6DC7
330
6D9C
100
AcDbEntity
  8
0
  6
CONTINUOUS
100
AcDbCircle
 10
17.5
 20
-63.0
 30
0.0
 40
4.0
  0
LINE
  5
6DC8
330
6D9C
100
AcDbEntity
  8
0
  6
CONTINUOUS
100
AcDbLine
 10
12.0
 20
-63.0
 30
0.0
 11
23.0
 21
-63.0
 31
0.0
  0
LINE
  5
6DC9
330
6D9C
100
AcDbEntity
  8
0
  6
CONTINUOUS
100
AcDbLine
 10
7.0
 20
-60.0
 30
0.0
 11
-7.0
 21
-60.0
 31
0.0
  0
LINE
  5
6DCA
330
6D9C
100
AcDbEntity
  8
0
  6
CONTINUOUS
100
AcDbLine
 10
-7.0
 20
-72.0
 30
0.0
 11
7.0
 21
-72.0
 31
0.0
  0
ARC
  5
6DCB
330
6D9C
100
AcDbEntity
  8
0
  6
CONTINUOUS
100
AcDbCircle
 10
7.0
 20
-65.0
 30
0.0
 40
5.0
210
0.0
220
0.0
230
-1.0
100
AcDbArc
 50
0.0
 51
90.0
  0
ARC
  5
6DCC
330
6D9C
100
AcDbEntity
  8
0
  6
CONTINUOUS
100
AcDbCircle
 10
-7.0
 20
-65.0
 30
0.0
 40
5.0
210
0.0
220
0.0
230
-1.0
100
AcDbArc
 50
90.0
 51
180.0
  0
LINE
  5
6DCD
330
6D9C
100
AcDbEntity
  8
0
  6
CONTINUOUS
100
AcDbLine
 10
17.5
 20
-57.5
 30
0.0
 11
17.5
 21
-68.5
 31
0.0
  0
LINE
  5
6DCE
330
6D9C
100
AcDbEntity
  8
0
  6
CONTINUOUS
100
AcDbLine
 10
42.0
 20
-60.0
 30
0.0
 11
28.0
 21
-60.0
 31
0.0
  0
LINE
  5
6DCF
330
6D9C
100
AcDbEntity
  8
0
  6
CONTINUOUS
100
AcDbLine
 10
28.0
 20
-72.0
 30
0.0
 11
42.0
 21
-72.0
 31
0.0
  0
ARC
  5
6DD0
330
6D9C
100
AcDbEntity
  8
0
  6
CONTINUOUS
100
AcDbCircle
 10
-28.0
 20
-65.0
 30
0.0
 40
5.0
210
0.0
220
0.0
230
-1.0
100
AcDbArc
 50
0.0
 51
90.0
  0
ARC
  5
6DD1
330
6D9C
100
AcDbEntity
  8
0
  6
CONTINUOUS
100
AcDbCircle
 10
-42.0
 20
-65.0
 30
0.0
 40
5.0
210
0.0
220
0.0
230
-1.0
100
AcDbArc
 50
90.0
 51
180.0
  0
LINE
  5
6DD2
330
6D9C
100
AcDbEntity
  8
0
  6
CONTINUOUS
100
AcDbLine
 10
49.0
 20
-51.0
 30
0.0
 11
52.5
 21
-51.0
 31
0.0
  0
LINE
  5
6DD3
330
6D9C
100
AcDbEntity
  8
0
  6
CONTINUOUS
100
AcDbLine
 10
-7.0
 20
-18.5
 30
0.0
 11
-6.999999999999943
 21
20.15486870581022
 31
0.0
  0
LINE
  5
6DD4
330
6D9C
100
AcDbEntity
  8
0
  6
CONTINUOUS
100
AcDbLine
 10
7.0
 20
-18.5
 30
0.0
 11
7.000000000000056
 21
20.15486870581028
 31
0.0
  0
LINE
  5
6DD5
330
6D9C
100
AcDbEntity
  8
0
  6
CONTINUOUS
100
AcDbLine
 10
-7.0
 20
-18.5
 30
0.0
 11
7.0
 21
-18.5
 31
0.0
  0
LINE
  5
6DD6
330
6D9C
100
AcDbEntity
  8
0
  6
CONTINUOUS
100
AcDbLine
 10
7.0
 20
6.840789306861521
 30
0.0
 11
-6.999999999999147
 21
6.84078930686158
 31
0.0
  0
LINE
  5
6DD7
330
6D9C
100
AcDbEntity
  8
0
  6
CONTINUOUS
100
AcDbLine
 10
7.0
 20
20.15486870581028
 30
0.0
 11
-7.000000000000909
 21
20.15486870581022
 31
0.0
  0
LINE
  5
6DD8
330
6D9C
100
AcDbEntity
  8
0
  6
CONTINUOUS
100
AcDbLine
 10
7.0
 20
15.23995644007664
 30
0.0
 11
-7.0
 21
15.23995644007664
 31
0.0
  0
LINE
  5
6DD9
330
6D9C
100
AcDbEntity
  8
0
  6
CONTINUOUS
100
AcDbLine
 10
31.10000000000002
 20
10.0495722744776
 30
0.0
 11
31.10000000000002
 21
-6.431389353983262
 31
0.0
  0
LINE
  5
6DDA
330
6D9C
100
AcDbEntity
  8
0
  6
CONTINUOUS
100
AcDbLine
 10
31.60000000000001
 20
-6.33774752654889
 30
0.0
 11
31.60000000000001
 21
-16.98662646131889
 31
0.0
  0
LINE
  5
6DDB
330
6D9C
100
AcDbEntity
  8
0
  6
CONTINUOUS
100
AcDbLine
 10
27.0
 20
-7.000000000000027
 30
0.0
 11
27.0
 21
-11.00000000000002
 31
0.0
  0
LINE
  5
6DDC
330
6D9C
100
AcDbEntity
  8
0
  6
CONTINUOUS
100
AcDbLine
 10
36.19999999999999
 20
-7.000000000000027
 30
0.0
 11
36.19999999999999
 21
-11.00000000000002
 31
0.0
  0
LINE
  5
6DDD
330
6D9C
100
AcDbEntity
  8
0
  6
CONTINUOUS
100
AcDbLine
 10
27.0
 20
-12.0
 30
0.0
 11
36.2000000000001
 21
-12.0
 31
0.0
  0
LINE
  5
6DDE
330
6D9C
100
AcDbEntity
  8
0
  6
CONTINUOUS
100
AcDbLine
 10
27.0
 20
-16.0
 30
0.0
 11
36.2000000000001
 21
-16.0
 31
0.0
  0
LINE
  5
6DDF
330
6D9C
100
AcDbEntity
  8
0
  6
CONTINUOUS
100
AcDbLine
 10
25.36102323011846
 20
-14.0
 30
0.0
 11
37.44706175765649
 21
-14.0
 31
0.0
  0
LINE
  5
6DE0
330
6D9C
100
AcDbEntity
  8
0
  6
CONTINUOUS
100
AcDbLine
 10
27.0
 20
-11.0
 30
0.0
 11
36.2000000000001
 21
-11.0
 31
0.0
  0
LINE
  5
6DE1
330
6D9C
100
AcDbEntity
  8
0
  6
CONTINUOUS
100
AcDbLine
 10
27.0
 20
-12.00000000000001
 30
0.0
 11
27.0
 21
-16.00000000000003
 31
0.0
  0
LINE
  5
6DE2
330
6D9C
100
AcDbEntity
  8
0
  6
CONTINUOUS
100
AcDbLine
 10
36.19999999999999
 20
-12.00000000000001
 30
0.0
 11
36.19999999999999
 21
-16.00000000000003
 31
0.0
  0
CIRCLE
  5
6DE3
330
6D9C
100
AcDbEntity
  8
0
  6
CONTINUOUS
100
AcDbCircle
 10
31.10000000000002
 20
-1.900000000000004
 30
0.0
 40
2.5
  0
CIRCLE
  5
6DE4
330
6D9C
100
AcDbEntity
  8
0
  6
CONTINUOUS
100
AcDbCircle
 10
31.10000000000002
 20
-1.900000000000004
 30
0.0
 40
3.6
  0
LINE
  5
6DE5
330
6D9C
100
AcDbEntity
  8
0
  6
CONTINUOUS
100
AcDbLine
 10
25.4609078460486
 20
-1.900000000000004
 30
0.0
 11
36.34833098242575
 21
-1.900000000000004
 31
0.0
  0
LINE
  5
6DE6
330
6D9C
100
AcDbEntity
  8
0
  6
CONTINUOUS
100
AcDbLine
 10
27.0
 20
-7.0
 30
0.0
 11
36.2000000000001
 21
-7.0
 31
0.0
  0
LINE
  5
6DE7
330
6D9C
100
AcDbEntity
  8
0
  6
CONTINUOUS
100
AcDbLine
 10
25.36102323011846
 20
-9.0
 30
0.0
 11
37.44706175765649
 21
-9.0
 31
0.0
  0
CIRCLE
  5
6DE8
330
6D9C
100
AcDbEntity
  8
0
  6
CONTINUOUS
100
AcDbCircle
 10
31.10000000000002
 20
5.799999999999952
 30
0.0
 40
2.75
  0
LINE
  5
6DE9
330
6D9C
100
AcDbEntity
  8
0
  6
CONTINUOUS
100
AcDbLine
 10
25.4609078460486
 20
5.800000000000013
 30
0.0
 11
36.34833098242575
 21
5.800000000000013
 31
0.0
  0
ARC
  5
6DEA
330
6D9C
100
AcDbEntity
  8
0
  6
CONTINUOUS
100
AcDbCircle
 10
-28.0
 20
65.0
 30
0.0
 40
5.0
100
AcDbArc
 50
270.0
 51
0.0
  0
LINE
  5
6DEB
330
6D9C
100
AcDbEntity
  8
0
  6
CONTINUOUS
100
AcDbLine
 10
-52.5
 20
51.0
 30
0.0
 11
52.5
 21
51.0
 31
0.0
  0
LINE
  5
6DEC
330
6D9C
100
AcDbEntity
  8
0
  6
CONTINUOUS
100
AcDbLine
 10
52.5
 20
82.5
 30
0.0
 11
-52.5
 21
82.5
 31
0.0
  0
LINE
  5
6DED
330
6D9C
100
AcDbEntity
  8
0
  6
CONTINUOUS
100
AcDbLine
 10
-47.0
 20
82.5
 30
0.0
 11
-47.0
 21
65.0
 31
0.0
  0
ARC
  5
6DEE
330
6D9C
100
AcDbEntity
  8
0
  6
CONTINUOUS
100
AcDbCircle
 10
-42.0
 20
65.0
 30
0.0
 40
5.0
100
AcDbArc
 50
180.0
 51
270.0
  0
CIRCLE
  5
6DEF
330
6D9C
100
AcDbEntity
  8
0
  6
CONTINUOUS
100
AcDbCircle
 10
-35.0
 20
72.0
 30
0.0
 40
5.0
  0
LINE
  5
6DF0
330
6D9C
100
AcDbEntity
  8
0
  6
CONTINUOUS
100
AcDbLine
 10
-35.0
 20
79.0
 30
0.0
 11
-35.0
 21
65.0
 31
0.0
  0
LINE
  5
6DF1
330
6D9C
100
AcDbEntity
  8
0
  6
CONTINUOUS
100
AcDbLine
 10
-28.0
 20
60.0
 30
0.0
 11
-42.0
 21
60.0
 31
0.0
  0
LINE
  5
6DF2
330
6D9C
100
AcDbEntity
  8
0
  6
CONTINUOUS
100
AcDbLine
 10
-42.0
 20
72.0
 30
0.0
 11
-28.0
 21
72.0
 31
0.0
  0
LINE
  5
6DF3
330
6D9C
100
AcDbEntity
  8
0
  6
CONTINUOUS
100
AcDbLine
 10
-23.0
 20
82.5
 30
0.0
 11
-23.0
 21
65.0
 31
0.0
  0
LINE
  5
6DF4
330
6D9C
100
AcDbEntity
  8
0
  6
CONTINUOUS
100
AcDbLine
 10
12.0
 20
82.5
 30
0.0
 11
12.0
 21
65.0
 31
0.0
  0
LINE
  5
6DF5
330
6D9C
100
AcDbEntity
  8
0
  6
CONTINUOUS
100
AcDbLine
 10
-12.0
 20
82.5
 30
0.0
 11
-12.0
 21
65.0
 31
0.0
  0
LINE
  5
6DF6
330
6D9C
100
AcDbEntity
  8
0
  6
CONTINUOUS
100
AcDbLine
 10
23.0
 20
82.5
 30
0.0
 11
23.0
 21
65.0
 31
0.0
  0
LINE
  5
6DF7
330
6D9C
100
AcDbEntity
  8
0
  6
CONTINUOUS
100
AcDbLine
 10
47.0
 20
82.5
 30
0.0
 11
47.0
 21
65.0
 31
0.0
  0
CIRCLE
  5
6DF8
330
6D9C
100
AcDbEntity
  8
0
  6
CONTINUOUS
100
AcDbCircle
 10
0.0
 20
72.0
 30
0.0
 40
5.0
  0
LINE
  5
6DF9
330
6D9C
100
AcDbEntity
  8
0
  6
CONTINUOUS
100
AcDbLine
 10
7.0
 20
60.0
 30
0.0
 11
-7.0
 21
60.0
 31
0.0
  0
LINE
  5
6DFA
330
6D9C
100
AcDbEntity
  8
0
  6
CONTINUOUS
100
AcDbLine
 10
-7.0
 20
72.0
 30
0.0
 11
7.0
 21
72.0
 31
0.0
  0
LINE
  5
6DFB
330
6D9C
100
AcDbEntity
  8
0
  6
CONTINUOUS
100
AcDbLine
 10
-17.5
 20
68.5
 30
0.0
 11
-17.5
 21
57.5
 31
0.0
  0
ARC
  5
6DFC
330
6D9C
100
AcDbEntity
  8
0
  6
CONTINUOUS
100
AcDbCircle
 10
-7.0
 20
65.0
 30
0.0
 40
5.0
100
AcDbArc
 50
180.0
 51
270.0
  0
LINE
  5
6DFD
330
6D9C
100
AcDbEntity
  8
0
  6
CONTINUOUS
100
AcDbLine
 10
-23.0
 20
63.0
 30
0.0
 11
-12.0
 21
63.0
 31
0.0
  0
CIRCLE
  5
6DFE
330
6D9C
100
AcDbEntity
  8
0
  6
CONTINUOUS
100
AcDbCircle
 10
-17.5
 20
63.0
 30
0.0
 40
4.0
  0
ARC
  5
6DFF
330
6D9C
100
AcDbEntity
  8
0
  6
CONTINUOUS
100
AcDbCircle
 10
7.0
 20
65.0
 30
0.0
 40
5.0
100
AcDbArc
 50
270.0
 51
0.0
  0
LINE
  5
6E00
330
6D9C
100
AcDbEntity
  8
0
  6
CONTINUOUS
100
AcDbLine
 10
42.0
 20
60.0
 30
0.0
 11
28.0
 21
60.0
 31
0.0
  0
LINE
  5
6E01
330
6D9C
100
AcDbEntity
  8
0
  6
CONTINUOUS
100
AcDbLine
 10
28.0
 20
72.0
 30
0.0
 11
42.0
 21
72.0
 31
0.0
  0
CIRCLE
  5
6E02
330
6D9C
100
AcDbEntity
  8
0
  6
CONTINUOUS
100
AcDbCircle
 10
35.0
 20
72.0
 30
0.0
 40
5.0
  0
LINE
  5
6E03
330
6D9C
100
AcDbEntity
  8
0
  6
CONTINUOUS
100
AcDbLine
 10
35.0
 20
79.0
 30
0.0
 11
35.0
 21
65.0
 31
0.0
  0
ARC
  5
6E04
330
6D9C
100
AcDbEntity
  8
0
  6
CONTINUOUS
100
AcDbCircle
 10
28.0
 20
65.0
 30
0.0
 40
5.0
100
AcDbArc
 50
180.0
 51
270.0
  0
ARC
  5
6E05
330
6D9C
100
AcDbEntity
  8
0
  6
CONTINUOUS
100
AcDbCircle
 10
42.0
 20
65.0
 30
0.0
 40
5.0
100
AcDbArc
 50
270.0
 51
0.0
  0
LINE
  5
6E06
330
6D9C
100
AcDbEntity
  8
0
  6
PHANTOM
100
AcDbLine
 10
19.0
 20
129.4999999999999
 30
0.0
 11
19.0
 21
82.49999999999992
 31
0.0
  0
LINE
  5
6E07
330
6D9C
100
AcDbEntity
  8
0
  6
PHANTOM
100
AcDbLine
 10
16.0
 20
129.4999999999999
 30
0.0
 11
16.0
 21
82.49999999999992
 31
0.0
  0
LINE
  5
6E08
330
6D9C
100
AcDbEntity
  8
0
  6
PHANTOM
100
AcDbLine
 10
-16.0
 20
129.4999999999999
 30
0.0
 11
-16.0
 21
82.49999999999992
 31
0.0
  0
LINE
  5
6E09
330
6D9C
100
AcDbEntity
  8
0
  6
PHANTOM
100
AcDbLine
 10
-19.0
 20
129.4999999999999
 30
0.0
 11
-19.0
 21
82.49999999999992
 31
0.0
  0
LINE
  5
6E0A
330
6D9C
100
AcDbEntity
  8
0
  6
PHANTOM
100
AcDbLine
 10
-16.0
 20
129.4999999999999
 30
0.0
 11
-19.0
 21
129.4999999999999
 31
0.0
  0
LINE
  5
6E0B
330
6D9C
100
AcDbEntity
  8
0
  6
PHANTOM
100
AcDbLine
 10
16.0
 20
129.4999999999999
 30
0.0
 11
19.0
 21
129.4999999999999
 31
0.0
  0
ENDBLK
  5
6E0D
330
6D9C
100
AcDbEntity
  8
0
100
AcDbBlockEnd
  0
BLOCK
  5
731F
330
725D
100
AcDbEntity
  8
0
100
AcDbBlockBegin
  2
A$C15744025
 70
     0
 10
0.0
 20
0.0
 30
0.0
  3
A$C15744025
  1

  0
LINE
  5
725E
330
725D
100
AcDbEntity
  8
0
100
AcDbLine
 10
46.0
 20
-174.5
 30
0.0
 11
74.0
 21
-174.5
 31
0.0
  0
LINE
  5
725F
330
725D
100
AcDbEntity
  8
0
100
AcDbLine
 10
49.0
 20
-160.0
 30
0.0
 11
71.0
 21
-160.0
 31
0.0
  0
LINE
  5
7260
330
725D
100
AcDbEntity
  8
0
100
AcDbLine
 10
49.0
 20
160.0000000000002
 30
0.0
 11
71.0
 21
160.0000000000002
 31
0.0
  0
LINE
  5
7261
330
725D
100
AcDbEntity
  8
0
100
AcDbLine
 10
46.0
 20
174.5000000000002
 30
0.0
 11
74.0
 21
174.5000000000002
 31
0.0
  0
LINE
  5
7262
330
725D
100
AcDbEntity
  8
0
100
AcDbLine
 10
-70.00000000000007
 20
50.99999999999909
 30
0.0
 11
70.0
 21
50.99999999999909
 31
0.0
  0
LINE
  5
7263
330
725D
100
AcDbEntity
  8
0
100
AcDbLine
 10
-53.0
 20
45.0000000000001
 30
0.0
 11
53.0
 21
45.0000000000001
 31
0.0
  0
LINE
  5
7264
330
725D
100
AcDbEntity
  8
0
100
AcDbLine
 10
70.0
 20
130.0
 30
0.0
 11
-70.00000000000007
 21
130.0
 31
0.0
  0
LINE
  5
7265
330
725D
100
AcDbEntity
  8
0
100
AcDbLine
 10
-53.0
 20
-45.0
 30
0.0
 11
53.0
 21
-45.0
 31
0.0
  0
LINE
  5
7266
330
725D
100
AcDbEntity
  8
0
100
AcDbLine
 10
-75.00000000000007
 20
0.0
 30
0.0
 11
75.0
 21
0.0
 31
0.0
  0
LINE
  5
7267
330
725D
100
AcDbEntity
  8
0
100
AcDbLine
 10
36.0
 20
-114.0
 30
0.0
 11
54.0
 21
-114.0
 31
0.0
  0
LINE
  5
7268
330
725D
100
AcDbEntity
  8
0
100
AcDbLine
 10
36.0
 20
114.0000000000001
 30
0.0
 11
54.0
 21
114.0000000000001
 31
0.0
  0
LINE
  5
7269
330
725D
100
AcDbEntity
  8
0
100
AcDbLine
 10
-70.00000000000007
 20
-130.0
 30
0.0
 11
70.0
 21
-130.0
 31
0.0
  0
LINE
  5
726A
330
725D
100
AcDbEntity
  8
0
100
AcDbLine
 10
-70.00000000000007
 20
-51.0
 30
0.0
 11
70.0
 21
-51.0
 31
0.0
  0
LINE
  5
726B
330
725D
100
AcDbEntity
  8
0
100
AcDbLine
 10
0.0
 20
178.5
 30
0.0
 11
0.0
 21
-178.5
 31
0.0
  0
LINE
  5
726C
330
725D
100
AcDbEntity
  8
0
100
AcDbLine
 10
-25.49999999999977
 20
-45.0
 30
0.0
 11
-25.5
 21
45.0000000000001
 31
0.0
  0
LINE
  5
726D
330
725D
100
AcDbEntity
  8
0
100
AcDbLine
 10
25.49999999999977
 20
-45.0
 30
0.0
 11
25.49999999999977
 21
45.0000000000001
 31
0.0
  0
LINE
  5
726E
330
725D
100
AcDbEntity
  8
0
100
AcDbLine
 10
-70.00000000000007
 20
130.0
 30
0.0
 11
-70.00000000000007
 21
-130.0
 31
0.0
  0
ARC
  5
726F
330
725D
100
AcDbEntity
  8
0
100
AcDbCircle
 10
-53.0
 20
-40.0
 30
0.0
 40
5.0
100
AcDbArc
 50
180.0
 51
270.0
  0
LINE
  5
7270
330
725D
100
AcDbEntity
  8
0
100
AcDbLine
 10
-71.00000000000004
 20
-160.0
 30
0.0
 11
-49.0
 21
-160.0
 31
0.0
  0
LINE
  5
7271
330
725D
100
AcDbEntity
  8
0
100
AcDbLine
 10
-74.00000000000004
 20
-150.0000000000003
 30
0.0
 11
-59.0
 21
-130.0000000000003
 31
0.0
  0
LINE
  5
7272
330
725D
100
AcDbEntity
  8
0
100
AcDbLine
 10
-74.00000000000004
 20
-174.5
 30
0.0
 11
-46.0
 21
-174.5
 31
0.0
  0
CIRCLE
  5
7273
330
725D
100
AcDbEntity
  8
0
100
AcDbCircle
 10
60.0
 20
-160.0
 30
0.0
 40
7.0
210
0.0
220
0.0
230
-1.0
  0
LINE
  5
7274
330
725D
100
AcDbEntity
  8
0
100
AcDbLine
 10
-74.00000000000004
 20
-174.5
 30
0.0
 11
-74.00000000000004
 21
-150.0000000000003
 31
0.0
  0
LINE
  5
7275
330
725D
100
AcDbEntity
  8
0
100
AcDbLine
 10
14.0
 20
-174.5
 30
0.0
 11
14.0
 21
-130.0
 31
0.0
  0
LINE
  5
7276
330
725D
100
AcDbEntity
  8
0
100
AcDbLine
 10
31.0
 20
-130.0000000000003
 30
0.0
 11
46.0
 21
-150.0000000000003
 31
0.0
  0
LINE
  5
7277
330
725D
100
AcDbEntity
  8
0
100
AcDbLine
 10
-46.0
 20
-150.0000000000003
 30
0.0
 11
-31.0
 21
-130.0000000000003
 31
0.0
  0
LINE
  5
7278
330
725D
100
AcDbEntity
  8
0
100
AcDbLine
 10
-14.0
 20
-174.5
 30
0.0
 11
-14.0
 21
-130.0
 31
0.0
  0
LINE
  5
7279
330
725D
100
AcDbEntity
  8
0
100
AcDbLine
 10
-11.0
 20
-160.0
 30
0.0
 11
11.0
 21
-160.0
 31
0.0
  0
LINE
  5
727A
330
725D
100
AcDbEntity
  8
0
100
AcDbLine
 10
-14.0
 20
-174.5
 30
0.0
 11
14.0
 21
-174.5
 31
0.0
  0
CIRCLE
  5
727B
330
725D
100
AcDbEntity
  8
0
100
AcDbCircle
 10
0.0
 20
-160.0
 30
0.0
 40
7.0
210
0.0
220
0.0
230
-1.0
  0
LINE
  5
727C
330
725D
100
AcDbEntity
  8
0
100
AcDbLine
 10
-60.0
 20
-149.0
 30
0.0
 11
-60.0
 21
-171.0
 31
0.0
  0
LINE
  5
727D
330
725D
100
AcDbEntity
  8
0
100
AcDbLine
 10
-46.0
 20
-174.5
 30
0.0
 11
-46.0
 21
-150.0000000000003
 31
0.0
  0
LINE
  5
727E
330
725D
100
AcDbEntity
  8
0
100
AcDbLine
 10
46.0
 20
-174.5
 30
0.0
 11
46.0
 21
-150.0000000000003
 31
0.0
  0
LINE
  5
727F
330
725D
100
AcDbEntity
  8
0
100
AcDbLine
 10
-9.0
 20
-114.0
 30
0.0
 11
9.0
 21
-114.0
 31
0.0
  0
LINE
  5
7280
330
725D
100
AcDbEntity
  8
0
100
AcDbLine
 10
-45.0000000000001
 20
-109.3811978464831
 30
0.0
 11
-41.0
 21
-111.6905989232416
 31
0.0
  0
LINE
  5
7281
330
725D
100
AcDbEntity
  8
0
100
AcDbLine
 10
-49.0
 20
-111.6905989232416
 30
0.0
 11
-45.0000000000001
 21
-109.3811978464831
 31
0.0
  0
LINE
  5
7282
330
725D
100
AcDbEntity
  8
0
100
AcDbLine
 10
-45.0
 20
-123.0
 30
0.0
 11
-45.0
 21
-105.0
 31
0.0
  0
ARC
  5
7283
330
725D
100
AcDbEntity
  8
0
100
AcDbCircle
 10
45.0
 20
-114.0
 30
0.0
 40
5.5
210
0.0
220
0.0
230
-1.0
100
AcDbArc
 50
0.0
 51
180.0
  0
LINE
  5
7284
330
725D
100
AcDbEntity
  8
0
100
AcDbLine
 10
-54.0
 20
-114.0
 30
0.0
 11
-36.0
 21
-114.0
 31
0.0
  0
LINE
  5
7285
330
725D
100
AcDbEntity
  8
0
100
AcDbLine
 10
-41.0
 20
-111.6905989232416
 30
0.0
 11
-41.0
 21
-116.3094010767586
 31
0.0
  0
LINE
  5
7286
330
725D
100
AcDbEntity
  8
0
100
AcDbLine
 10
-49.0
 20
-116.3094010767586
 30
0.0
 11
-49.0
 21
-111.6905989232416
 31
0.0
  0
LINE
  5
7287
330
725D
100
AcDbEntity
  8
0
100
AcDbLine
 10
-45.0
 20
-118.6188021535169
 30
0.0
 11
-49.0
 21
-116.3094010767586
 31
0.0
  0
LINE
  5
7288
330
725D
100
AcDbEntity
  8
0
100
AcDbLine
 10
-41.0
 20
-116.3094010767586
 30
0.0
 11
-45.0
 21
-118.6188021535169
 31
0.0
  0
LINE
  5
7289
330
725D
100
AcDbEntity
  8
0
100
AcDbLine
 10
-50.5
 20
-114.0
 30
0.0
 11
-50.5
 21
-130.0
 31
0.0
  0
LINE
  5
728A
330
725D
100
AcDbEntity
  8
0
100
AcDbLine
 10
-39.5
 20
-114.0
 30
0.0
 11
-39.5
 21
-130.0
 31
0.0
  0
ARC
  5
728B
330
725D
100
AcDbEntity
  8
0
100
AcDbCircle
 10
45.0
 20
-114.0
 30
0.0
 40
8.0
210
0.0
220
0.0
230
-1.0
100
AcDbArc
 50
226.5674634422111
 51
313.4325365577887
  0
LINE
  5
728C
330
725D
100
AcDbEntity
  8
0
100
AcDbLine
 10
-22.5
 20
-99.0
 30
0.0
 11
-22.5
 21
-115.0
 31
0.0
  0
CIRCLE
  5
728D
330
725D
100
AcDbEntity
  8
0
100
AcDbCircle
 10
-22.5
 20
-107.0
 30
0.0
 40
4.0
  0
LINE
  5
728E
330
725D
100
AcDbEntity
  8
0
100
AcDbLine
 10
-14.5
 20
-107.0
 30
0.0
 11
-30.5
 21
-107.0
 31
0.0
  0
LINE
  5
728F
330
725D
100
AcDbEntity
  8
0
100
AcDbLine
 10
30.5
 20
-107.0
 30
0.0
 11
14.5
 21
-107.0
 31
0.0
  0
CIRCLE
  5
7290
330
725D
100
AcDbEntity
  8
0
100
AcDbCircle
 10
22.5
 20
-107.0
 30
0.0
 40
4.0
  0
LINE
  5
7291
330
725D
100
AcDbEntity
  8
0
100
AcDbLine
 10
-0.0000000000001137
 20
-109.3811978464831
 30
0.0
 11
4.0
 21
-111.6905989232416
 31
0.0
  0
LINE
  5
7292
330
725D
100
AcDbEntity
  8
0
100
AcDbLine
 10
-4.0
 20
-111.6905989232416
 30
0.0
 11
-0.0000000000001137
 21
-109.3811978464831
 31
0.0
  0
LINE
  5
7293
330
725D
100
AcDbEntity
  8
0
100
AcDbLine
 10
22.5
 20
-99.0
 30
0.0
 11
22.5
 21
-115.0
 31
0.0
  0
LINE
  5
7294
330
725D
100
AcDbEntity
  8
0
100
AcDbLine
 10
0.0
 20
-123.0
 30
0.0
 11
0.0
 21
-105.0
 31
0.0
  0
ARC
  5
7295
330
725D
100
AcDbEntity
  8
0
100
AcDbCircle
 10
0.0
 20
-114.0
 30
0.0
 40
5.5
210
0.0
220
0.0
230
-1.0
100
AcDbArc
 50
0.0
 51
180.0
  0
LINE
  5
7296
330
725D
100
AcDbEntity
  8
0
100
AcDbLine
 10
4.0
 20
-111.6905989232416
 30
0.0
 11
4.0
 21
-116.3094010767586
 31
0.0
  0
LINE
  5
7297
330
725D
100
AcDbEntity
  8
0
100
AcDbLine
 10
-4.0
 20
-116.3094010767586
 30
0.0
 11
-4.0
 21
-111.6905989232416
 31
0.0
  0
LINE
  5
7298
330
725D
100
AcDbEntity
  8
0
100
AcDbLine
 10
0.0
 20
-118.6188021535169
 30
0.0
 11
-4.0
 21
-116.3094010767586
 31
0.0
  0
LINE
  5
7299
330
725D
100
AcDbEntity
  8
0
100
AcDbLine
 10
4.0
 20
-116.3094010767586
 30
0.0
 11
0.0
 21
-118.6188021535169
 31
0.0
  0
LINE
  5
729A
330
725D
100
AcDbEntity
  8
0
100
AcDbLine
 10
-5.5
 20
-114.0
 30
0.0
 11
-5.5
 21
-130.0
 31
0.0
  0
LINE
  5
729B
330
725D
100
AcDbEntity
  8
0
100
AcDbLine
 10
5.5
 20
-114.0
 30
0.0
 11
5.5
 21
-130.0
 31
0.0
  0
ARC
  5
729C
330
725D
100
AcDbEntity
  8
0
100
AcDbCircle
 10
0.0
 20
-114.0
 30
0.0
 40
8.0
210
0.0
220
0.0
230
-1.0
100
AcDbArc
 50
226.5674634422111
 51
313.4325365577887
  0
LINE
  5
729D
330
725D
100
AcDbEntity
  8
0
100
AcDbLine
 10
44.99999999999988
 20
-109.3811978464831
 30
0.0
 11
49.0
 21
-111.6905989232416
 31
0.0
  0
LINE
  5
729E
330
725D
100
AcDbEntity
  8
0
100
AcDbLine
 10
41.0
 20
-111.6905989232416
 30
0.0
 11
44.99999999999988
 21
-109.3811978464831
 31
0.0
  0
LINE
  5
729F
330
725D
100
AcDbEntity
  8
0
100
AcDbLine
 10
45.0
 20
-123.0
 30
0.0
 11
45.0
 21
-105.0
 31
0.0
  0
ARC
  5
72A0
330
725D
100
AcDbEntity
  8
0
100
AcDbCircle
 10
-45.0
 20
-114.0
 30
0.0
 40
5.5
210
0.0
220
0.0
230
-1.0
100
AcDbArc
 50
0.0
 51
180.0
  0
LINE
  5
72A1
330
725D
100
AcDbEntity
  8
0
100
AcDbLine
 10
49.0
 20
-111.6905989232416
 30
0.0
 11
49.0
 21
-116.3094010767586
 31
0.0
  0
LINE
  5
72A2
330
725D
100
AcDbEntity
  8
0
100
AcDbLine
 10
41.0
 20
-116.3094010767586
 30
0.0
 11
41.0
 21
-111.6905989232416
 31
0.0
  0
LINE
  5
72A3
330
725D
100
AcDbEntity
  8
0
100
AcDbLine
 10
45.0
 20
-118.6188021535169
 30
0.0
 11
41.0
 21
-116.3094010767586
 31
0.0
  0
LINE
  5
72A4
330
725D
100
AcDbEntity
  8
0
100
AcDbLine
 10
49.0
 20
-116.3094010767586
 30
0.0
 11
45.0
 21
-118.6188021535169
 31
0.0
  0
LINE
  5
72A5
330
725D
100
AcDbEntity
  8
0
100
AcDbLine
 10
39.5
 20
-114.0
 30
0.0
 11
39.5
 21
-130.0
 31
0.0
  0
LINE
  5
72A6
330
725D
100
AcDbEntity
  8
0
100
AcDbLine
 10
50.5
 20
-114.0
 30
0.0
 11
50.5
 21
-130.0
 31
0.0
  0
ARC
  5
72A7
330
725D
100
AcDbEntity
  8
0
100
AcDbCircle
 10
-45.0
 20
-114.0
 30
0.0
 40
8.0
210
0.0
220
0.0
230
-1.0
100
AcDbArc
 50
226.5674634422111
 51
313.4325365577887
  0
LINE
  5
72A8
330
725D
100
AcDbEntity
  8
0
100
AcDbLine
 10
14.0
 20
174.5000000000002
 30
0.0
 11
14.0
 21
130.0
 31
0.0
  0
LINE
  5
72A9
330
725D
100
AcDbEntity
  8
0
100
AcDbLine
 10
31.0
 20
130.0
 30
0.0
 11
46.0
 21
150.0
 31
0.0
  0
LINE
  5
72AA
330
725D
100
AcDbEntity
  8
0
100
AcDbLine
 10
-46.0
 20
150.0
 30
0.0
 11
-31.0
 21
130.0
 31
0.0
  0
LINE
  5
72AB
330
725D
100
AcDbEntity
  8
0
100
AcDbLine
 10
-74.00000000000004
 20
150.0
 30
0.0
 11
-59.0
 21
130.0
 31
0.0
  0
LINE
  5
72AC
330
725D
100
AcDbEntity
  8
0
100
AcDbLine
 10
-14.0
 20
174.5000000000002
 30
0.0
 11
-14.0
 21
130.0
 31
0.0
  0
LINE
  5
72AD
330
725D
100
AcDbEntity
  8
0
100
AcDbLine
 10
17.99999999999988
 20
-31.0
 30
0.0
 11
-18.0
 21
-31.0
 31
0.0
  0
LINE
  5
72AE
330
725D
100
AcDbEntity
  8
0
100
AcDbLine
 10
17.0
 20
17.0337027253521
 30
0.0
 11
-17.0
 21
17.0337027253521
 31
0.0
  0
LINE
  5
72AF
330
725D
100
AcDbEntity
  8
0
100
AcDbLine
 10
17.0
 20
28.03853193396571
 30
0.0
 11
-17.00000000000011
 21
28.03853193396571
 31
0.0
  0
LINE
  5
72B0
330
725D
100
AcDbEntity
  8
0
100
AcDbLine
 10
17.0
 20
39.33264411704204
 30
0.0
 11
-17.00000000000011
 21
39.33264411704204
 31
0.0
  0
LINE
  5
72B1
330
725D
100
AcDbEntity
  8
0
100
AcDbLine
 10
-18.0
 20
-31.0
 30
0.0
 11
-18.00000000000011
 21
31.00000000000011
 31
0.0
  0
LINE
  5
72B2
330
725D
100
AcDbEntity
  8
0
100
AcDbLine
 10
-58.0
 20
40.00000000000009
 30
0.0
 11
-58.0
 21
-40.0
 31
0.0
  0
ARC
  5
72B3
330
725D
100
AcDbEntity
  8
0
100
AcDbCircle
 10
-53.0
 20
40.00000000000009
 30
0.0
 40
5.0
100
AcDbArc
 50
90.0
 51
180.0
  0
LINE
  5
72B4
330
725D
100
AcDbEntity
  8
0
100
AcDbLine
 10
-17.00000000000011
 20
17.0337027253521
 30
0.0
 11
-17.00000000000011
 21
39.33264411704204
 31
0.0
  0
LINE
  5
72B5
330
725D
100
AcDbEntity
  8
0
100
AcDbLine
 10
-17.00000000000011
 20
31.00000000000011
 30
0.0
 11
-18.00000000000011
 21
31.00000000000011
 31
0.0
  0
LINE
  5
72B6
330
725D
100
AcDbEntity
  8
0
100
AcDbLine
 10
17.99999999999988
 20
-31.0
 30
0.0
 11
18.0
 21
31.00000000000011
 31
0.0
  0
CIRCLE
  5
72B7
330
725D
100
AcDbEntity
  8
0
100
AcDbCircle
 10
40.94999999999993
 20
5.0
 30
0.0
 40
5.5
  0
CIRCLE
  5
72B8
330
725D
100
AcDbEntity
  8
0
100
AcDbCircle
 10
40.94999999999993
 20
5.0
 30
0.0
 40
3.5
  0
LINE
  5
72B9
330
725D
100
AcDbEntity
  8
0
100
AcDbLine
 10
19.0
 20
-40.45000000000015
 30
0.0
 11
24.29999999999994
 21
-40.45000000000015
 31
0.0
  0
LINE
  5
72BA
330
725D
100
AcDbEntity
  8
0
100
AcDbLine
 10
19.0
 20
-33.85000000000013
 30
0.0
 11
24.29999999999994
 21
-33.85000000000013
 31
0.0
  0
LINE
  5
72BB
330
725D
100
AcDbEntity
  8
0
100
AcDbLine
 10
19.0
 20
-33.85000000000013
 30
0.0
 11
19.0
 21
-40.45000000000015
 31
0.0
  0
LINE
  5
72BC
330
725D
100
AcDbEntity
  8
0
100
AcDbLine
 10
36.94999999999993
 20
-28.5
 30
0.0
 11
44.94999999999993
 21
-28.5
 31
0.0
  0
LINE
  5
72BD
330
725D
100
AcDbEntity
  8
0
100
AcDbLine
 10
36.94999999999993
 20
-23.5
 30
0.0
 11
44.94999999999993
 21
-23.5
 31
0.0
  0
LINE
  5
72BE
330
725D
100
AcDbEntity
  8
0
100
AcDbLine
 10
36.94999999999993
 20
-25.5
 30
0.0
 11
44.94999999999993
 21
-25.5
 31
0.0
  0
LINE
  5
72BF
330
725D
100
AcDbEntity
  8
0
100
AcDbLine
 10
36.94999999999993
 20
-20.5
 30
0.0
 11
44.94999999999993
 21
-20.5
 31
0.0
  0
LINE
  5
72C0
330
725D
100
AcDbEntity
  8
0
100
AcDbLine
 10
36.94999999999993
 20
-25.5
 30
0.0
 11
36.94999999999993
 21
-28.5
 31
0.0
  0
LINE
  5
72C1
330
725D
100
AcDbEntity
  8
0
100
AcDbLine
 10
36.94999999999993
 20
-20.5
 30
0.0
 11
36.94999999999993
 21
-23.5
 31
0.0
  0
LINE
  5
72C2
330
725D
100
AcDbEntity
  8
0
100
AcDbLine
 10
24.29999999999994
 20
-33.85000000000013
 30
0.0
 11
24.29999999999994
 21
-40.45000000000015
 31
0.0
  0
LINE
  5
72C3
330
725D
100
AcDbEntity
  8
0
100
AcDbLine
 10
44.94999999999993
 20
-25.5
 30
0.0
 11
44.94999999999993
 21
-28.5
 31
0.0
  0
LINE
  5
72C4
330
725D
100
AcDbEntity
  8
0
100
AcDbLine
 10
44.94999999999993
 20
-20.5
 30
0.0
 11
44.94999999999993
 21
-23.5
 31
0.0
  0
CIRCLE
  5
72C5
330
725D
100
AcDbEntity
  8
0
100
AcDbCircle
 10
40.94999999999993
 20
-10.0
 30
0.0
 40
3.5
  0
LINE
  5
72C6
330
725D
100
AcDbEntity
  8
0
100
AcDbLine
 10
17.0
 20
17.0337027253521
 30
0.0
 11
17.0
 21
39.33264411704204
 31
0.0
  0
LINE
  5
72C7
330
725D
100
AcDbEntity
  8
0
100
AcDbLine
 10
18.0
 20
31.00000000000011
 30
0.0
 11
17.0
 21
31.00000000000011
 31
0.0
  0
LINE
  5
72C8
330
725D
100
AcDbEntity
  8
0
100
AcDbLine
 10
-9.0
 20
114.0000000000001
 30
0.0
 11
9.0
 21
114.0000000000001
 31
0.0
  0
LINE
  5
72C9
330
725D
100
AcDbEntity
  8
0
100
AcDbLine
 10
-50.5
 20
114.0000000000001
 30
0.0
 11
-50.5
 21
130.0
 31
0.0
  0
LINE
  5
72CA
330
725D
100
AcDbEntity
  8
0
100
AcDbLine
 10
-39.5
 20
114.0000000000001
 30
0.0
 11
-39.5
 21
130.0
 31
0.0
  0
LINE
  5
72CB
330
725D
100
AcDbEntity
  8
0
100
AcDbLine
 10
-45.0
 20
105.0
 30
0.0
 11
-45.0
 21
123.0000000000001
 31
0.0
  0
ARC
  5
72CC
330
725D
100
AcDbEntity
  8
0
100
AcDbCircle
 10
-45.0
 20
114.0000000000001
 30
0.0
 40
5.5
100
AcDbArc
 50
180.0
 51
0.0
  0
LINE
  5
72CD
330
725D
100
AcDbEntity
  8
0
100
AcDbLine
 10
-54.0
 20
114.0000000000001
 30
0.0
 11
-36.0
 21
114.0000000000001
 31
0.0
  0
LINE
  5
72CE
330
725D
100
AcDbEntity
  8
0
100
AcDbLine
 10
-41.0
 20
111.6905989232412
 30
0.0
 11
-41.0
 21
116.3094010767582
 31
0.0
  0
LINE
  5
72CF
330
725D
100
AcDbEntity
  8
0
100
AcDbLine
 10
-45.0000000000001
 20
109.3811978464827
 30
0.0
 11
-41.0
 21
111.6905989232412
 31
0.0
  0
LINE
  5
72D0
330
725D
100
AcDbEntity
  8
0
100
AcDbLine
 10
-49.0
 20
111.6905989232412
 30
0.0
 11
-45.0000000000001
 21
109.3811978464827
 31
0.0
  0
LINE
  5
72D1
330
725D
100
AcDbEntity
  8
0
100
AcDbLine
 10
-49.0
 20
116.3094010767582
 30
0.0
 11
-49.0
 21
111.6905989232412
 31
0.0
  0
LINE
  5
72D2
330
725D
100
AcDbEntity
  8
0
100
AcDbLine
 10
-45.0
 20
118.6188021535167
 30
0.0
 11
-49.0
 21
116.3094010767582
 31
0.0
  0
LINE
  5
72D3
330
725D
100
AcDbEntity
  8
0
100
AcDbLine
 10
-41.0
 20
116.3094010767582
 30
0.0
 11
-45.0
 21
118.6188021535167
 31
0.0
  0
ARC
  5
72D4
330
725D
100
AcDbEntity
  8
0
100
AcDbCircle
 10
-45.0
 20
114.0000000000001
 30
0.0
 40
8.0
100
AcDbArc
 50
46.5674634422112
 51
133.4325365577887
  0
CIRCLE
  5
72D5
330
725D
100
AcDbEntity
  8
0
100
AcDbCircle
 10
22.50000000000011
 20
107.0
 30
0.0
 40
4.0
210
0.0
220
0.0
230
-1.0
  0
LINE
  5
72D6
330
725D
100
AcDbEntity
  8
0
100
AcDbLine
 10
-14.5
 20
107.0
 30
0.0
 11
-30.5
 21
107.0
 31
0.0
  0
LINE
  5
72D7
330
725D
100
AcDbEntity
  8
0
100
AcDbLine
 10
-22.5
 20
115.0000000000001
 30
0.0
 11
-22.5
 21
99.00000000000012
 31
0.0
  0
LINE
  5
72D8
330
725D
100
AcDbEntity
  8
0
100
AcDbLine
 10
30.5
 20
107.0
 30
0.0
 11
14.5
 21
107.0
 31
0.0
  0
CIRCLE
  5
72D9
330
725D
100
AcDbEntity
  8
0
100
AcDbCircle
 10
-22.49999999999988
 20
107.0
 30
0.0
 40
4.0
210
0.0
220
0.0
230
-1.0
  0
LINE
  5
72DA
330
725D
100
AcDbEntity
  8
0
100
AcDbLine
 10
-5.5
 20
114.0000000000001
 30
0.0
 11
-5.5
 21
130.0
 31
0.0
  0
LINE
  5
72DB
330
725D
100
AcDbEntity
  8
0
100
AcDbLine
 10
5.5
 20
114.0000000000001
 30
0.0
 11
5.5
 21
130.0
 31
0.0
  0
LINE
  5
72DC
330
725D
100
AcDbEntity
  8
0
100
AcDbLine
 10
0.0
 20
105.0
 30
0.0
 11
0.0
 21
123.0000000000001
 31
0.0
  0
ARC
  5
72DD
330
725D
100
AcDbEntity
  8
0
100
AcDbCircle
 10
0.0
 20
114.0000000000001
 30
0.0
 40
5.5
100
AcDbArc
 50
180.0
 51
0.0
  0
LINE
  5
72DE
330
725D
100
AcDbEntity
  8
0
100
AcDbLine
 10
4.0
 20
111.6905989232412
 30
0.0
 11
4.0
 21
116.3094010767582
 31
0.0
  0
LINE
  5
72DF
330
725D
100
AcDbEntity
  8
0
100
AcDbLine
 10
-0.0000000000001137
 20
109.3811978464827
 30
0.0
 11
4.0
 21
111.6905989232412
 31
0.0
  0
LINE
  5
72E0
330
725D
100
AcDbEntity
  8
0
100
AcDbLine
 10
-4.0
 20
111.6905989232412
 30
0.0
 11
-0.0000000000001137
 21
109.3811978464827
 31
0.0
  0
LINE
  5
72E1
330
725D
100
AcDbEntity
  8
0
100
AcDbLine
 10
-4.0
 20
116.3094010767582
 30
0.0
 11
-4.0
 21
111.6905989232412
 31
0.0
  0
LINE
  5
72E2
330
725D
100
AcDbEntity
  8
0
100
AcDbLine
 10
0.0
 20
118.6188021535167
 30
0.0
 11
-4.0
 21
116.3094010767582
 31
0.0
  0
LINE
  5
72E3
330
725D
100
AcDbEntity
  8
0
100
AcDbLine
 10
4.0
 20
116.3094010767582
 30
0.0
 11
0.0
 21
118.6188021535167
 31
0.0
  0
LINE
  5
72E4
330
725D
100
AcDbEntity
  8
0
100
AcDbLine
 10
22.5
 20
115.0000000000001
 30
0.0
 11
22.5
 21
99.00000000000012
 31
0.0
  0
ARC
  5
72E5
330
725D
100
AcDbEntity
  8
0
100
AcDbCircle
 10
0.0
 20
114.0000000000001
 30
0.0
 40
8.0
100
AcDbArc
 50
46.5674634422112
 51
133.4325365577887
  0
LINE
  5
72E6
330
725D
100
AcDbEntity
  8
0
100
AcDbLine
 10
39.5
 20
114.0000000000001
 30
0.0
 11
39.5
 21
130.0
 31
0.0
  0
LINE
  5
72E7
330
725D
100
AcDbEntity
  8
0
100
AcDbLine
 10
50.5
 20
114.0000000000001
 30
0.0
 11
50.5
 21
130.0
 31
0.0
  0
LINE
  5
72E8
330
725D
100
AcDbEntity
  8
0
100
AcDbLine
 10
45.0
 20
105.0
 30
0.0
 11
45.0
 21
123.0000000000001
 31
0.0
  0
ARC
  5
72E9
330
725D
100
AcDbEntity
  8
0
100
AcDbCircle
 10
45.0
 20
114.0000000000001
 30
0.0
 40
5.5
100
AcDbArc
 50
180.0
 51
0.0
  0
LINE
  5
72EA
330
725D
100
AcDbEntity
  8
0
100
AcDbLine
 10
49.0
 20
111.6905989232412
 30
0.0
 11
49.0
 21
116.3094010767582
 31
0.0
  0
LINE
  5
72EB
330
725D
100
AcDbEntity
  8
0
100
AcDbLine
 10
44.99999999999988
 20
109.3811978464827
 30
0.0
 11
49.0
 21
111.6905989232412
 31
0.0
  0
LINE
  5
72EC
330
725D
100
AcDbEntity
  8
0
100
AcDbLine
 10
41.0
 20
111.6905989232412
 30
0.0
 11
44.99999999999988
 21
109.3811978464827
 31
0.0
  0
LINE
  5
72ED
330
725D
100
AcDbEntity
  8
0
100
AcDbLine
 10
41.0
 20
116.3094010767582
 30
0.0
 11
41.0
 21
111.6905989232412
 31
0.0
  0
LINE
  5
72EE
330
725D
100
AcDbEntity
  8
0
100
AcDbLine
 10
45.0
 20
118.6188021535167
 30
0.0
 11
41.0
 21
116.3094010767582
 31
0.0
  0
LINE
  5
72EF
330
725D
100
AcDbEntity
  8
0
100
AcDbLine
 10
49.0
 20
116.3094010767582
 30
0.0
 11
45.0
 21
118.6188021535167
 31
0.0
  0
ARC
  5
72F0
330
725D
100
AcDbEntity
  8
0
100
AcDbCircle
 10
45.0
 20
114.0000000000001
 30
0.0
 40
8.0
100
AcDbArc
 50
46.5674634422112
 51
133.4325365577887
  0
LINE
  5
72F1
330
725D
100
AcDbEntity
  8
0
100
AcDbLine
 10
-74.00000000000004
 20
174.5000000000002
 30
0.0
 11
-46.0
 21
174.5000000000002
 31
0.0
  0
LINE
  5
72F2
330
725D
100
AcDbEntity
  8
0
100
AcDbLine
 10
-71.00000000000004
 20
160.0000000000002
 30
0.0
 11
-49.0
 21
160.0000000000002
 31
0.0
  0
CIRCLE
  5
72F3
330
725D
100
AcDbEntity
  8
0
100
AcDbCircle
 10
-60.0
 20
160.0000000000002
 30
0.0
 40
7.0
  0
LINE
  5
72F4
330
725D
100
AcDbEntity
  8
0
100
AcDbLine
 10
-74.00000000000004
 20
174.5000000000002
 30
0.0
 11
-74.00000000000004
 21
150.0
 31
0.0
  0
LINE
  5
72F5
330
725D
100
AcDbEntity
  8
0
100
AcDbLine
 10
-11.0
 20
160.0000000000002
 30
0.0
 11
11.0
 21
160.0000000000002
 31
0.0
  0
LINE
  5
72F6
330
725D
100
AcDbEntity
  8
0
100
AcDbLine
 10
-14.0
 20
174.5000000000002
 30
0.0
 11
14.0
 21
174.5000000000002
 31
0.0
  0
CIRCLE
  5
72F7
330
725D
100
AcDbEntity
  8
0
100
AcDbCircle
 10
0.0
 20
160.0000000000002
 30
0.0
 40
7.0
  0
LINE
  5
72F8
330
725D
100
AcDbEntity
  8
0
100
AcDbLine
 10
-60.0
 20
171.0
 30
0.0
 11
-60.0
 21
149.0
 31
0.0
  0
LINE
  5
72F9
330
725D
100
AcDbEntity
  8
0
100
AcDbLine
 10
-46.0
 20
174.5000000000002
 30
0.0
 11
-46.0
 21
150.0
 31
0.0
  0
LINE
  5
72FA
330
725D
100
AcDbEntity
  8
0
100
AcDbLine
 10
46.0
 20
174.5000000000002
 30
0.0
 11
46.0
 21
150.0
 31
0.0
  0
ARC
  5
72FB
330
725D
100
AcDbEntity
  8
0
100
AcDbCircle
 10
53.0
 20
-40.0
 30
0.0
 40
5.0
100
AcDbArc
 50
270.0
 51
0.0
  0
LINE
  5
72FC
330
725D
100
AcDbEntity
  8
0
100
AcDbLine
 10
70.0
 20
130.0
 30
0.0
 11
70.0
 21
-130.0
 31
0.0
  0
LINE
  5
72FD
330
725D
100
AcDbEntity
  8
0
100
AcDbLine
 10
101.2499999999999
 20
-220.0727983283795
 30
0.0
 11
101.2499999999999
 21
-245.0
 31
0.0
  0
LINE
  5
72FE
330
725D
100
AcDbEntity
  8
0
100
AcDbLine
 10
99.25
 20
-218.6397501985154
 30
0.0
 11
99.25
 21
-245.0
 31
0.0
  0
LINE
  5
72FF
330
725D
100
AcDbEntity
  8
0
100
AcDbLine
 10
98.54999999999996
 20
-245.0
 30
0.0
 11
98.54999999999996
 21
-249.946911919693
 31
0.0
  0
LINE
  5
7300
330
725D
100
AcDbEntity
  8
0
100
AcDbLine
 10
101.9499999999996
 20
-245.0
 30
0.0
 11
101.9499999999996
 21
-249.946911919693
 31
0.0
  0
LINE
  5
7301
330
725D
100
AcDbEntity
  8
0
100
AcDbLine
 10
98.20195134105155
 20
-251.578859039728
 30
0.0
 11
96.59804865894841
 21
-255.1680528799646
 31
0.0
  0
ARC
  5
7302
330
725D
100
AcDbEntity
  8
0
100
AcDbCircle
 10
100.2499999999999
 20
-256.8
 30
0.0
 40
4.0
100
AcDbArc
 50
155.9215699388889
 51
24.07843006111111
  0
LINE
  5
7303
330
725D
100
AcDbEntity
  8
0
100
AcDbLine
 10
98.54999999999996
 20
-249.8
 30
0.0
 11
101.9499999999996
 21
-249.8
 31
0.0
  0
LINE
  5
7304
330
725D
100
AcDbEntity
  8
0
100
AcDbLine
 10
102.2980486589484
 20
-251.578859039728
 30
0.0
 11
103.9019513410514
 21
-255.1680528799646
 31
0.0
  0
ARC
  5
7305
330
725D
100
AcDbEntity
  8
0
100
AcDbCircle
 10
94.54999999999996
 20
-249.946911919693
 30
0.0
 40
4.0
100
AcDbArc
 50
335.9215699388887
 51
0.0
  0
CIRCLE
  5
7306
330
725D
100
AcDbEntity
  8
0
100
AcDbCircle
 10
100.2499999999999
 20
-256.8
 30
0.0
 40
2.149999999999999
  0
ARC
  5
7307
330
725D
100
AcDbEntity
  8
0
100
AcDbCircle
 10
105.9499999999996
 20
-249.946911919693
 30
0.0
 40
4.0
100
AcDbArc
 50
180.0
 51
204.0784300611111
  0
LINE
  5
7308
330
725D
100
AcDbEntity
  8
0
100
AcDbLine
 10
98.54999999999996
 20
-245.0
 30
0.0
 11
101.9499999999996
 21
-245.0
 31
0.0
  0
LINE
  5
7309
330
725D
100
AcDbEntity
  8
0
100
AcDbLine
 10
59.25
 20
-130.0
 30
0.0
 11
59.25
 21
-175.0
 31
0.0
  0
LINE
  5
730A
330
725D
100
AcDbEntity
  8
0
100
AcDbLine
 10
61.25
 20
-130.0
 30
0.0
 11
61.25
 21
-175.0
 31
0.0
  0
LINE
  5
730B
330
725D
100
AcDbEntity
  8
0
100
AcDbLine
 10
74.0
 20
-150.0000000000003
 30
0.0
 11
59.0
 21
-130.0000000000003
 31
0.0
  0
ARC
  5
730C
330
725D
100
AcDbEntity
  8
0
100
AcDbCircle
 10
71.25
 20
-175.0
 30
0.0
 40
10.0
100
AcDbArc
 50
180.0
 51
270.0
  0
ARC
  5
730D
330
725D
100
AcDbEntity
  8
0
100
AcDbCircle
 10
71.25
 20
-175.0
 30
0.0
 40
12.0
100
AcDbArc
 50
180.0
 51
270.0
  0
LINE
  5
730E
330
725D
100
AcDbEntity
  8
0
100
AcDbLine
 10
71.25
 20
-185.0
 30
0.0
 11
89.25
 21
-185.0
 31
0.0
  0
LINE
  5
730F
330
725D
100
AcDbEntity
  8
0
100
AcDbLine
 10
71.25
 20
-187.0
 30
0.0
 11
89.25
 21
-187.0
 31
0.0
  0
LINE
  5
7310
330
725D
100
AcDbEntity
  8
0
100
AcDbLine
 10
101.2499999999999
 20
-197.0
 30
0.0
 11
101.2499999999999
 21
-218.0727983283795
 31
0.0
  0
LINE
  5
7311
330
725D
100
AcDbEntity
  8
0
100
AcDbLine
 10
99.25
 20
-197.0
 30
0.0
 11
99.25
 21
-216.6397501985156
 31
0.0
  0
SPLINE
  5
7312
330
725D
100
AcDbEntity
  8
0
100
AcDbSpline
210
0.0
220
0.0
230
1.0
 70
     8
 71
     3
 72
     8
 73
     4
 74
     0
 42
0.0000000001
 43
0.0000000001
 40
0.0
 40
0.0
 40
0.0
 40
0.0
 40
1.0
 40
1.0
 40
1.0
 40
1.0
 10
96.25
 20
-219.0
 30
0.0
 10
98.25000000000001
 20
-215.0
 30
0.0
 10
102.2499999999999
 20
-224.0
 30
0.0
 10
104.2499999999999
 20
-219.0
 30
0.0
  0
SPLINE
  5
7313
330
725D
100
AcDbEntity
  8
0
100
AcDbSpline
210
0.0
220
0.0
230
1.0
 70
     8
 71
     3
 72
     8
 73
     4
 74
     0
 42
0.0000000001
 43
0.0000000001
 40
0.0
 40
0.0
 40
0.0
 40
0.0
 40
1.0
 40
1.0
 40
1.0
 40
1.0
 10
96.25
 20
-217.0
 30
0.0
 10
98.25000000000001
 20
-213.0
 30
0.0
 10
102.2499999999999
 20
-222.0
 30
0.0
 10
104.2499999999999
 20
-217.0
 30
0.0
  0
ARC
  5
7314
330
725D
100
AcDbEntity
  8
0
100
AcDbCircle
 10
89.25
 20
-197.0
 30
0.0
 40
12.0
100
AcDbArc
 50
0.0
 51
90.0
  0
ARC
  5
7315
330
725D
100
AcDbEntity
  8
0
100
AcDbCircle
 10
89.25
 20
-197.0
 30
0.0
 40
10.0
100
AcDbArc
 50
0.0
 51
90.0
  0
LINE
  5
7316
330
725D
100
AcDbEntity
  8
0
100
AcDbLine
 10
60.0
 20
-149.0
 30
0.0
 11
60.0
 21
-171.0
 31
0.0
  0
LINE
  5
7317
330
725D
100
AcDbEntity
  8
0
100
AcDbLine
 10
74.0
 20
-174.5
 30
0.0
 11
74.0
 21
-150.0000000000003
 31
0.0
  0
CIRCLE
  5
7318
330
725D
100
AcDbEntity
  8
0
100
AcDbCircle
 10
-60.0
 20
-160.0
 30
0.0
 40
7.0
210
0.0
220
0.0
230
-1.0
  0
LINE
  5
7319
330
725D
100
AcDbEntity
  8
0
100
AcDbLine
 10
74.0
 20
150.0
 30
0.0
 11
59.0
 21
130.0
 31
0.0
  0
LINE
  5
731A
330
725D
100
AcDbEntity
  8
0
100
AcDbLine
 10
58.0
 20
40.00000000000009
 30
0.0
 11
58.0
 21
-40.0
 31
0.0
  0
ARC
  5
731B
330
725D
100
AcDbEntity
  8
0
100
AcDbCircle
 10
53.0
 20
40.00000000000009
 30
0.0
 40
5.0
100
AcDbArc
 50
0.0
 51
90.0
  0
LINE
  5
731C
330
725D
100
AcDbEntity
  8
0
100
AcDbLine
 10
60.0
 20
171.0
 30
0.0
 11
60.0
 21
149.0
 31
0.0
  0
LINE
  5
731D
330
725D
100
AcDbEntity
  8
0
100
AcDbLine
 10
74.0
 20
174.5000000000002
 30
0.0
 11
74.0
 21
150.0
 31
0.0
  0
CIRCLE
  5
731E
330
725D
100
AcDbEntity
  8
0
100
AcDbCircle
 10
60.0
 20
160.0000000000002
 30
0.0
 40
7.0
  0
ENDBLK
  5
7320
330
725D
100
AcDbEntity
  8
0
100
AcDbBlockEnd
  0
BLOCK
  5
81E9
330
81E7
100
AcDbEntity
  8
TOP
  6
CONTINUOUS
 62
     4
100
AcDbBlockBegin
  2
*U4
 70
     1
 10
0.0
 20
0.0
 30
0.0
  3
*U4
  1

  0
TEXT
  5
81E8
330
81E7
100
AcDbEntity
  8
TOP
  6
BYBLOCK
 62
     0
100
AcDbText
 10
286.5
 20
136.5988377856377
 30
0.0
 40
2.500000003799998
  1
6
 50
90.00000000000005
 41
1.189062499999995
  7
UGMTXT
100
AcDbText
  0
ENDBLK
  5
81EA
330
81E7
100
AcDbEntity
  8
0
100
AcDbBlockEnd
  0
BLOCK
  5
81F2
330
81EB
100
AcDbEntity
  8
TOP
  6
CONTINUOUS
 62
     4
100
AcDbBlockBegin
  2
*U5
 70
     1
 10
0.0
 20
0.0
 30
0.0
  3
*U5
  1

  0
LINE
  5
81EC
330
81EB
100
AcDbEntity
  8
1
  6
BYBLOCK
 62
     0
100
AcDbLine
 10
288.8511961722489
 20
79.86472320362056
 30
0.0
 11
298.7500000084996
 21
79.86472320362056
 31
0.0
  0
LINE
  5
81ED
330
81EB
100
AcDbEntity
  8
1
  6
BYBLOCK
 62
     0
100
AcDbLine
 10
288.6511961722486
 20
137.4647232036204
 30
0.0
 11
298.7500000084996
 21
137.4647232036204
 31
0.0
  0
LINE
  5
81EE
330
81EB
100
AcDbEntity
  8
1
  6
BYBLOCK
 62
     0
100
AcDbLine
 10
297.7500000018998
 20
79.86472320362056
 30
0.0
 11
297.7500000018998
 21
137.4647232036204
 31
0.0
  0
SOLID
  5
81EF
330
81EB
100
AcDbEntity
  8
1
  6
BYBLOCK
 62
     0
100
AcDbTrace
 10
297.7500000018998
 20
79.86472320362056
 30
0.0
 11
297.4166666663666
 21
81.86472321682058
 31
0.0
 12
298.0833333374332
 22
81.86472321682058
 32
0.0
 13
298.0833333374332
 23
81.86472321682058
 33
0.0
  0
SOLID
  5
81F0
330
81EB
100
AcDbEntity
  8
1
  6
BYBLOCK
 62
     0
100
AcDbTrace
 10
297.7500000018998
 20
137.4647232036204
 30
0.0
 11
298.0833333374332
 21
135.4647231904205
 31
0.0
 12
297.4166666663666
 22
135.4647231904205
 32
0.0
 13
297.4166666663666
 23
135.4647231904205
 33
0.0
  0
TEXT
  5
81F1
330
81EB
100
AcDbEntity
  8
TOP
  6
BYBLOCK
 62
     0
100
AcDbText
 10
296.4999999999998
 20
105.817066949292
 30
0.0
 40
2.500000003799998
  1
144
 50
89.99999999999404
 41
0.8542968749999968
  7
UGMTXT
100
AcDbText
  0
ENDBLK
  5
81F3
330
81EB
100
AcDbEntity
  8
0
100
AcDbBlockEnd
  0
BLOCK
  5
81F8
330
81F4
100
AcDbEntity
  8
TOP
  6
CONTINUOUS
 62
     4
100
AcDbBlockBegin
  2
*U6
 70
     1
 10
0.0
 20
0.0
 30
0.0
  3
*U6
  1

  0
LINE
  5
81F5
330
81F4
100
AcDbEntity
  8
1
  6
BYBLOCK
 62
     0
100
AcDbLine
 10
277.8511961722488
 20
79.86472320362056
 30
0.0
 11
283.0330054314933
 21
79.86472320362056
 31
0.0
  0
LINE
  5
81F6
330
81F4
100
AcDbEntity
  8
1
  6
BYBLOCK
 62
     0
100
AcDbLine
 10
275.6511961722486
 20
137.4647232036204
 30
0.0
 11
283.0330054314933
 21
137.4647232036204
 31
0.0
  0
TEXT
  5
81F7
330
81F4
100
AcDbEntity
  8
TOP
  6
BYBLOCK
 62
     0
100
AcDbText
 10
280.7830054229933
 20
107.7988377856377
 30
0.0
 40
2.500000003799998
  1
 
 50
89.99999999999404
 41
1.189062499999995
  7
UGMTXT
100
AcDbText
  0
ENDBLK
  5
81F9
330
81F4
100
AcDbEntity
  8
0
100
AcDbBlockEnd
  0
BLOCK
  5
8201
330
81FA
100
AcDbEntity
  8
TOP
  6
CONTINUOUS
 62
     4
100
AcDbBlockBegin
  2
*U7
 70
     1
 10
0.0
 20
0.0
 30
0.0
  3
*U7
  1

  0
LINE
  5
81FB
330
81FA
100
AcDbEntity
  8
1
  6
BYBLOCK
 62
     0
100
AcDbLine
 10
244.8511961722486
 20
82.86472321022058
 30
0.0
 11
244.8511961722486
 21
94.7500000047
 31
0.0
  0
LINE
  5
81FC
330
81FA
100
AcDbEntity
  8
1
  6
BYBLOCK
 62
     0
100
AcDbLine
 10
253.6511961722488
 20
80.86472321022059
 30
0.0
 11
253.6511961722488
 21
94.7500000047
 31
0.0
  0
LINE
  5
81FD
330
81FA
100
AcDbEntity
  8
1
  6
BYBLOCK
 62
     0
100
AcDbLine
 10
244.8511961722486
 20
93.74999999809999
 30
0.0
 11
253.6511961722488
 21
93.74999999809999
 31
0.0
  0
SOLID
  5
81FE
330
81FA
100
AcDbEntity
  8
1
  6
BYBLOCK
 62
     0
100
AcDbTrace
 10
244.8511961722486
 20
93.74999999809999
 30
0.0
 11
246.8511961854487
 21
94.08333333363335
 31
0.0
 12
246.8511961854487
 22
93.41666666256669
 32
0.0
 13
246.8511961854487
 23
93.41666666256669
 33
0.0
  0
SOLID
  5
81FF
330
81FA
100
AcDbEntity
  8
1
  6
BYBLOCK
 62
     0
100
AcDbTrace
 10
253.6511961722488
 20
93.74999999809999
 30
0.0
 11
251.6511961590488
 21
93.41666666256669
 31
0.0
 12
251.6511961590488
 22
94.08333333363335
 32
0.0
 13
251.6511961590488
 23
94.08333333363335
 33
0.0
  0
TEXT
  5
8200
330
81FA
100
AcDbEntity
  8
TOP
  6
BYBLOCK
 62
     0
100
AcDbText
 10
247.3944253360929
 20
95.0
 30
0.0
 40
2.500000003799998
  1
22
 41
0.8912499999999965
  7
UGMTXT
100
AcDbText
  0
ENDBLK
  5
8202
330
81FA
100
AcDbEntity
  8
0
100
AcDbBlockEnd
  0
BLOCK
  5
8206
330
8203
100
AcDbEntity
  8
TOP
  6
CONTINUOUS
 62
     4
100
AcDbBlockBegin
  2
*U8
 70
     1
 10
0.0
 20
0.0
 30
0.0
  3
*U8
  1

  0
TEXT
  5
8204
330
8203
100
AcDbEntity
  8
TOP
  6
BYBLOCK
 62
     0
100
AcDbText
 10
242.2747888281548
 20
66.49794109708203
 30
0.0
 40
2.500000003799998
  1
9
 41
1.189062499999995
  7
UGMTXT
100
AcDbText
  0
TEXT
  5
8205
330
8203
100
AcDbEntity
  8
TOP
  6
BYBLOCK
 62
     0
100
AcDbText
 10
238.5815829186545
 20
65.24794109518203
 30
0.0
 40
2.500000003799998
  1
%%c
 41
1.519902056402508
  7
UGMTXT
100
AcDbText
  0
ENDBLK
  5
8207
330
8203
100
AcDbEntity
  8
0
100
AcDbBlockEnd
  0
BLOCK
  5
820E
330
8208
100
AcDbEntity
  8
TOP
  6
CONTINUOUS
 62
     4
100
AcDbBlockBegin
  2
*U9
 70
     1
 10
0.0
 20
0.0
 30
0.0
  3
*U9
  1

  0
LINE
  5
8209
330
8208
100
AcDbEntity
  8
1
  6
BYBLOCK
 62
     0
100
AcDbLine
 10
244.5229385704191
 20
65.56346219772153
 30
0.0
 11
237.5229385704189
 21
65.56346219772153
 31
0.0
  0
LINE
  5
820A
330
8208
100
AcDbEntity
  8
1
  6
BYBLOCK
 62
     0
100
AcDbLine
 10
252.6827479511676
 20
78.34745327276291
 30
0.0
 11
244.5229385704191
 21
65.56346219772153
 31
0.0
  0
SOLID
  5
820B
330
8208
100
AcDbEntity
  8
1
  6
BYBLOCK
 62
     0
100
AcDbTrace
 10
252.6827479511676
 20
78.34745327276291
 30
0.0
 11
251.887670280063
 21
76.48225551855867
 31
0.0
 12
251.3257184501105
 22
76.84094004725229
 32
0.0
 13
251.3257184501105
 23
76.84094004725229
 33
0.0
  0
TEXT
  5
820C
330
8208
100
AcDbEntity
  8
TOP
  6
BYBLOCK
 62
     0
100
AcDbText
 10
235.7911677344535
 20
64.31346219582156
 30
0.0
 40
2.500000003799998
  1
 
 41
1.189062499999995
  7
UGMTXT
100
AcDbText
  0
TEXT
  5
820D
330
8208
100
AcDbEntity
  8
TOP
  6
BYBLOCK
 62
     0
100
AcDbText
 10
234.0593968984879
 20
64.31346219582156
 30
0.0
 40
2.500000003799998
  1
 
 41
1.189062499999995
  7
UGMTXT
100
AcDbText
  0
ENDBLK
  5
820F
330
8208
100
AcDbEntity
  8
0
100
AcDbBlockEnd
  0
BLOCK
  5
8215
330
8210
100
AcDbEntity
  8
TOP
  6
CONTINUOUS
 62
     3
100
AcDbBlockBegin
  2
*U10
 70
     1
 10
0.0
 20
0.0
 30
0.0
  3
*U10
  1

  0
LINE
  5
8211
330
8210
100
AcDbEntity
  8
1
  6
BYBLOCK
 62
     0
100
AcDbLine
 10
269.7924859750975
 20
155.7087578669337
 30
0.0
 11
239.7924859750975
 21
155.7087578669337
 31
0.0
  0
LINE
  5
8212
330
8210
100
AcDbEntity
  8
1
  6
BYBLOCK
 62
     0
100
AcDbLine
 10
232.5311961722487
 20
145.5647232036205
 30
0.0
 11
239.7924859750975
 21
155.7087578669337
 31
0.0
  0
SOLID
  5
8213
330
8210
100
AcDbEntity
  8
1
  6
BYBLOCK
 62
     0
100
AcDbTrace
 10
232.5311961722487
 20
145.5647232036205
 30
0.0
 11
233.4242749741016
 21
147.3850312597085
 31
0.0
 12
233.9663706246246
 22
146.9969890506703
 32
0.0
 13
233.9663706246246
 23
146.9969890506703
 33
0.0
  0
TEXT
  5
8214
330
8210
100
AcDbEntity
  8
TOP
  6
BYBLOCK
 62
     0
100
AcDbText
 10
269.7924859750975
 20
154.2087578570335
 30
0.0
 40
3.000000019799997
  1
 
 41
1.189062499999995
  7
UGMTXT
100
AcDbText
  0
ENDBLK
  5
8216
330
8210
100
AcDbEntity
  8
0
100
AcDbBlockEnd
  0
BLOCK
  5
821C
330
8217
100
AcDbEntity
  8
TOP
  6
CONTINUOUS
 62
     4
100
AcDbBlockBegin
  2
*U11
 70
     1
 10
0.0
 20
0.0
 30
0.0
  3
*U11
  1

  0
LINE
  5
8218
330
8217
100
AcDbEntity
  8
1
  6
BYBLOCK
 62
     0
100
AcDbLine
 10
306.2784190863161
 20
59.91889685550898
 30
0.0
 11
280.2784190863159
 21
59.91889685550898
 31
0.0
  0
LINE
  5
8219
330
8217
100
AcDbEntity
  8
1
  6
BYBLOCK
 62
     0
100
AcDbLine
 10
270.2555202442598
 20
75.86472320362054
 30
0.0
 11
280.2784190863159
 21
59.91889685550898
 31
0.0
  0
SOLID
  5
821A
330
8217
100
AcDbEntity
  8
1
  6
BYBLOCK
 62
     0
100
AcDbTrace
 10
270.2555202442598
 20
75.86472320362054
 30
0.0
 11
271.6020624429755
 21
74.3488289881638
 31
0.0
 12
271.0376350110049
 22
73.99405282725358
 32
0.0
 13
271.0376350110049
 23
73.99405282725358
 33
0.0
  0
TEXT
  5
821B
330
8217
100
AcDbEntity
  8
TOP
  6
BYBLOCK
 62
     0
100
AcDbText
 10
306.2784190863161
 20
58.66889685550898
 30
0.0
 40
2.5
  1
 
 41
1.054062500000009
  7
UGMTXT
100
AcDbText
  0
ENDBLK
  5
821D
330
8217
100
AcDbEntity
  8
0
100
AcDbBlockEnd
  0
BLOCK
  5
8229
330
821E
100
AcDbEntity
  8
0
100
AcDbBlockBegin
  2
*D12
 70
     1
 10
0.0
 20
0.0
 30
0.0
  3
*D12
  1

  0
LINE
  5
821F
330
821E
100
AcDbEntity
  8
0
 62
     0
100
AcDbLine
 10
194.4511961722488
 20
107.6022231970203
 30
0.0
 11
194.4511961722488
 21
24.30294463882411
 31
0.0
  0
LINE
  5
8220
330
821E
100
AcDbEntity
  8
0
 62
     0
100
AcDbLine
 10
231.2511961722488
 20
75.60222320362058
 30
0.0
 11
231.2511961722488
 21
24.30294463882411
 31
0.0
  0
LINE
  5
8221
330
821E
100
AcDbEntity
  8
0
 62
     0
100
AcDbLine
 10
194.6311961722486
 20
24.48294463882412
 30
0.0
 11
212.2297676008201
 21
24.48294463882412
 31
0.0
  0
LINE
  5
8222
330
821E
100
AcDbEntity
  8
0
 62
     0
100
AcDbLine
 10
231.0711961722486
 20
24.48294463882412
 30
0.0
 11
213.4726247436773
 21
24.48294463882412
 31
0.0
  0
SOLID
  5
8223
330
821E
100
AcDbEntity
  8
0
 62
     0
100
AcDbTrace
 10
194.6311961722486
 20
24.51294463882412
 30
0.0
 11
194.6311961722486
 21
24.45294463882412
 31
0.0
 12
194.4511961722488
 22
24.48294463882412
 32
0.0
 13
194.4511961722488
 23
24.48294463882412
 33
0.0
  0
SOLID
  5
8224
330
821E
100
AcDbEntity
  8
0
 62
     0
100
AcDbTrace
 10
231.0711961722486
 20
24.51294463882412
 30
0.0
 11
231.0711961722486
 21
24.45294463882412
 31
0.0
 12
231.2511961722488
 22
24.48294463882412
 32
0.0
 13
231.2511961722488
 23
24.48294463882412
 33
0.0
  0
MTEXT
  5
8225
330
821E
100
AcDbEntity
  8
0
 62
     0
100
AcDbMText
 10
212.8511961722487
 20
24.48294463882412
 30
0.0
 40
0.18
 41
0.0
 71
     5
 72
     1
  1
\A1;36.8000
1001
ACAD
1000
MTEXTBEGIN
1070
    73
1070
     1
1070
    44
1040
1.0
1070
    74
1070
     0
1000
MTEXTEND
1000
MTEXTBEGIN
1070
    73
1070
     1
1070
    44
1040
1.0
1070
    74
1070
     0
1000
MTEXTEND
1000
MTEXTBEGIN
1070
    73
1070
     1
1070
    44
1040
1.0
1070
    74
1070
     0
1000
MTEXTEND
  0
POINT
  5
8226
330
821E
100
AcDbEntity
  8
DEFPOINTS
 62
     0
100
AcDbPoint
 10
194.4511961722488
 20
107.6647231970204
 30
0.0
  0
POINT
  5
8227
330
821E
100
AcDbEntity
  8
DEFPOINTS
 62
     0
100
AcDbPoint
 10
231.2511961722488
 20
75.66472320362058
 30
0.0
  0
POINT
  5
8228
330
821E
100
AcDbEntity
  8
DEFPOINTS
 62
     0
100
AcDbPoint
 10
231.2511961722488
 20
24.48294463882412
 30
0.0
  0
ENDBLK
  5
822A
330
821E
100
AcDbEntity
  8
0
100
AcDbBlockEnd
  0
BLOCK
  5
8236
330
822B
100
AcDbEntity
  8
0
100
AcDbBlockBegin
  2
*D13
 70
     1
 10
0.0
 20
0.0
 30
0.0
  3
*D13
  1

  0
LINE
  5
822C
330
822B
100
AcDbEntity
  8
0
 62
     0
100
AcDbLine
 10
202.4511961722488
 20
98.60222320362058
 30
0.0
 11
202.4511961722488
 21
34.3029446388241
 31
0.0
  0
LINE
  5
822D
330
822B
100
AcDbEntity
  8
0
 62
     0
100
AcDbLine
 10
231.2511961722488
 20
75.60222320362058
 30
0.0
 11
231.2511961722488
 21
34.30294463882411
 31
0.0
  0
LINE
  5
822E
330
822B
100
AcDbEntity
  8
0
 62
     0
100
AcDbLine
 10
202.6311961722488
 20
34.4829446388241
 30
0.0
 11
216.22976760082
 21
34.4829446388241
 31
0.0
  0
LINE
  5
822F
330
822B
100
AcDbEntity
  8
0
 62
     0
100
AcDbLine
 10
231.0711961722486
 20
34.4829446388241
 30
0.0
 11
217.4726247436774
 21
34.4829446388241
 31
0.0
  0
SOLID
  5
8230
330
822B
100
AcDbEntity
  8
0
 62
     0
100
AcDbTrace
 10
202.6311961722488
 20
34.51294463882411
 30
0.0
 11
202.6311961722488
 21
34.4529446388241
 31
0.0
 12
202.4511961722488
 22
34.4829446388241
 32
0.0
 13
202.4511961722488
 23
34.4829446388241
 33
0.0
  0
SOLID
  5
8231
330
822B
100
AcDbEntity
  8
0
 62
     0
100
AcDbTrace
 10
231.0711961722486
 20
34.51294463882411
 30
0.0
 11
231.0711961722486
 21
34.4529446388241
 31
0.0
 12
231.2511961722488
 22
34.4829446388241
 32
0.0
 13
231.2511961722488
 23
34.4829446388241
 33
0.0
  0
MTEXT
  5
8232
330
822B
100
AcDbEntity
  8
0
 62
     0
100
AcDbMText
 10
216.8511961722486
 20
34.4829446388241
 30
0.0
 40
0.18
 41
0.0
 71
     5
 72
     1
  1
\A1;28.8000
1001
ACAD
1000
MTEXTBEGIN
1070
    73
1070
     1
1070
    44
1040
1.0
1070
    74
1070
     0
1000
MTEXTEND
1000
MTEXTBEGIN
1070
    73
1070
     1
1070
    44
1040
1.0
1070
    74
1070
     0
1000
MTEXTEND
1000
MTEXTBEGIN
1070
    73
1070
     1
1070
    44
1040
1.0
1070
    74
1070
     0
1000
MTEXTEND
  0
POINT
  5
8233
330
822B
100
AcDbEntity
  8
DEFPOINTS
 62
     0
100
AcDbPoint
 10
202.4511961722488
 20
98.66472320362058
 30
0.0
  0
POINT
  5
8234
330
822B
100
AcDbEntity
  8
DEFPOINTS
 62
     0
100
AcDbPoint
 10
231.2511961722488
 20
75.66472320362058
 30
0.0
  0
POINT
  5
8235
330
822B
100
AcDbEntity
  8
DEFPOINTS
 62
     0
100
AcDbPoint
 10
231.2511961722488
 20
34.4829446388241
 30
0.0
  0
ENDBLK
  5
8237
330
822B
100
AcDbEntity
  8
0
100
AcDbBlockEnd
  0
BLOCK
  5
8243
330
8238
100
AcDbEntity
  8
0
100
AcDbBlockBegin
  2
*D14
 70
     1
 10
0.0
 20
0.0
 30
0.0
  3
*D14
  1

  0
LINE
  5
8239
330
8238
100
AcDbEntity
  8
0
 62
     0
100
AcDbLine
 10
206.8511961722486
 20
75.60222320362058
 30
0.0
 11
206.8511961722486
 21
54.30294463882412
 31
0.0
  0
LINE
  5
823A
330
8238
100
AcDbEntity
  8
0
 62
     0
100
AcDbLine
 10
231.2511961722488
 20
75.60222320362058
 30
0.0
 11
231.2511961722488
 21
54.30294463882412
 31
0.0
  0
LINE
  5
823B
330
8238
100
AcDbEntity
  8
0
 62
     0
100
AcDbLine
 10
207.0311961722488
 20
54.48294463882412
 30
0.0
 11
218.42976760082
 21
54.48294463882412
 31
0.0
  0
LINE
  5
823C
330
8238
100
AcDbEntity
  8
0
 62
     0
100
AcDbLine
 10
231.0711961722486
 20
54.48294463882412
 30
0.0
 11
219.6726247436773
 21
54.48294463882412
 31
0.0
  0
SOLID
  5
823D
330
8238
100
AcDbEntity
  8
0
 62
     0
100
AcDbTrace
 10
207.0311961722488
 20
54.51294463882412
 30
0.0
 11
207.0311961722488
 21
54.45294463882412
 31
0.0
 12
206.8511961722486
 22
54.48294463882412
 32
0.0
 13
206.8511961722486
 23
54.48294463882412
 33
0.0
  0
SOLID
  5
823E
330
8238
100
AcDbEntity
  8
0
 62
     0
100
AcDbTrace
 10
231.0711961722486
 20
54.51294463882412
 30
0.0
 11
231.0711961722486
 21
54.45294463882412
 31
0.0
 12
231.2511961722488
 22
54.48294463882412
 32
0.0
 13
231.2511961722488
 23
54.48294463882412
 33
0.0
  0
MTEXT
  5
823F
330
8238
100
AcDbEntity
  8
0
 62
     0
100
AcDbMText
 10
219.0511961722488
 20
54.48294463882412
 30
0.0
 40
0.18
 41
0.0
 71
     5
 72
     1
  1
\A1;24.4000
1001
ACAD
1000
MTEXTBEGIN
1070
    73
1070
     1
1070
    44
1040
1.0
1070
    74
1070
     0
1000
MTEXTEND
1000
MTEXTBEGIN
1070
    73
1070
     1
1070
    44
1040
1.0
1070
    74
1070
     0
1000
MTEXTEND
1000
MTEXTBEGIN
1070
    73
1070
     1
1070
    44
1040
1.0
1070
    74
1070
     0
1000
MTEXTEND
  0
POINT
  5
8240
330
8238
100
AcDbEntity
  8
DEFPOINTS
 62
     0
100
AcDbPoint
 10
206.8511961722486
 20
75.66472320362058
 30
0.0
  0
POINT
  5
8241
330
8238
100
AcDbEntity
  8
DEFPOINTS
 62
     0
100
AcDbPoint
 10
231.2511961722488
 20
75.66472320362058
 30
0.0
  0
POINT
  5
8242
330
8238
100
AcDbEntity
  8
DEFPOINTS
 62
     0
100
AcDbPoint
 10
231.2511961722488
 20
54.48294463882412
 30
0.0
  0
ENDBLK
  5
8244
330
8238
100
AcDbEntity
  8
0
100
AcDbBlockEnd
  0
BLOCK
  5
8250
330
8245
100
AcDbEntity
  8
0
100
AcDbBlockBegin
  2
*D15
 70
     1
 10
0.0
 20
0.0
 30
0.0
  3
*D15
  1

  0
LINE
  5
8246
330
8245
100
AcDbEntity
  8
0
 62
     0
100
AcDbLine
 10
204.0511961722488
 20
88.20222320362059
 30
0.0
 11
204.0511961722488
 21
44.30294463882412
 31
0.0
  0
LINE
  5
8247
330
8245
100
AcDbEntity
  8
0
 62
     0
100
AcDbLine
 10
231.2511961722488
 20
75.60222320362058
 30
0.0
 11
231.2511961722488
 21
44.30294463882412
 31
0.0
  0
LINE
  5
8248
330
8245
100
AcDbEntity
  8
0
 62
     0
100
AcDbLine
 10
204.2311961722488
 20
44.48294463882412
 30
0.0
 11
217.0297676008202
 21
44.48294463882412
 31
0.0
  0
LINE
  5
8249
330
8245
100
AcDbEntity
  8
0
 62
     0
100
AcDbLine
 10
231.0711961722486
 20
44.48294463882412
 30
0.0
 11
218.2726247436773
 21
44.48294463882412
 31
0.0
  0
SOLID
  5
824A
330
8245
100
AcDbEntity
  8
0
 62
     0
100
AcDbTrace
 10
204.2311961722488
 20
44.51294463882411
 30
0.0
 11
204.2311961722488
 21
44.45294463882412
 31
0.0
 12
204.0511961722488
 22
44.48294463882412
 32
0.0
 13
204.0511961722488
 23
44.48294463882412
 33
0.0
  0
SOLID
  5
824B
330
8245
100
AcDbEntity
  8
0
 62
     0
100
AcDbTrace
 10
231.0711961722486
 20
44.51294463882411
 30
0.0
 11
231.0711961722486
 21
44.45294463882412
 31
0.0
 12
231.2511961722488
 22
44.48294463882412
 32
0.0
 13
231.2511961722488
 23
44.48294463882412
 33
0.0
  0
MTEXT
  5
824C
330
8245
100
AcDbEntity
  8
0
 62
     0
100
AcDbMText
 10
217.6511961722487
 20
44.48294463882412
 30
0.0
 40
0.18
 41
0.0
 71
     5
 72
     1
  1
\A1;27.2000
1001
ACAD
1000
MTEXTBEGIN
1070
    73
1070
     1
1070
    44
1040
1.0
1070
    74
1070
     0
1000
MTEXTEND
1000
MTEXTBEGIN
1070
    73
1070
     1
1070
    44
1040
1.0
1070
    74
1070
     0
1000
MTEXTEND
1000
MTEXTBEGIN
1070
    73
1070
     1
1070
    44
1040
1.0
1070
    74
1070
     0
1000
MTEXTEND
  0
POINT
  5
824D
330
8245
100
AcDbEntity
  8
DEFPOINTS
 62
     0
100
AcDbPoint
 10
204.0511961722488
 20
88.26472320362059
 30
0.0
  0
POINT
  5
824E
330
8245
100
AcDbEntity
  8
DEFPOINTS
 62
     0
100
AcDbPoint
 10
231.2511961722488
 20
75.66472320362058
 30
0.0
  0
POINT
  5
824F
330
8245
100
AcDbEntity
  8
DEFPOINTS
 62
     0
100
AcDbPoint
 10
231.2511961722488
 20
44.48294463882412
 30
0.0
  0
ENDBLK
  5
8251
330
8245
100
AcDbEntity
  8
0
100
AcDbBlockEnd
  0
BLOCK
  5
825D
330
8252
100
AcDbEntity
  8
0
100
AcDbBlockBegin
  2
*D16
 70
     1
 10
0.0
 20
0.0
 30
0.0
  3
*D16
  1

  0
LINE
  5
8253
330
8252
100
AcDbEntity
  8
0
 62
     0
100
AcDbLine
 10
200.8511961722486
 20
98.60222320362058
 30
0.0
 11
200.8511961722486
 21
34.30294463882411
 31
0.0
  0
LINE
  5
8254
330
8252
100
AcDbEntity
  8
0
 62
     0
100
AcDbLine
 10
202.4511961722488
 20
98.60222320362058
 30
0.0
 11
202.4511961722488
 21
34.30294463882411
 31
0.0
  0
LINE
  5
8255
330
8252
100
AcDbEntity
  8
0
 62
     0
100
AcDbLine
 10
201.0311961722488
 20
34.48294463882412
 30
0.0
 11
201.1326247436774
 21
34.48294463882412
 31
0.0
  0
LINE
  5
8256
330
8252
100
AcDbEntity
  8
0
 62
     0
100
AcDbLine
 10
202.2711961722488
 20
34.48294463882412
 30
0.0
 11
202.1697676008201
 21
34.48294463882412
 31
0.0
  0
SOLID
  5
8257
330
8252
100
AcDbEntity
  8
0
 62
     0
100
AcDbTrace
 10
201.0311961722488
 20
34.51294463882411
 30
0.0
 11
201.0311961722488
 21
34.45294463882412
 31
0.0
 12
200.8511961722486
 22
34.48294463882412
 32
0.0
 13
200.8511961722486
 23
34.48294463882412
 33
0.0
  0
SOLID
  5
8258
330
8252
100
AcDbEntity
  8
0
 62
     0
100
AcDbTrace
 10
202.2711961722488
 20
34.51294463882411
 30
0.0
 11
202.2711961722488
 21
34.45294463882412
 31
0.0
 12
202.4511961722488
 22
34.48294463882412
 32
0.0
 13
202.4511961722488
 23
34.48294463882412
 33
0.0
  0
MTEXT
  5
8259
330
8252
100
AcDbEntity
  8
0
 62
     0
100
AcDbMText
 10
201.6511961722488
 20
34.48294463882412
 30
0.0
 40
0.18
 41
0.0
 71
     5
 72
     1
  1
\A1;1.6000
1001
ACAD
1000
MTEXTBEGIN
1070
    73
1070
     1
1070
    44
1040
1.0
1070
    74
1070
     0
1000
MTEXTEND
1000
MTEXTBEGIN
1070
    73
1070
     1
1070
    44
1040
1.0
1070
    74
1070
     0
1000
MTEXTEND
1000
MTEXTBEGIN
1070
    73
1070
     1
1070
    44
1040
1.0
1070
    74
1070
     0
1000
MTEXTEND
  0
POINT
  5
825A
330
8252
100
AcDbEntity
  8
DEFPOINTS
 62
     0
100
AcDbPoint
 10
200.8511961722486
 20
98.66472320362058
 30
0.0
  0
POINT
  5
825B
330
8252
100
AcDbEntity
  8
DEFPOINTS
 62
     0
100
AcDbPoint
 10
202.4511961722488
 20
98.66472320362058
 30
0.0
  0
POINT
  5
825C
330
8252
100
AcDbEntity
  8
DEFPOINTS
 62
     0
100
AcDbPoint
 10
202.4511961722488
 20
34.48294463882412
 30
0.0
  0
ENDBLK
  5
825E
330
8252
100
AcDbEntity
  8
0
100
AcDbBlockEnd
  0
BLOCK
  5
826A
330
825F
100
AcDbEntity
  8
0
100
AcDbBlockBegin
  2
*D17
 70
     1
 10
0.0
 20
0.0
 30
0.0
  3
*D17
  1

  0
LINE
  5
8260
330
825F
100
AcDbEntity
  8
0
 62
     0
100
AcDbLine
 10
203.9886961722487
 20
129.0647232036205
 30
0.0
 11
178.5700000019
 21
129.0647232036205
 31
0.0
  0
LINE
  5
8261
330
825F
100
AcDbEntity
  8
0
 62
     0
100
AcDbLine
 10
203.9886961722487
 20
88.26472320362059
 30
0.0
 11
178.5700000019
 21
88.26472320362059
 31
0.0
  0
LINE
  5
8262
330
825F
100
AcDbEntity
  8
0
 62
     0
100
AcDbLine
 10
178.7500000019
 20
128.8847232036204
 30
0.0
 11
178.7500000019
 21
108.8447232036204
 31
0.0
  0
LINE
  5
8263
330
825F
100
AcDbEntity
  8
0
 62
     0
100
AcDbLine
 10
178.7500000019
 20
88.44472320362058
 30
0.0
 11
178.7500000019
 21
108.4847232036205
 31
0.0
  0
SOLID
  5
8264
330
825F
100
AcDbEntity
  8
0
 62
     0
100
AcDbTrace
 10
178.7200000019
 20
128.8847232036204
 30
0.0
 11
178.7800000018999
 21
128.8847232036204
 31
0.0
 12
178.7500000019
 22
129.0647232036205
 32
0.0
 13
178.7500000019
 23
129.0647232036205
 33
0.0
  0
SOLID
  5
8265
330
825F
100
AcDbEntity
  8
0
 62
     0
100
AcDbTrace
 10
178.7200000019
 20
88.44472320362058
 30
0.0
 11
178.7800000018999
 21
88.44472320362058
 31
0.0
 12
178.7500000019
 22
88.26472320362059
 32
0.0
 13
178.7500000019
 23
88.26472320362059
 33
0.0
  0
MTEXT
  5
8266
330
825F
100
AcDbEntity
  8
0
 62
     0
100
AcDbMText
 10
178.7500000019
 20
108.6647232036205
 30
0.0
 40
0.18
 41
0.0
 71
     5
 72
     1
  1
\A1;40.8000
1001
ACAD
1000
MTEXTBEGIN
1070
    73
1070
     1
1070
    44
1040
1.0
1070
    74
1070
     0
1000
MTEXTEND
1000
MTEXTBEGIN
1070
    73
1070
     1
1070
    44
1040
1.0
1070
    74
1070
     0
1000
MTEXTEND
1000
MTEXTBEGIN
1070
    73
1070
     1
1070
    44
1040
1.0
1070
    74
1070
     0
1000
MTEXTEND
  0
POINT
  5
8267
330
825F
100
AcDbEntity
  8
DEFPOINTS
 62
     0
100
AcDbPoint
 10
204.0511961722488
 20
129.0647232036205
 30
0.0
  0
POINT
  5
8268
330
825F
100
AcDbEntity
  8
DEFPOINTS
 62
     0
100
AcDbPoint
 10
204.0511961722488
 20
88.26472320362059
 30
0.0
  0
POINT
  5
8269
330
825F
100
AcDbEntity
  8
DEFPOINTS
 62
     0
100
AcDbPoint
 10
178.7500000019
 20
88.26472320362059
 30
0.0
  0
ENDBLK
  5
826B
330
825F
100
AcDbEntity
  8
0
100
AcDbBlockEnd
  0
BLOCK
  5
8277
330
826C
100
AcDbEntity
  8
0
100
AcDbBlockBegin
  2
*D18
 70
     1
 10
0.0
 20
0.0
 30
0.0
  3
*D18
  1

  0
LINE
  5
826D
330
826C
100
AcDbEntity
  8
0
 62
     0
100
AcDbLine
 10
200.7886961722486
 20
98.66472320362058
 30
0.0
 11
186.0700000018999
 21
98.66472320362058
 31
0.0
  0
LINE
  5
826E
330
826C
100
AcDbEntity
  8
0
 62
     0
100
AcDbLine
 10
200.7886961722486
 20
118.6647232036204
 30
0.0
 11
186.0700000018999
 21
118.6647232036204
 31
0.0
  0
LINE
  5
826F
330
826C
100
AcDbEntity
  8
0
 62
     0
100
AcDbLine
 10
186.2500000018999
 20
98.84472320362059
 30
0.0
 11
186.2500000018999
 21
108.4847232036205
 31
0.0
  0
LINE
  5
8270
330
826C
100
AcDbEntity
  8
0
 62
     0
100
AcDbLine
 10
186.2500000018999
 20
118.4847232036204
 30
0.0
 11
186.2500000018999
 21
108.8447232036204
 31
0.0
  0
SOLID
  5
8271
330
826C
100
AcDbEntity
  8
0
 62
     0
100
AcDbTrace
 10
186.2200000018999
 20
98.84472320362059
 30
0.0
 11
186.2800000018999
 21
98.84472320362059
 31
0.0
 12
186.2500000018999
 22
98.66472320362058
 32
0.0
 13
186.2500000018999
 23
98.66472320362058
 33
0.0
  0
SOLID
  5
8272
330
826C
100
AcDbEntity
  8
0
 62
     0
100
AcDbTrace
 10
186.2200000018999
 20
118.4847232036204
 30
0.0
 11
186.2800000018999
 21
118.4847232036204
 31
0.0
 12
186.2500000018999
 22
118.6647232036204
 32
0.0
 13
186.2500000018999
 23
118.6647232036204
 33
0.0
  0
MTEXT
  5
8273
330
826C
100
AcDbEntity
  8
0
 62
     0
100
AcDbMText
 10
186.2500000018999
 20
108.6647232036205
 30
0.0
 40
0.18
 41
0.0
 71
     5
 72
     1
  1
\A1;20.0000
1001
ACAD
1000
MTEXTBEGIN
1070
    73
1070
     1
1070
    44
1040
1.0
1070
    74
1070
     0
1000
MTEXTEND
1000
MTEXTBEGIN
1070
    73
1070
     1
1070
    44
1040
1.0
1070
    74
1070
     0
1000
MTEXTEND
1000
MTEXTBEGIN
1070
    73
1070
     1
1070
    44
1040
1.0
1070
    74
1070
     0
1000
MTEXTEND
  0
POINT
  5
8274
330
826C
100
AcDbEntity
  8
DEFPOINTS
 62
     0
100
AcDbPoint
 10
200.8511961722486
 20
98.66472320362058
 30
0.0
  0
POINT
  5
8275
330
826C
100
AcDbEntity
  8
DEFPOINTS
 62
     0
100
AcDbPoint
 10
200.8511961722486
 20
118.6647232036204
 30
0.0
  0
POINT
  5
8276
330
826C
100
AcDbEntity
  8
DEFPOINTS
 62
     0
100
AcDbPoint
 10
186.2500000018999
 20
118.6647232036204
 30
0.0
  0
ENDBLK
  5
8278
330
826C
100
AcDbEntity
  8
0
100
AcDbBlockEnd
  0
BLOCK
  5
8284
330
8279
100
AcDbEntity
  8
0
100
AcDbBlockBegin
  2
*D19
 70
     1
 10
0.0
 20
0.0
 30
0.0
  3
*D19
  1

  0
LINE
  5
827A
330
8279
100
AcDbEntity
  8
0
 62
     0
100
AcDbLine
 10
231.2511961722488
 20
75.60222320362058
 30
0.0
 11
231.2511961722488
 21
44.30294463882412
 31
0.0
  0
LINE
  5
827B
330
8279
100
AcDbEntity
  8
0
 62
     0
100
AcDbLine
 10
273.6511961722488
 20
79.80222320362056
 30
0.0
 11
273.6511961722488
 21
44.30294463882412
 31
0.0
  0
LINE
  5
827C
330
8279
100
AcDbEntity
  8
0
 62
     0
100
AcDbLine
 10
231.4311961722486
 20
44.48294463882412
 30
0.0
 11
251.82976760082
 21
44.48294463882412
 31
0.0
  0
LINE
  5
827D
330
8279
100
AcDbEntity
  8
0
 62
     0
100
AcDbLine
 10
273.4711961722488
 20
44.48294463882412
 30
0.0
 11
253.0726247436774
 21
44.48294463882412
 31
0.0
  0
SOLID
  5
827E
330
8279
100
AcDbEntity
  8
0
 62
     0
100
AcDbTrace
 10
231.4311961722486
 20
44.51294463882411
 30
0.0
 11
231.4311961722486
 21
44.45294463882412
 31
0.0
 12
231.2511961722488
 22
44.48294463882412
 32
0.0
 13
231.2511961722488
 23
44.48294463882412
 33
0.0
  0
SOLID
  5
827F
330
8279
100
AcDbEntity
  8
0
 62
     0
100
AcDbTrace
 10
273.4711961722488
 20
44.51294463882411
 30
0.0
 11
273.4711961722488
 21
44.45294463882412
 31
0.0
 12
273.6511961722488
 22
44.48294463882412
 32
0.0
 13
273.6511961722488
 23
44.48294463882412
 33
0.0
  0
MTEXT
  5
8280
330
8279
100
AcDbEntity
  8
0
 62
     0
100
AcDbMText
 10
252.4511961722488
 20
44.48294463882412
 30
0.0
 40
0.18
 41
0.0
 71
     5
 72
     1
  1
\A1;42.4000
1001
ACAD
1000
MTEXTBEGIN
1070
    73
1070
     1
1070
    44
1040
1.0
1070
    74
1070
     0
1000
MTEXTEND
1000
MTEXTBEGIN
1070
    73
1070
     1
1070
    44
1040
1.0
1070
    74
1070
     0
1000
MTEXTEND
1000
MTEXTBEGIN
1070
    73
1070
     1
1070
    44
1040
1.0
1070
    74
1070
     0
1000
MTEXTEND
  0
POINT
  5
8281
330
8279
100
AcDbEntity
  8
DEFPOINTS
 62
     0
100
AcDbPoint
 10
231.2511961722488
 20
75.66472320362058
 30
0.0
  0
POINT
  5
8282
330
8279
100
AcDbEntity
  8
DEFPOINTS
 62
     0
100
AcDbPoint
 10
273.6511961722488
 20
79.86472320362056
 30
0.0
  0
POINT
  5
8283
330
8279
100
AcDbEntity
  8
DEFPOINTS
 62
     0
100
AcDbPoint
 10
273.6511961722488
 20
44.48294463882412
 30
0.0
  0
ENDBLK
  5
8285
330
8279
100
AcDbEntity
  8
0
100
AcDbBlockEnd
  0
BLOCK
  5
8291
330
8286
100
AcDbEntity
  8
0
100
AcDbBlockBegin
  2
*D20
 70
     1
 10
0.0
 20
0.0
 30
0.0
  3
*D20
  1

  0
LINE
  5
8287
330
8286
100
AcDbEntity
  8
0
 62
     0
100
AcDbLine
 10
231.2511961722488
 20
75.60222320362058
 30
0.0
 11
231.2511961722488
 21
54.30294463882412
 31
0.0
  0
LINE
  5
8288
330
8286
100
AcDbEntity
  8
0
 62
     0
100
AcDbLine
 10
259.6511961722486
 20
79.80222320362056
 30
0.0
 11
259.6511961722486
 21
54.30294463882412
 31
0.0
  0
LINE
  5
8289
330
8286
100
AcDbEntity
  8
0
 62
     0
100
AcDbLine
 10
231.4311961722486
 20
54.48294463882412
 30
0.0
 11
244.8297676008202
 21
54.48294463882412
 31
0.0
  0
LINE
  5
828A
330
8286
100
AcDbEntity
  8
0
 62
     0
100
AcDbLine
 10
259.4711961722488
 20
54.48294463882412
 30
0.0
 11
246.0726247436773
 21
54.48294463882412
 31
0.0
  0
SOLID
  5
828B
330
8286
100
AcDbEntity
  8
0
 62
     0
100
AcDbTrace
 10
231.4311961722486
 20
54.51294463882412
 30
0.0
 11
231.4311961722486
 21
54.45294463882412
 31
0.0
 12
231.2511961722488
 22
54.48294463882412
 32
0.0
 13
231.2511961722488
 23
54.48294463882412
 33
0.0
  0
SOLID
  5
828C
330
8286
100
AcDbEntity
  8
0
 62
     0
100
AcDbTrace
 10
259.4711961722488
 20
54.51294463882412
 30
0.0
 11
259.4711961722488
 21
54.45294463882412
 31
0.0
 12
259.6511961722486
 22
54.48294463882412
 32
0.0
 13
259.6511961722486
 23
54.48294463882412
 33
0.0
  0
MTEXT
  5
828D
330
8286
100
AcDbEntity
  8
0
 62
     0
100
AcDbMText
 10
245.4511961722487
 20
54.48294463882412
 30
0.0
 40
0.18
 41
0.0
 71
     5
 72
     1
  1
\A1;28.4000
1001
ACAD
1000
MTEXTBEGIN
1070
    73
1070
     1
1070
    44
1040
1.0
1070
    74
1070
     0
1000
MTEXTEND
1000
MTEXTBEGIN
1070
    73
1070
     1
1070
    44
1040
1.0
1070
    74
1070
     0
1000
MTEXTEND
1000
MTEXTBEGIN
1070
    73
1070
     1
1070
    44
1040
1.0
1070
    74
1070
     0
1000
MTEXTEND
  0
POINT
  5
828E
330
8286
100
AcDbEntity
  8
DEFPOINTS
 62
     0
100
AcDbPoint
 10
231.2511961722488
 20
75.66472320362058
 30
0.0
  0
POINT
  5
828F
330
8286
100
AcDbEntity
  8
DEFPOINTS
 62
     0
100
AcDbPoint
 10
259.6511961722486
 20
79.86472320362056
 30
0.0
  0
POINT
  5
8290
330
8286
100
AcDbEntity
  8
DEFPOINTS
 62
     0
100
AcDbPoint
 10
259.6511961722486
 20
54.48294463882412
 30
0.0
  0
ENDBLK
  5
8292
330
8286
100
AcDbEntity
  8
0
100
AcDbBlockEnd
  0
BLOCK
  5
829E
330
8293
100
AcDbEntity
  8
0
100
AcDbBlockBegin
  2
*D21
 70
     1
 10
0.0
 20
0.0
 30
0.0
  3
*D21
  1

  0
LINE
  5
8294
330
8293
100
AcDbEntity
  8
0
 62
     0
100
AcDbLine
 10
253.6511961722488
 20
78.80222319702058
 30
0.0
 11
253.6511961722488
 21
64.3029446388241
 31
0.0
  0
LINE
  5
8295
330
8293
100
AcDbEntity
  8
0
 62
     0
100
AcDbLine
 10
259.6511961722486
 20
75.67911756359629
 30
0.0
 11
259.6511961722486
 21
64.3029446388241
 31
0.0
  0
LINE
  5
8296
330
8293
100
AcDbEntity
  8
0
 62
     0
100
AcDbLine
 10
253.8311961722488
 20
64.48294463882409
 30
0.0
 11
256.1154818865345
 21
64.48294463882409
 31
0.0
  0
LINE
  5
8297
330
8293
100
AcDbEntity
  8
0
 62
     0
100
AcDbLine
 10
259.4711961722488
 20
64.48294463882409
 30
0.0
 11
257.1869104579631
 21
64.48294463882409
 31
0.0
  0
SOLID
  5
8298
330
8293
100
AcDbEntity
  8
0
 62
     0
100
AcDbTrace
 10
253.8311961722488
 20
64.51294463882409
 30
0.0
 11
253.8311961722488
 21
64.45294463882409
 31
0.0
 12
253.6511961722488
 22
64.48294463882409
 32
0.0
 13
253.6511961722488
 23
64.48294463882409
 33
0.0
  0
SOLID
  5
8299
330
8293
100
AcDbEntity
  8
0
 62
     0
100
AcDbTrace
 10
259.4711961722488
 20
64.51294463882409
 30
0.0
 11
259.4711961722488
 21
64.45294463882409
 31
0.0
 12
259.6511961722486
 22
64.48294463882409
 32
0.0
 13
259.6511961722486
 23
64.48294463882409
 33
0.0
  0
MTEXT
  5
829A
330
8293
100
AcDbEntity
  8
0
 62
     0
100
AcDbMText
 10
256.6511961722486
 20
64.48294463882409
 30
0.0
 40
0.18
 41
0.0
 71
     5
 72
     1
  1
\A1;6.0000
1001
ACAD
1000
MTEXTBEGIN
1070
    73
1070
     1
1070
    44
1040
1.0
1070
    74
1070
     0
1000
MTEXTEND
1000
MTEXTBEGIN
1070
    73
1070
     1
1070
    44
1040
1.0
1070
    74
1070
     0
1000
MTEXTEND
1000
MTEXTBEGIN
1070
    73
1070
     1
1070
    44
1040
1.0
1070
    74
1070
     0
1000
MTEXTEND
  0
POINT
  5
829B
330
8293
100
AcDbEntity
  8
DEFPOINTS
 62
     0
100
AcDbPoint
 10
253.6511961722488
 20
78.86472319702058
 30
0.0
  0
POINT
  5
829C
330
8293
100
AcDbEntity
  8
DEFPOINTS
 62
     0
100
AcDbPoint
 10
259.6511961722486
 20
75.74161756359629
 30
0.0
  0
POINT
  5
829D
330
8293
100
AcDbEntity
  8
DEFPOINTS
 62
     0
100
AcDbPoint
 10
259.6511961722486
 20
64.48294463882409
 30
0.0
  0
ENDBLK
  5
829F
330
8293
100
AcDbEntity
  8
0
100
AcDbBlockEnd
  0
BLOCK
  5
82AB
330
82A0
100
AcDbEntity
  8
0
100
AcDbBlockBegin
  2
*D22
 70
     1
 10
0.0
 20
0.0
 30
0.0
  3
*D22
  1

  0
LINE
  5
82A1
330
82A0
100
AcDbEntity
  8
0
 62
     0
100
AcDbLine
 10
267.6511961722486
 20
78.80222319702058
 30
0.0
 11
267.6511961722486
 21
64.3029446388241
 31
0.0
  0
LINE
  5
82A2
330
82A0
100
AcDbEntity
  8
0
 62
     0
100
AcDbLine
 10
273.6511961722488
 20
75.67911756359629
 30
0.0
 11
273.6511961722488
 21
64.3029446388241
 31
0.0
  0
LINE
  5
82A3
330
82A0
100
AcDbEntity
  8
0
 62
     0
100
AcDbLine
 10
267.8311961722485
 20
64.48294463882409
 30
0.0
 11
270.1154818865345
 21
64.48294463882409
 31
0.0
  0
LINE
  5
82A4
330
82A0
100
AcDbEntity
  8
0
 62
     0
100
AcDbLine
 10
273.4711961722488
 20
64.48294463882409
 30
0.0
 11
271.1869104579631
 21
64.48294463882409
 31
0.0
  0
SOLID
  5
82A5
330
82A0
100
AcDbEntity
  8
0
 62
     0
100
AcDbTrace
 10
267.8311961722485
 20
64.51294463882409
 30
0.0
 11
267.8311961722485
 21
64.45294463882409
 31
0.0
 12
267.6511961722486
 22
64.48294463882409
 32
0.0
 13
267.6511961722486
 23
64.48294463882409
 33
0.0
  0
SOLID
  5
82A6
330
82A0
100
AcDbEntity
  8
0
 62
     0
100
AcDbTrace
 10
273.4711961722488
 20
64.51294463882409
 30
0.0
 11
273.4711961722488
 21
64.45294463882409
 31
0.0
 12
273.6511961722488
 22
64.48294463882409
 32
0.0
 13
273.6511961722488
 23
64.48294463882409
 33
0.0
  0
MTEXT
  5
82A7
330
82A0
100
AcDbEntity
  8
0
 62
     0
100
AcDbMText
 10
270.6511961722485
 20
64.48294463882409
 30
0.0
 40
0.18
 41
0.0
 71
     5
 72
     1
  1
\A1;6.0000
1001
ACAD
1000
MTEXTBEGIN
1070
    73
1070
     1
1070
    44
1040
1.0
1070
    74
1070
     0
1000
MTEXTEND
1000
MTEXTBEGIN
1070
    73
1070
     1
1070
    44
1040
1.0
1070
    74
1070
     0
1000
MTEXTEND
1000
MTEXTBEGIN
1070
    73
1070
     1
1070
    44
1040
1.0
1070
    74
1070
     0
1000
MTEXTEND
  0
POINT
  5
82A8
330
82A0
100
AcDbEntity
  8
DEFPOINTS
 62
     0
100
AcDbPoint
 10
267.6511961722486
 20
78.86472319702058
 30
0.0
  0
POINT
  5
82A9
330
82A0
100
AcDbEntity
  8
DEFPOINTS
 62
     0
100
AcDbPoint
 10
273.6511961722488
 20
75.74161756359629
 30
0.0
  0
POINT
  5
82AA
330
82A0
100
AcDbEntity
  8
DEFPOINTS
 62
     0
100
AcDbPoint
 10
273.6511961722488
 20
64.48294463882409
 30
0.0
  0
ENDBLK
  5
82AC
330
82A0
100
AcDbEntity
  8
0
100
AcDbBlockEnd
  0
BLOCK
  5
82B8
330
82AD
100
AcDbEntity
  8
0
100
AcDbBlockBegin
  2
*D23
 70
     1
 10
0.0
 20
0.0
 30
0.0
  3
*D23
  1

  0
LINE
  5
82AE
330
82AD
100
AcDbEntity
  8
0
 62
     0
100
AcDbLine
 10
272.6418994025243
 20
75.86472320362054
 30
0.0
 11
287.9300000019
 21
75.86472320362054
 31
0.0
  0
LINE
  5
82AF
330
82AD
100
AcDbEntity
  8
0
 62
     0
100
AcDbLine
 10
272.6418994025243
 20
83.86472320362058
 30
0.0
 11
287.9300000019
 21
83.86472320362058
 31
0.0
  0
LINE
  5
82B0
330
82AD
100
AcDbEntity
  8
0
 62
     0
100
AcDbLine
 10
287.7500000018999
 20
76.04472320362058
 30
0.0
 11
287.7500000018999
 21
79.68472320362057
 31
0.0
  0
LINE
  5
82B1
330
82AD
100
AcDbEntity
  8
0
 62
     0
100
AcDbLine
 10
287.7500000018999
 20
83.68472320362057
 30
0.0
 11
287.7500000018999
 21
80.04472320362058
 31
0.0
  0
SOLID
  5
82B2
330
82AD
100
AcDbEntity
  8
0
 62
     0
100
AcDbTrace
 10
287.7200000018996
 20
76.04472320362058
 30
0.0
 11
287.7800000018996
 21
76.04472320362058
 31
0.0
 12
287.7500000018999
 22
75.86472320362054
 32
0.0
 13
287.7500000018999
 23
75.86472320362054
 33
0.0
  0
SOLID
  5
82B3
330
82AD
100
AcDbEntity
  8
0
 62
     0
100
AcDbTrace
 10
287.7200000018996
 20
83.68472320362057
 30
0.0
 11
287.7800000018996
 21
83.68472320362057
 31
0.0
 12
287.7500000018999
 22
83.86472320362058
 32
0.0
 13
287.7500000018999
 23
83.86472320362058
 33
0.0
  0
MTEXT
  5
82B4
330
82AD
100
AcDbEntity
  8
0
 62
     0
100
AcDbMText
 10
287.7500000018999
 20
79.8647232036206
 30
0.0
 40
0.18
 41
0.0
 71
     5
 72
     1
  1
\A1;8.0000
1001
ACAD
1000
MTEXTBEGIN
1070
    73
1070
     1
1070
    44
1040
1.0
1070
    74
1070
     0
1000
MTEXTEND
1000
MTEXTBEGIN
1070
    73
1070
     1
1070
    44
1040
1.0
1070
    74
1070
     0
1000
MTEXTEND
1000
MTEXTBEGIN
1070
    73
1070
     1
1070
    44
1040
1.0
1070
    74
1070
     0
1000
MTEXTEND
  0
POINT
  5
82B5
330
82AD
100
AcDbEntity
  8
DEFPOINTS
 62
     0
100
AcDbPoint
 10
272.5793994025242
 20
75.86472320362054
 30
0.0
  0
POINT
  5
82B6
330
82AD
100
AcDbEntity
  8
DEFPOINTS
 62
     0
100
AcDbPoint
 10
272.5793994025242
 20
83.86472320362058
 30
0.0
  0
POINT
  5
82B7
330
82AD
100
AcDbEntity
  8
DEFPOINTS
 62
     0
100
AcDbPoint
 10
287.7500000018999
 20
83.86472320362058
 30
0.0
  0
ENDBLK
  5
82B9
330
82AD
100
AcDbEntity
  8
0
100
AcDbBlockEnd
  0
BLOCK
  5
82C5
330
82BA
100
AcDbEntity
  8
0
100
AcDbBlockBegin
  2
*D24
 70
     1
 10
0.0
 20
0.0
 30
0.0
  3
*D24
  1

  0
LINE
  5
82BB
330
82BA
100
AcDbEntity
  8
0
 62
     0
100
AcDbLine
 10
273.7136961722486
 20
136.2647232036204
 30
0.0
 11
287.9300000019
 21
136.2647232036204
 31
0.0
  0
LINE
  5
82BC
330
82BA
100
AcDbEntity
  8
0
 62
     0
100
AcDbLine
 10
273.7136961722486
 20
138.6647232036205
 30
0.0
 11
287.9300000019
 21
138.6647232036205
 31
0.0
  0
LINE
  5
82BD
330
82BA
100
AcDbEntity
  8
0
 62
     0
100
AcDbLine
 10
287.7500000018999
 20
136.4447232036205
 30
0.0
 11
287.7500000018999
 21
137.2847232036205
 31
0.0
  0
LINE
  5
82BE
330
82BA
100
AcDbEntity
  8
0
 62
     0
100
AcDbLine
 10
287.7500000018999
 20
138.4847232036202
 30
0.0
 11
287.7500000018999
 21
137.6447232036204
 31
0.0
  0
SOLID
  5
82BF
330
82BA
100
AcDbEntity
  8
0
 62
     0
100
AcDbTrace
 10
287.7200000018996
 20
136.4447232036205
 30
0.0
 11
287.7800000018996
 21
136.4447232036205
 31
0.0
 12
287.7500000018999
 22
136.2647232036204
 32
0.0
 13
287.7500000018999
 23
136.2647232036204
 33
0.0
  0
SOLID
  5
82C0
330
82BA
100
AcDbEntity
  8
0
 62
     0
100
AcDbTrace
 10
287.7200000018996
 20
138.4847232036202
 30
0.0
 11
287.7800000018996
 21
138.4847232036202
 31
0.0
 12
287.7500000018999
 22
138.6647232036205
 32
0.0
 13
287.7500000018999
 23
138.6647232036205
 33
0.0
  0
MTEXT
  5
82C1
330
82BA
100
AcDbEntity
  8
0
 62
     0
100
AcDbMText
 10
287.7500000018999
 20
137.4647232036204
 30
0.0
 40
0.18
 41
0.0
 71
     5
 72
     1
  1
\A1;2.4000
1001
ACAD
1000
MTEXTBEGIN
1070
    73
1070
     1
1070
    44
1040
1.0
1070
    74
1070
     0
1000
MTEXTEND
1000
MTEXTBEGIN
1070
    73
1070
     1
1070
    44
1040
1.0
1070
    74
1070
     0
1000
MTEXTEND
1000
MTEXTBEGIN
1070
    73
1070
     1
1070
    44
1040
1.0
1070
    74
1070
     0
1000
MTEXTEND
  0
POINT
  5
82C2
330
82BA
100
AcDbEntity
  8
DEFPOINTS
 62
     0
100
AcDbPoint
 10
273.6511961722488
 20
136.2647232036204
 30
0.0
  0
POINT
  5
82C3
330
82BA
100
AcDbEntity
  8
DEFPOINTS
 62
     0
100
AcDbPoint
 10
273.6511961722488
 20
138.6647232036205
 30
0.0
  0
POINT
  5
82C4
330
82BA
100
AcDbEntity
  8
DEFPOINTS
 62
     0
100
AcDbPoint
 10
287.7500000018999
 20
138.6647232036205
 30
0.0
  0
ENDBLK
  5
82C6
330
82BA
100
AcDbEntity
  8
0
100
AcDbBlockEnd
  0
BLOCK
  5
8324
330
82C7
100
AcDbEntity
  8
0
100
AcDbBlockBegin
  2
A$C430B49B3
 70
     0
 10
0.0
 20
0.0
 30
0.0
  3
A$C430B49B3
  1

  0
LINE
  5
82C8
330
82C7
100
AcDbEntity
  8
0
100
AcDbLine
 10
-27.68000000000003
 20
-33.0
 30
0.0
 11
-3.279999999999971
 21
-33.0
 31
0.0
  0
DIMENSION
  5
82C9
330
82C7
100
AcDbEntity
  8
0
100
AcDbDimension
  2
*D12
 10
-3.279999999999971
 20
-84.18177856479646
 30
0.0
 11
-21.68
 21
-84.18177856479646
 31
0.0
 12
-234.5311961722488
 22
-108.6647232036205
 32
0.0
  3
STANDARD
100
AcDbAlignedDimension
 13
-40.08000000000001
 23
-1.000000006600018
 33
0.0
 14
-3.279999999999971
 24
-33.0
 34
0.0
 50
180.0
100
AcDbRotatedDimension
1001
ACAD
1000
DSTYLE
1002
{
1070
   340
1005
11
1002
}
  0
DIMENSION
  5
82CA
330
82C7
100
AcDbEntity
  8
0
100
AcDbDimension
  2
*D13
 10
-3.279999999999971
 20
-74.18177856479649
 30
0.0
 11
-17.67999999999998
 21
-74.18177856479649
 31
0.0
 12
-234.5311961722488
 22
-108.6647232036205
 32
0.0
  3
STANDARD
100
AcDbAlignedDimension
 13
-32.07999999999998
 23
-10.0
 33
0.0
 14
-3.279999999999971
 24
-33.0
 34
0.0
 50
180.0
100
AcDbRotatedDimension
1001
ACAD
1000
DSTYLE
1002
{
1070
   340
1005
11
1002
}
  0
DIMENSION
  5
82CB
330
82C7
100
AcDbEntity
  8
0
100
AcDbDimension
  2
*D14
 10
-3.279999999999971
 20
-54.18177856479646
 30
0.0
 11
-15.48
 21
-54.18177856479646
 31
0.0
 12
-234.5311961722488
 22
-108.6647232036205
 32
0.0
  3
STANDARD
100
AcDbAlignedDimension
 13
-27.68000000000003
 23
-33.0
 33
0.0
 14
-3.279999999999971
 24
-33.0
 34
0.0
 50
180.0
100
AcDbRotatedDimension
1001
ACAD
1000
DSTYLE
1002
{
1070
   340
1005
11
1002
}
  0
DIMENSION
  5
82CC
330
82C7
100
AcDbEntity
  8
0
100
AcDbDimension
  2
*D15
 10
-3.279999999999971
 20
-64.18177856479646
 30
0.0
 11
-16.87999999999999
 21
-64.18177856479646
 31
0.0
 12
-234.5311961722488
 22
-108.6647232036205
 32
0.0
  3
STANDARD
100
AcDbAlignedDimension
 13
-30.47999999999999
 23
-20.39999999999998
 33
0.0
 14
-3.279999999999971
 24
-33.0
 34
0.0
 50
180.0
100
AcDbRotatedDimension
1001
ACAD
1000
DSTYLE
1002
{
1070
   340
1005
11
1002
}
  0
LINE
  5
82CD
330
82C7
100
AcDbEntity
  8
0
100
AcDbLine
 10
-42.07999999999997
 20
0.0
 30
0.0
 11
0.0
 21
0.0
 31
0.0
  0
LINE
  5
82CE
330
82C7
100
AcDbEntity
  8
0
100
AcDbLine
 10
-3.279999999999971
 20
33.0
 30
0.0
 11
-27.68000000000003
 21
33.0
 31
0.0
  0
LINE
  5
82CF
330
82C7
100
AcDbEntity
  8
0
100
AcDbLine
 10
-27.68000000000003
 20
33.0
 30
0.0
 11
-27.68000000000003
 21
20.4
 31
0.0
  0
DIMENSION
  5
82D0
330
82C7
100
AcDbEntity
  8
0
100
AcDbDimension
  2
*D16
 10
-32.07999999999998
 20
-74.18177856479646
 30
0.0
 11
-32.87999999999998
 21
-74.18177856479646
 31
0.0
 12
-234.5311961722488
 22
-108.6647232036205
 32
0.0
  3
STANDARD
100
AcDbAlignedDimension
 13
-33.68000000000003
 23
-10.0
 33
0.0
 14
-32.07999999999998
 24
-10.0
 34
0.0
 50
180.0
100
AcDbRotatedDimension
1001
ACAD
1000
DSTYLE
1002
{
1070
   340
1005
11
1002
}
  0
LINE
  5
82D1
330
82C7
100
AcDbEntity
  8
0
100
AcDbLine
 10
-30.47999999999999
 20
20.4
 30
0.0
 11
-30.47999999999999
 21
-20.39999999999998
 31
0.0
  0
DIMENSION
  5
82D2
330
82C7
100
AcDbEntity
  8
0
100
AcDbDimension
  2
*D17
 10
-55.78119617034881
 20
-20.39999999999998
 30
0.0
 11
-55.78119617034881
 21
0.0000000000000426
 31
0.0
 12
-234.5311961722488
 22
-108.6647232036205
 32
0.0
  3
STANDARD
100
AcDbAlignedDimension
 13
-30.47999999999999
 23
20.4
 33
0.0
 14
-30.47999999999999
 24
-20.39999999999998
 34
0.0
 50
90.0
100
AcDbRotatedDimension
1001
ACAD
1000
DSTYLE
1002
{
1070
   340
1005
11
1002
}
  0
LINE
  5
82D3
330
82C7
100
AcDbEntity
  8
0
100
AcDbLine
 10
-27.68000000000003
 20
-20.39999999999998
 30
0.0
 11
-27.68000000000003
 21
-33.0
 31
0.0
  0
LINE
  5
82D4
330
82C7
100
AcDbEntity
  8
0
100
AcDbLine
 10
-30.47999999999999
 20
-20.39999999999998
 30
0.0
 11
-27.68000000000003
 21
-20.39999999999998
 31
0.0
  0
LINE
  5
82D5
330
82C7
100
AcDbEntity
  8
0
100
AcDbLine
 10
-32.07999999999998
 20
10.0
 30
0.0
 11
-32.07999999999998
 21
-10.0
 31
0.0
  0
LINE
  5
82D6
330
82C7
100
AcDbEntity
  8
0
100
AcDbLine
 10
-33.68000000000003
 20
10.0
 30
0.0
 11
-33.68000000000003
 21
-10.0
 31
0.0
  0
DIMENSION
  5
82D7
330
82C7
100
AcDbEntity
  8
0
100
AcDbDimension
  2
*D18
 10
-48.28119617034881
 20
10.0
 30
0.0
 11
-48.28119617034886
 21
0.0000000000000284
 31
0.0
 12
-234.5311961722488
 22
-108.6647232036205
 32
0.0
  3
STANDARD
100
AcDbAlignedDimension
 13
-33.68000000000003
 23
-10.0
 33
0.0
 14
-33.68000000000003
 24
10.0
 34
0.0
 50
90.0
100
AcDbRotatedDimension
1001
ACAD
1000
DSTYLE
1002
{
1070
   340
1005
11
1002
}
  0
ARC
  5
82D8
330
82C7
100
AcDbEntity
  8
0
100
AcDbCircle
 10
-27.68000000000003
 20
0.0
 30
0.0
 40
12.4
100
AcDbArc
 50
150.5534441956585
 51
180.0
  0
TEXT
  5
82D9
330
82C7
100
AcDbEntity
  8
0
100
AcDbText
 10
-44.37157603634952
 20
-2.968220372277641
 30
0.0
 40
3.000000019799997
  1
L
 41
1.189062499999995
  7
UGMTXT
100
AcDbText
  0
TEXT
  5
82DA
330
82C7
100
AcDbEntity
  8
0
100
AcDbText
 10
-45.19869650616015
 20
-1.470672531620991
 30
0.0
 40
3.000000019799997
  1
C
 41
1.189062499999995
  7
UGMTXT
100
AcDbText
  0
LINE
  5
82DB
330
82C7
100
AcDbEntity
  8
0
100
AcDbLine
 10
-33.68000000000003
 20
-10.0
 30
0.0
 11
-30.47999999999999
 21
-10.0
 31
0.0
  0
LINE
  5
82DC
330
82C7
100
AcDbEntity
  8
0
100
AcDbLine
 10
-33.68000000000003
 20
5.666174735772003
 30
0.0
 11
-37.10151807259561
 21
8.061947482324226
 31
0.0
  0
LINE
  5
82DD
330
82C7
100
AcDbEntity
  8
0
100
AcDbLine
 10
-33.68000000000003
 20
2.736315722744503
 30
0.0
 11
-38.47810151983807
 21
6.095982576030664
 31
0.0
  0
LINE
  5
82DE
330
82C7
100
AcDbEntity
  8
0
100
AcDbLine
 10
-38.47810151983807
 20
6.095982576030664
 30
0.0
 11
-37.10151807259561
 21
8.061947482324226
 31
0.0
  0
LINE
  5
82DF
330
82C7
100
AcDbEntity
  8
0
100
AcDbLine
 10
-33.68000000000003
 20
10.0
 30
0.0
 11
-30.47999999999999
 21
10.0
 31
0.0
  0
LINE
  5
82E0
330
82C7
100
AcDbEntity
  8
0
100
AcDbLine
 10
-30.47999999999999
 20
20.4
 30
0.0
 11
-27.68000000000003
 21
20.4
 31
0.0
  0
LINE
  5
82E1
330
82C7
100
AcDbEntity
  8
0
100
AcDbLine
 10
-2.0
 20
44.99999999999997
 30
0.0
 11
-2.0
 21
-45.0
 31
0.0
  0
LINE
  5
82E2
330
82C7
100
AcDbEntity
  8
0
100
AcDbLine
 10
-3.279999999999971
 20
33.0
 30
0.0
 11
-3.279999999999971
 21
-33.0
 31
0.0
  0
INSERT
  5
82E3
330
82C7
100
AcDbEntity
  8
0
100
AcDbBlockReference
  2
*U6
 10
-234.5311961722488
 20
-108.6647232036205
 30
0.0
  0
INSERT
  5
82E4
330
82C7
100
AcDbEntity
  8
0
100
AcDbBlockReference
  2
*U5
 10
-234.5311961722488
 20
-108.6647232036205
 30
0.0
  0
DIMENSION
  5
82E5
330
82C7
100
AcDbEntity
  8
0
100
AcDbDimension
  2
*D19
 10
39.11999999999999
 20
-64.18177856479646
 30
0.0
 11
17.92000000000001
 21
-64.18177856479646
 31
0.0
 12
-234.5311961722488
 22
-108.6647232036205
 32
0.0
  3
STANDARD
100
AcDbAlignedDimension
 13
-3.279999999999971
 23
-33.0
 33
0.0
 14
39.11999999999999
 24
-28.8
 34
0.0
 50
180.0
100
AcDbRotatedDimension
1001
ACAD
1000
DSTYLE
1002
{
1070
   340
1005
11
1002
}
  0
LINE
  5
82E6
330
82C7
100
AcDbEntity
  8
0
100
AcDbLine
 10
-5.280000000000056
 20
-28.8
 30
0.0
 11
43.32000000000005
 21
-28.8
 31
0.0
  0
LINE
  5
82E7
330
82C7
100
AcDbEntity
  8
0
100
AcDbLine
 10
25.13776346213933
 20
-24.8
 30
0.0
 11
38.04820323027547
 21
-24.8
 31
0.0
  0
LINE
  5
82E8
330
82C7
100
AcDbEntity
  8
0
100
AcDbLine
 10
25.13776346213933
 20
-32.80000000000001
 30
0.0
 11
38.04820323027547
 21
-32.80000000000001
 31
0.0
  0
TEXT
  5
82E9
330
82C7
100
AcDbEntity
  8
0
100
AcDbText
 10
9.258752767119915
 20
-8.888304652245892
 30
0.0
 40
2.500000003799998
  1
Conductor overlap max.
 41
0.8002884615384591
  7
UGMTXT
100
AcDbText
  0
INSERT
  5
82EA
330
82C7
100
AcDbEntity
  8
0
100
AcDbBlockReference
  2
*U7
 10
-234.5311961722488
 20
-108.6647232036205
 30
0.0
  0
DIMENSION
  5
82EB
330
82C7
100
AcDbEntity
  8
0
100
AcDbDimension
  2
*D20
 10
25.12
 20
-54.18177856479646
 30
0.0
 11
10.92
 21
-54.18177856479646
 31
0.0
 12
-234.5311961722488
 22
-108.6647232036205
 32
0.0
  3
STANDARD
100
AcDbAlignedDimension
 13
-3.279999999999971
 23
-33.0
 33
0.0
 14
25.12
 24
-28.8
 34
0.0
 50
180.0
100
AcDbRotatedDimension
1001
ACAD
1000
DSTYLE
1002
{
1070
   340
1005
11
1002
}
  0
INSERT
  5
82EC
330
82C7
100
AcDbEntity
  8
0
100
AcDbBlockReference
  2
*U9
 10
-234.5311961722488
 20
-108.6647232036205
 30
0.0
  0
LINE
  5
82ED
330
82C7
100
AcDbEntity
  8
0
100
AcDbLine
 10
-3.279999999999943
 20
-32.80000000000001
 30
0.0
 11
24.04820323027546
 21
-32.80000000000001
 31
0.0
  0
LINE
  5
82EE
330
82C7
100
AcDbEntity
  8
0
100
AcDbLine
 10
-3.279999999999943
 20
-24.8
 30
0.0
 11
24.04820323027546
 21
-24.8
 31
0.0
  0
LINE
  5
82EF
330
82C7
100
AcDbEntity
  8
0
100
AcDbLine
 10
-3.279999999999971
 20
-33.0
 30
0.0
 11
-3.279999999999971
 21
-45.0
 31
0.0
  0
DIMENSION
  5
82F0
330
82C7
100
AcDbEntity
  8
0
100
AcDbDimension
  2
*D21
 10
25.12
 20
-44.18177856479649
 30
0.0
 11
22.12
 21
-44.18177856479649
 31
0.0
 12
-234.5311961722488
 22
-108.6647232036205
 32
0.0
  3
STANDARD
100
AcDbAlignedDimension
 13
19.12
 23
-29.8000000066
 33
0.0
 14
25.12
 24
-32.92310564002429
 34
0.0
 50
180.0
100
AcDbRotatedDimension
1001
ACAD
1000
DSTYLE
1002
{
1070
   340
1005
11
1002
}
  0
INSERT
  5
82F1
330
82C7
100
AcDbEntity
  8
0
100
AcDbBlockReference
  2
*U8
 10
-234.5311961722488
 20
-108.6647232036205
 30
0.0
  0
LINE
  5
82F2
330
82C7
100
AcDbEntity
  8
0
100
AcDbLine
 10
7.720000000000027
 20
-24.8
 30
0.0
 11
7.720000000000027
 21
-32.80000000000001
 31
0.0
  0
ARC
  5
82F3
330
82C7
100
AcDbEntity
  8
0
100
AcDbCircle
 10
-18.0659666924148
 20
-28.8
 30
0.0
 40
8.0
210
0.0
220
0.0
230
-1.0
100
AcDbArc
 50
330.0000000000001
 51
345.5224878140701
  0
LINE
  5
82F4
330
82C7
100
AcDbEntity
  8
0
100
AcDbLine
 10
7.720000000000027
 20
-30.8
 30
0.0
 11
10.31999999999996
 21
-30.8
 31
0.0
  0
ARC
  5
82F5
330
82C7
100
AcDbEntity
  8
0
100
AcDbCircle
 10
-18.0659666924148
 20
-28.8
 30
0.0
 40
8.0
210
0.0
220
0.0
230
-1.0
100
AcDbArc
 50
14.47751218592986
 51
29.99999999999971
  0
LINE
  5
82F6
330
82C7
100
AcDbEntity
  8
0
100
AcDbLine
 10
7.720000000000027
 20
-26.80000000000001
 30
0.0
 11
10.31999999999996
 21
-26.80000000000001
 31
0.0
  0
ARC
  5
82F7
330
82C7
100
AcDbEntity
  8
0
100
AcDbCircle
 10
17.12
 20
-28.8
 30
0.0
 40
8.0
100
AcDbArc
 50
330.0000000000001
 51
29.99999999999971
  0
CIRCLE
  5
82F8
330
82C7
100
AcDbEntity
  8
0
100
AcDbCircle
 10
19.12
 20
-28.8
 30
0.0
 40
1.8
  0
LINE
  5
82F9
330
82C7
100
AcDbEntity
  8
0
100
AcDbLine
 10
19.12
 20
-23.6
 30
0.0
 11
19.12
 21
-34.0
 31
0.0
  0
ARC
  5
82FA
330
82C7
100
AcDbEntity
  8
0
100
AcDbCircle
 10
-32.06596669241479
 20
-28.8
 30
0.0
 40
8.0
210
0.0
220
0.0
230
-1.0
100
AcDbArc
 50
330.0000000000001
 51
339.0869051817058
  0
ARC
  5
82FB
330
82C7
100
AcDbEntity
  8
0
100
AcDbCircle
 10
-32.06596669241479
 20
-28.8
 30
0.0
 40
8.0
210
0.0
220
0.0
230
-1.0
100
AcDbArc
 50
20.91309481829421
 51
29.99999999999971
  0
TEXT
  5
82FC
330
82C7
100
AcDbEntity
  8
0
100
AcDbText
 10
46.12168764323729
 20
-47.66992576698525
 30
0.0
 40
2.5
  1
turned 45
 41
0.8116586538461458
  7
UGMTXT
100
AcDbText
  0
TEXT
  5
82FD
330
82C7
100
AcDbEntity
  8
0
100
AcDbText
 10
46.12168764323729
 20
-43.91992576698524
 30
0.0
 40
2.5
  1
Stud can be
 41
0.8081054687499921
  7
UGMTXT
100
AcDbText
  0
DIMENSION
  5
82FE
330
82C7
100
AcDbEntity
  8
0
100
AcDbDimension
  2
*D22
 10
39.11999999999999
 20
-44.18177856479649
 30
0.0
 11
36.12
 21
-44.18177856479649
 31
0.0
 12
-234.5311961722488
 22
-108.6647232036205
 32
0.0
  3
STANDARD
100
AcDbAlignedDimension
 13
33.11999999999999
 23
-29.8000000066
 33
0.0
 14
39.11999999999999
 24
-32.92310564002429
 34
0.0
 50
180.0
100
AcDbRotatedDimension
1001
ACAD
1000
DSTYLE
1002
{
1070
   340
1005
11
1002
}
  0
DIMENSION
  5
82FF
330
82C7
100
AcDbEntity
  8
0
100
AcDbDimension
  2
*D23
 10
53.21880382965114
 20
-24.8
 30
0.0
 11
53.21880382965114
 21
-28.79999999999996
 31
0.0
 12
-234.5311961722488
 22
-108.6647232036205
 32
0.0
  3
STANDARD
100
AcDbAlignedDimension
 13
38.04820323027547
 23
-32.80000000000001
 33
0.0
 14
38.04820323027547
 24
-24.8
 34
0.0
 50
270.0
100
AcDbRotatedDimension
1001
ACAD
1000
DSTYLE
1002
{
1070
   340
1005
11
1002
}
  0
CIRCLE
  5
8300
330
82C7
100
AcDbEntity
  8
0
100
AcDbCircle
 10
33.11999999999999
 20
-28.8
 30
0.0
 40
1.8
  0
ARC
  5
8301
330
82C7
100
AcDbEntity
  8
0
100
AcDbCircle
 10
31.12
 20
-28.8
 30
0.0
 40
8.0
100
AcDbArc
 50
330.0000000000001
 51
29.99999999999971
  0
LINE
  5
8302
330
82C7
100
AcDbEntity
  8
0
100
AcDbLine
 10
33.11999999999999
 20
-23.6
 30
0.0
 11
33.11999999999999
 21
-34.0
 31
0.0
  0
TEXT
  5
8303
330
82C7
100
AcDbEntity
  8
0
100
AcDbText
 10
64.49151233339147
 20
-47.64279706231334
 30
0.0
 40
2.5
  1
,
 41
1.189062499999988
  7
UGMTXT
100
AcDbText
  0
TEXT
  5
8304
330
82C7
100
AcDbEntity
  8
0
100
AcDbText
 10
63.95762514323706
 20
-47.66992576698525
 30
0.0
 40
2.5
  1
%%d
 41
1.484374999999988
  7
UGMTXT
100
AcDbText
  0
LINE
  5
8305
330
82C7
100
AcDbEntity
  8
0
100
AcDbLine
 10
-5.279999999999971
 20
28.8
 30
0.0
 11
41.11999999999992
 21
28.8
 31
0.0
  0
LINE
  5
8306
330
82C7
100
AcDbEntity
  8
0
100
AcDbLine
 10
26.51999999999992
 20
30.0
 30
0.0
 11
39.11999999999999
 21
30.0
 31
0.0
  0
LINE
  5
8307
330
82C7
100
AcDbEntity
  8
0
100
AcDbLine
 10
26.51999999999992
 20
27.59999999999999
 30
0.0
 11
39.11999999999999
 21
27.59999999999999
 31
0.0
  0
INSERT
  5
8308
330
82C7
100
AcDbEntity
  8
0
100
AcDbBlockReference
  2
*U10
 10
-234.5311961722488
 20
-108.6647232036205
 30
0.0
  0
LINE
  5
8309
330
82C7
100
AcDbEntity
  8
0
100
AcDbLine
 10
-3.279999999999971
 20
24.8
 30
0.0
 11
23.92
 21
24.8
 31
0.0
  0
LINE
  5
830A
330
82C7
100
AcDbEntity
  8
0
100
AcDbLine
 10
-3.279999999999971
 20
32.80000000000001
 30
0.0
 11
23.92
 21
32.80000000000001
 31
0.0
  0
LINE
  5
830B
330
82C7
100
AcDbEntity
  8
0
100
AcDbLine
 10
-3.279999999999971
 20
33.0
 30
0.0
 11
-3.279999999999971
 21
45.0
 31
0.0
  0
LINE
  5
830C
330
82C7
100
AcDbEntity
  8
0
100
AcDbLine
 10
10.31999999999996
 20
27.59999999999999
 30
0.0
 11
25.12
 21
27.59999999999999
 31
0.0
  0
LINE
  5
830D
330
82C7
100
AcDbEntity
  8
0
100
AcDbLine
 10
10.31999999999996
 20
30.0
 30
0.0
 11
25.12
 21
30.0
 31
0.0
  0
LINE
  5
830E
330
82C7
100
AcDbEntity
  8
0
100
AcDbLine
 10
10.31999999999996
 20
30.8
 30
0.0
 11
10.31999999999996
 21
30.0
 31
0.0
  0
LINE
  5
830F
330
82C7
100
AcDbEntity
  8
0
100
AcDbLine
 10
7.720000000000027
 20
32.80000000000001
 30
0.0
 11
7.720000000000027
 21
24.8
 31
0.0
  0
LINE
  5
8310
330
82C7
100
AcDbEntity
  8
0
100
AcDbLine
 10
10.31999999999996
 20
27.59999999999999
 30
0.0
 11
10.31999999999996
 21
26.80000000000001
 31
0.0
  0
LINE
  5
8311
330
82C7
100
AcDbEntity
  8
0
100
AcDbLine
 10
7.720000000000027
 20
26.80000000000001
 30
0.0
 11
10.31999999999996
 21
26.80000000000001
 31
0.0
  0
LINE
  5
8312
330
82C7
100
AcDbEntity
  8
0
100
AcDbLine
 10
7.720000000000027
 20
30.8
 30
0.0
 11
10.31999999999996
 21
30.8
 31
0.0
  0
LINE
  5
8313
330
82C7
100
AcDbEntity
  8
0
100
AcDbLine
 10
23.92
 20
32.80000000000001
 30
0.0
 11
23.92
 21
30.0
 31
0.0
  0
LINE
  5
8314
330
82C7
100
AcDbEntity
  8
0
100
AcDbLine
 10
26.51999999999998
 20
30.8
 30
0.0
 11
26.51999999999998
 21
30.0
 31
0.0
  0
LINE
  5
8315
330
82C7
100
AcDbEntity
  8
0
100
AcDbLine
 10
19.12
 20
34.0
 30
0.0
 11
19.12
 21
23.59999999999998
 31
0.0
  0
LINE
  5
8316
330
82C7
100
AcDbEntity
  8
0
100
AcDbLine
 10
23.92
 20
27.59999999999999
 30
0.0
 11
23.92
 21
24.8
 31
0.0
  0
LINE
  5
8317
330
82C7
100
AcDbEntity
  8
0
100
AcDbLine
 10
23.92
 20
26.80000000000001
 30
0.0
 11
26.51999999999998
 21
26.80000000000001
 31
0.0
  0
LINE
  5
8318
330
82C7
100
AcDbEntity
  8
0
100
AcDbLine
 10
25.12
 20
27.59999999999999
 30
0.0
 11
25.12
 21
30.0
 31
0.0
  0
LINE
  5
8319
330
82C7
100
AcDbEntity
  8
0
100
AcDbLine
 10
26.51999999999998
 20
27.59999999999999
 30
0.0
 11
26.51999999999998
 21
26.80000000000001
 31
0.0
  0
LINE
  5
831A
330
82C7
100
AcDbEntity
  8
0
100
AcDbLine
 10
23.92
 20
30.8
 30
0.0
 11
26.51999999999998
 21
30.8
 31
0.0
  0
TEXT
  5
831B
330
82C7
100
AcDbEntity
  8
0
100
AcDbText
 10
6.721407994417856
 20
43.68527679637938
 30
0.0
 40
2.5
  1
(max. t3.2)
 41
0.8081054687500007
  7
UGMTXT
100
AcDbText
  0
TEXT
  5
831C
330
82C7
100
AcDbEntity
  8
0
100
AcDbText
 10
6.721407994417856
 20
48.68527679637939
 30
0.0
 40
2.5
  1
Mounting plate
 41
0.8047256097560964
  7
UGMTXT
100
AcDbText
  0
DIMENSION
  5
831D
330
82C7
100
AcDbEntity
  8
0
100
AcDbDimension
  2
*D24
 10
53.21880382965114
 20
30.0
 30
0.0
 11
53.21880382965111
 21
28.8
 31
0.0
 12
-234.5311961722488
 22
-108.6647232036205
 32
0.0
  3
STANDARD
100
AcDbAlignedDimension
 13
39.11999999999999
 23
27.59999999999999
 33
0.0
 14
39.11999999999999
 24
30.0
 34
0.0
 50
270.0
100
AcDbRotatedDimension
1001
ACAD
1000
DSTYLE
1002
{
1070
   340
1005
11
1002
}
  0
LINE
  5
831E
330
82C7
100
AcDbEntity
  8
0
100
AcDbLine
 10
33.11999999999999
 20
34.0
 30
0.0
 11
33.11999999999999
 21
23.59999999999998
 31
0.0
  0
LINE
  5
831F
330
82C7
100
AcDbEntity
  8
0
100
AcDbLine
 10
39.11999999999999
 20
27.59999999999999
 30
0.0
 11
39.11999999999999
 21
30.0
 31
0.0
  0
INSERT
  5
8320
330
82C7
100
AcDbEntity
  8
0
100
AcDbBlockReference
  2
*U4
 10
-234.5311961722488
 20
-108.6647232036205
 30
0.0
  0
INSERT
  5
8321
330
82C7
100
AcDbEntity
  8
0
100
AcDbBlockReference
  2
*U11
 10
-234.5311961722488
 20
-108.6647232036205
 30
0.0
  0
TEXT
  5
8322
330
82C7
100
AcDbEntity
  8
0
100
AcDbText
 10
70.64512514323695
 20
-47.66992576698525
 30
0.0
 40
2.5
  1
%%d
 41
1.484374999999988
  7
UGMTXT
100
AcDbText
  0
TEXT
  5
8323
330
82C7
100
AcDbEntity
  8
0
100
AcDbText
 10
66.68158347657038
 20
-47.66992576698525
 30
0.0
 40
2.5
  1
90
 41
0.8912499999999909
  7
UGMTXT
100
AcDbText
  0
ENDBLK
  5
8325
330
82C7
100
AcDbEntity
  8
0
100
AcDbBlockEnd
  0
BLOCK
  5
887A
330
8870
100
AcDbEntity
  8
0
100
AcDbBlockBegin
  2
*D26
 70
     1
 10
0.0
 20
0.0
 30
0.0
  3
*D26
  1

  0
LINE
  5
93A3
330
8870
100
AcDbEntity
  8
30
  6
CONTINUOUS
 62
     0
100
AcDbLine
 10
495.7477437855064
 20
-99.00000000000069
 30
0.0
 11
515.4919719080878
 21
-99.00000000000069
 31
0.0
  0
LINE
  5
93A4
330
8870
100
AcDbEntity
  8
30
  6
CONTINUOUS
 62
     0
100
AcDbLine
 10
495.7477437855064
 20
-129.0000000000004
 30
0.0
 11
515.4919719080878
 21
-129.0000000000004
 31
0.0
  0
LINE
  5
93A5
330
8870
100
AcDbEntity
  8
30
  6
CONTINUOUS
 62
     0
100
AcDbLine
 10
514.9919719080878
 20
-101.0000000000006
 30
0.0
 11
514.9919719080878
 21
-127.0000000000004
 31
0.0
  0
INSERT
  5
93A6
330
8870
100
AcDbEntity
  8
30
  6
CONTINUOUS
 62
     0
100
AcDbBlockReference
  2
_OPEN
 10
514.9919719080878
 20
-99.00000000000069
 30
0.0
 41
2.0
 42
2.0
 43
2.0
 50
90.0
  0
INSERT
  5
93A7
330
8870
100
AcDbEntity
  8
30
  6
CONTINUOUS
 62
     0
100
AcDbBlockReference
  2
_OPEN
 10
514.9919719080878
 20
-129.0000000000004
 30
0.0
 41
2.0
 42
2.0
 43
2.0
 50
270.0
  0
MTEXT
  5
93A8
330
8870
100
AcDbEntity
  8
30
  6
CONTINUOUS
 62
     0
100
AcDbMText
 10
510.9919719080878
 20
-114.0000000000005
 30
0.0
 40
6.0
 41
0.0
 71
     5
 72
     1
  1
\A1;30
 11
0.0000000000000001
 21
1.0
 31
0.0
1001
ACAD
1000
MTEXTBEGIN
1070
    73
1070
     1
1070
    44
1040
1.0
1070
    74
1070
     0
1000
MTEXTEND
1000
MTEXTBEGIN
1070
    73
1070
     1
1070
    44
1040
1.0
1070
    74
1070
     0
1000
MTEXTEND
1000
MTEXTBEGIN
1070
    73
1070
     1
1070
    44
1040
1.0
1070
    74
1070
     0
1000
MTEXTEND
  0
POINT
  5
93A9
330
8870
100
AcDbEntity
  8
DEFPOINTS
  6
CONTINUOUS
 62
     0
100
AcDbPoint
 10
494.7477437855062
 20
-99.00000000000069
 30
0.0
  0
POINT
  5
93AA
330
8870
100
AcDbEntity
  8
DEFPOINTS
  6
CONTINUOUS
 62
     0
100
AcDbPoint
 10
494.7477437855062
 20
-129.0000000000004
 30
0.0
  0
POINT
  5
93AB
330
8870
100
AcDbEntity
  8
DEFPOINTS
  6
CONTINUOUS
 62
     0
100
AcDbPoint
 10
514.9919719080878
 20
-129.0000000000004
 30
0.0
  0
ENDBLK
  5
887B
330
8870
100
AcDbEntity
  8
0
100
AcDbBlockEnd
  0
BLOCK
  5
8887
330
887D
100
AcDbEntity
  8
0
100
AcDbBlockBegin
  2
*D27
 70
     1
 10
0.0
 20
0.0
 30
0.0
  3
*D27
  1

  0
LINE
  5
9392
330
887D
100
AcDbEntity
  8
30
  6
CONTINUOUS
 62
     0
100
AcDbLine
 10
503.7477437855064
 20
114.0000000000001
 30
0.0
 11
527.7211655862108
 21
114.0000000000001
 31
0.0
  0
LINE
  5
9393
330
887D
100
AcDbEntity
  8
30
  6
CONTINUOUS
 62
     0
100
AcDbLine
 10
503.7477437855064
 20
-114.0000000000007
 30
0.0
 11
527.7211655862108
 21
-114.0000000000007
 31
0.0
  0
LINE
  5
9394
330
887D
100
AcDbEntity
  8
30
  6
CONTINUOUS
 62
     0
100
AcDbLine
 10
527.2211655862109
 20
112.0
 30
0.0
 11
527.2211655862109
 21
-112.0000000000006
 31
0.0
  0
INSERT
  5
9395
330
887D
100
AcDbEntity
  8
30
  6
CONTINUOUS
 62
     0
100
AcDbBlockReference
  2
_OPEN
 10
527.2211655862109
 20
114.0000000000001
 30
0.0
 41
2.0
 42
2.0
 43
2.0
 50
90.0
  0
INSERT
  5
9396
330
887D
100
AcDbEntity
  8
30
  6
CONTINUOUS
 62
     0
100
AcDbBlockReference
  2
_OPEN
 10
527.2211655862109
 20
-114.0000000000007
 30
0.0
 41
2.0
 42
2.0
 43
2.0
 50
270.0
  0
MTEXT
  5
9397
330
887D
100
AcDbEntity
  8
30
  6
CONTINUOUS
 62
     0
100
AcDbMText
 10
523.2211655862109
 20
-0.0000000000002094
 30
0.0
 40
6.0
 41
0.0
 71
     5
 72
     1
  1
\A1;228
 11
0.0000000000000001
 21
1.0
 31
0.0
1001
ACAD
1000
MTEXTBEGIN
1070
    73
1070
     1
1070
    44
1040
1.0
1070
    74
1070
     0
1000
MTEXTEND
1000
MTEXTBEGIN
1070
    73
1070
     1
1070
    44
1040
1.0
1070
    74
1070
     0
1000
MTEXTEND
1000
MTEXTBEGIN
1070
    73
1070
     1
1070
    44
1040
1.0
1070
    74
1070
     0
1000
MTEXTEND
  0
POINT
  5
9398
330
887D
100
AcDbEntity
  8
DEFPOINTS
  6
CONTINUOUS
 62
     0
100
AcDbPoint
 10
502.7477437855061
 20
114.0000000000001
 30
0.0
  0
POINT
  5
9399
330
887D
100
AcDbEntity
  8
DEFPOINTS
  6
CONTINUOUS
 62
     0
100
AcDbPoint
 10
502.7477437855061
 20
-114.0000000000007
 30
0.0
  0
POINT
  5
939A
330
887D
100
AcDbEntity
  8
DEFPOINTS
  6
CONTINUOUS
 62
     0
100
AcDbPoint
 10
527.2211655862109
 20
-114.0000000000007
 30
0.0
  0
ENDBLK
  5
8888
330
887D
100
AcDbEntity
  8
0
100
AcDbBlockEnd
  0
BLOCK
  5
8959
330
8950
100
AcDbEntity
  8
0
100
AcDbBlockBegin
  2
*D28
 70
     1
 10
0.0
 20
0.0
 30
0.0
  3
*D28
  1

  0
LINE
  5
939B
330
8950
100
AcDbEntity
  8
30
  6
CONTINUOUS
 62
     0
100
AcDbLine
 10
511.7607797751523
 20
-75.3983811832914
 30
0.0
 11
496.7607797751518
 21
-75.39838118329139
 31
0.0
  0
LINE
  5
939C
330
8950
100
AcDbEntity
  8
30
  6
CONTINUOUS
 62
     0
100
AcDbLine
 10
496.7607797751518
 20
-75.39838118329139
 30
0.0
 11
483.1758027902878
 21
-106.2219275228542
 31
0.0
  0
MTEXT
  5
939D
330
8950
100
AcDbEntity
  8
30
  6
CONTINUOUS
 62
     0
100
AcDbMText
 10
504.7607797751522
 20
-71.39838118329134
 30
0.0
 40
6.0
 41
0.0
 71
     5
 72
     1
  1
\A1;\U+220513
1001
ACAD
1000
MTEXTBEGIN
1070
    73
1070
     1
1070
    44
1040
1.0
1070
    74
1070
     0
1000
MTEXTEND
1000
MTEXTBEGIN
1070
    73
1070
     1
1070
    44
1040
1.0
1070
    74
1070
     0
1000
MTEXTEND
1000
MTEXTBEGIN
1070
    73
1070
     1
1070
    44
1040
1.0
1070
    74
1070
     0
1000
MTEXTEND
  0
INSERT
  5
939E
330
8950
100
AcDbEntity
  8
30
  6
CONTINUOUS
 62
     0
100
AcDbBlockReference
  2
_OPEN
 10
482.3692006715156
 20
-108.0520622233594
 30
0.0
 41
2.0
 42
2.0
 43
2.0
 50
246.2152934870923
  0
LINE
  5
939F
330
8950
100
AcDbEntity
  8
30
  6
CONTINUOUS
 62
     0
100
AcDbLine
 10
479.6577437855065
 20
-114.0000000000005
 30
0.0
 11
479.8377437855062
 21
-114.0000000000005
 31
0.0
  0
LINE
  5
93A0
330
8950
100
AcDbEntity
  8
30
  6
CONTINUOUS
 62
     0
100
AcDbLine
 10
479.7477437855063
 20
-114.0900000000005
 30
0.0
 11
479.7477437855063
 21
-113.9100000000003
 31
0.0
  0
POINT
  5
93A1
330
8950
100
AcDbEntity
  8
DEFPOINTS
  6
CONTINUOUS
 62
     0
100
AcDbPoint
 10
482.3692006715156
 20
-108.0520622233594
 30
0.0
  0
POINT
  5
93A2
330
8950
100
AcDbEntity
  8
DEFPOINTS
  6
CONTINUOUS
 62
     0
100
AcDbPoint
 10
477.1262868994972
 20
-119.9479377766414
 30
0.0
  0
ENDBLK
  5
895A
330
8950
100
AcDbEntity
  8
0
100
AcDbBlockEnd
  0
BLOCK
  5
8E2C
330
8E23
100
AcDbEntity
  8
0
100
AcDbBlockBegin
  2
*D29
 70
     1
 10
0.0
 20
0.0
 30
0.0
  3
*D29
  1

  0
LINE
  5
9991
330
8E23
100
AcDbEntity
  8
30
  6
CONTINUOUS
 62
     0
100
AcDbLine
 10
-107.7206689410614
 20
-513.1455345229753
 30
0.0
 11
-90.72066894106148
 21
-513.1455345229753
 31
0.0
  0
LINE
  5
9992
330
8E23
100
AcDbEntity
  8
30
  6
CONTINUOUS
 62
     0
100
AcDbLine
 10
-90.72066894106148
 20
-513.1455345229753
 30
0.0
 11
-60.19229002851045
 21
-487.0074718408156
 31
0.0
  0
MTEXT
  5
9993
330
8E23
100
AcDbEntity
  8
30
  6
CONTINUOUS
 62
     0
100
AcDbMText
 10
-99.72066894106152
 20
-509.1455345229754
 30
0.0
 40
6.0
 41
0.0
 71
     5
 72
     1
  1
\A1;\U+220536
  0
INSERT
  5
9994
330
8E23
100
AcDbEntity
  8
30
  6
CONTINUOUS
 62
     0
100
AcDbBlockReference
  2
_OPEN
 10
-58.67306102565942
 20
-485.7067246567341
 30
0.0
 41
2.0
 42
2.0
 43
2.0
 50
40.56977503654605
  0
LINE
  5
9995
330
8E23
100
AcDbEntity
  8
30
  6
CONTINUOUS
 62
     0
100
AcDbLine
 10
-45.08999999999978
 20
-473.9999999999999
 30
0.0
 11
-44.90999999999977
 21
-473.9999999999999
 31
0.0
  0
LINE
  5
9996
330
8E23
100
AcDbEntity
  8
30
  6
CONTINUOUS
 62
     0
100
AcDbLine
 10
-44.99999999999977
 20
-474.0899999999999
 30
0.0
 11
-44.99999999999983
 21
-473.9099999999999
 31
0.0
  0
POINT
  5
9997
330
8E23
100
AcDbEntity
  8
DEFPOINTS
  6
CONTINUOUS
 62
     0
100
AcDbPoint
 10
-58.67306102565942
 20
-485.7067246567341
 30
0.0
  0
POINT
  5
9998
330
8E23
100
AcDbEntity
  8
DEFPOINTS
  6
CONTINUOUS
 62
     0
100
AcDbPoint
 10
-31.32693897434006
 20
-462.2932753432656
 30
0.0
  0
ENDBLK
  5
8E2D
330
8E23
100
AcDbEntity
  8
0
100
AcDbBlockEnd
  0
BLOCK
  5
8E38
330
8E2F
100
AcDbEntity
  8
0
100
AcDbBlockBegin
  2
*D30
 70
     1
 10
0.0
 20
0.0
 30
0.0
  3
*D30
  1

  0
LINE
  5
9999
330
8E2F
100
AcDbEntity
  8
30
  6
CONTINUOUS
 62
     0
100
AcDbLine
 10
-42.74744083389138
 20
-214.0023890902474
 30
0.0
 11
-31.74744083389136
 21
-214.0023890902475
 31
0.0
  0
LINE
  5
999A
330
8E2F
100
AcDbEntity
  8
30
  6
CONTINUOUS
 62
     0
100
AcDbLine
 10
-31.74744083389136
 20
-214.0023890902475
 30
0.0
 11
-23.65365071662139
 21
-248.1349110980332
 31
0.0
  0
MTEXT
  5
999B
330
8E2F
100
AcDbEntity
  8
30
  6
CONTINUOUS
 62
     0
100
AcDbMText
 10
-37.74744083389134
 20
-210.0023890902475
 30
0.0
 40
6.0
 41
0.0
 71
     5
 72
     1
  1
\A1;M6
  0
INSERT
  5
999C
330
8E2F
100
AcDbEntity
  8
30
  6
CONTINUOUS
 62
     0
100
AcDbBlockReference
  2
_OPEN
 10
-23.19219042997284
 20
-250.0809466588199
 30
0.0
 41
2.0
 42
2.0
 43
2.0
 50
283.3400621368922
  0
LINE
  5
999D
330
8E2F
100
AcDbEntity
  8
30
  6
CONTINUOUS
 62
     0
100
AcDbLine
 10
-22.59000000000002
 20
-252.9999999999999
 30
0.0
 11
-22.41
 21
-252.9999999999999
 31
0.0
  0
LINE
  5
999E
330
8E2F
100
AcDbEntity
  8
30
  6
CONTINUOUS
 62
     0
100
AcDbLine
 10
-22.50000000000002
 20
-253.0899999999999
 30
0.0
 11
-22.50000000000001
 21
-252.9099999999998
 31
0.0
  0
POINT
  5
999F
330
8E2F
100
AcDbEntity
  8
DEFPOINTS
  6
CONTINUOUS
 62
     0
100
AcDbPoint
 10
-23.19219042997284
 20
-250.0809466588199
 30
0.0
  0
POINT
  5
99A0
330
8E2F
100
AcDbEntity
  8
DEFPOINTS
  6
CONTINUOUS
 62
     0
100
AcDbPoint
 10
-21.80780957002717
 20
-255.9190533411799
 30
0.0
  0
ENDBLK
  5
8E39
330
8E2F
100
AcDbEntity
  8
0
100
AcDbBlockEnd
  0
BLOCK
  5
8E4D
330
8E43
100
AcDbEntity
  8
0
100
AcDbBlockBegin
  2
*D31
 70
     1
 10
0.0
 20
0.0
 30
0.0
  3
*D31
  1

  0
LINE
  5
95FA
330
8E43
100
AcDbEntity
  8
30
  6
CONTINUOUS
 62
     0
100
AcDbLine
 10
64.00000000000045
 20
-246.0
 30
0.0
 11
165.5739101136593
 21
-246.0
 31
0.0
  0
LINE
  5
95FB
330
8E43
100
AcDbEntity
  8
30
  6
CONTINUOUS
 62
     0
100
AcDbLine
 10
64.00000000000047
 20
-474.0
 30
0.0
 11
165.5739101136593
 21
-474.0000000000001
 31
0.0
  0
LINE
  5
95FC
330
8E43
100
AcDbEntity
  8
30
  6
CONTINUOUS
 62
     0
100
AcDbLine
 10
165.0739101136593
 20
-248.0
 30
0.0
 11
165.0739101136593
 21
-472.0
 31
0.0
  0
INSERT
  5
95FD
330
8E43
100
AcDbEntity
  8
30
  6
CONTINUOUS
 62
     0
100
AcDbBlockReference
  2
_OPEN
 10
165.0739101136593
 20
-246.0
 30
0.0
 41
2.0
 42
2.0
 43
2.0
 50
90.0
  0
INSERT
  5
95FE
330
8E43
100
AcDbEntity
  8
30
  6
CONTINUOUS
 62
     0
100
AcDbBlockReference
  2
_OPEN
 10
165.0739101136593
 20
-474.0000000000001
 30
0.0
 41
2.0
 42
2.0
 43
2.0
 50
270.0
  0
MTEXT
  5
95FF
330
8E43
100
AcDbEntity
  8
30
  6
CONTINUOUS
 62
     0
100
AcDbMText
 10
161.0739101136593
 20
-360.0
 30
0.0
 40
6.0
 41
0.0
 71
     5
 72
     1
  1
\A1;228
 11
0.0000000000000001
 21
1.0
 31
0.0
1001
ACAD
1000
MTEXTBEGIN
1070
    73
1070
     1
1070
    44
1040
1.0
1070
    74
1070
     0
1000
MTEXTEND
1000
MTEXTBEGIN
1070
    73
1070
     1
1070
    44
1040
1.0
1070
    74
1070
     0
1000
MTEXTEND
1000
MTEXTBEGIN
1070
    73
1070
     1
1070
    44
1040
1.0
1070
    74
1070
     0
1000
MTEXTEND
  0
POINT
  5
9600
330
8E43
100
AcDbEntity
  8
DEFPOINTS
  6
CONTINUOUS
 62
     0
100
AcDbPoint
 10
63.00000000000046
 20
-246.0
 30
0.0
  0
POINT
  5
9601
330
8E43
100
AcDbEntity
  8
DEFPOINTS
  6
CONTINUOUS
 62
     0
100
AcDbPoint
 10
63.00000000000046
 20
-474.0
 30
0.0
  0
POINT
  5
9602
330
8E43
100
AcDbEntity
  8
DEFPOINTS
  6
CONTINUOUS
 62
     0
100
AcDbPoint
 10
165.0739101136593
 20
-474.0000000000001
 30
0.0
  0
ENDBLK
  5
8E4E
330
8E43
100
AcDbEntity
  8
0
100
AcDbBlockEnd
  0
BLOCK
  5
8E5A
330
8E50
100
AcDbEntity
  8
0
100
AcDbBlockBegin
  2
*D32
 70
     1
 10
0.0
 20
0.0
 30
0.0
  3
*D32
  1

  0
LINE
  5
95F1
330
8E50
100
AcDbEntity
  8
30
  6
CONTINUOUS
 62
     0
100
AcDbLine
 10
30.5
 20
-253.0
 30
0.0
 11
144.821147197941
 21
-253.0
 31
0.0
  0
LINE
  5
95F2
330
8E50
100
AcDbEntity
  8
30
  6
CONTINUOUS
 62
     0
100
AcDbLine
 10
30.5
 20
-467.0
 30
0.0
 11
144.821147197941
 21
-467.0
 31
0.0
  0
LINE
  5
95F3
330
8E50
100
AcDbEntity
  8
30
  6
CONTINUOUS
 62
     0
100
AcDbLine
 10
144.321147197941
 20
-255.0
 30
0.0
 11
144.321147197941
 21
-465.0
 31
0.0
  0
INSERT
  5
95F4
330
8E50
100
AcDbEntity
  8
30
  6
CONTINUOUS
 62
     0
100
AcDbBlockReference
  2
_OPEN
 10
144.321147197941
 20
-253.0
 30
0.0
 41
2.0
 42
2.0
 43
2.0
 50
90.0
  0
INSERT
  5
95F5
330
8E50
100
AcDbEntity
  8
30
  6
CONTINUOUS
 62
     0
100
AcDbBlockReference
  2
_OPEN
 10
144.321147197941
 20
-467.0
 30
0.0
 41
2.0
 42
2.0
 43
2.0
 50
270.0
  0
MTEXT
  5
95F6
330
8E50
100
AcDbEntity
  8
30
  6
CONTINUOUS
 62
     0
100
AcDbMText
 10
140.3211471979409
 20
-360.0
 30
0.0
 40
6.0
 41
0.0
 71
     5
 72
     1
  1
\A1;214
 11
0.0000000000000001
 21
1.0
 31
0.0
1001
ACAD
1000
MTEXTBEGIN
1070
    73
1070
     1
1070
    44
1040
1.0
1070
    74
1070
     0
1000
MTEXTEND
1000
MTEXTBEGIN
1070
    73
1070
     1
1070
    44
1040
1.0
1070
    74
1070
     0
1000
MTEXTEND
1000
MTEXTBEGIN
1070
    73
1070
     1
1070
    44
1040
1.0
1070
    74
1070
     0
1000
MTEXTEND
  0
POINT
  5
95F7
330
8E50
100
AcDbEntity
  8
DEFPOINTS
  6
CONTINUOUS
 62
     0
100
AcDbPoint
 10
29.5
 20
-253.0
 30
0.0
  0
POINT
  5
95F8
330
8E50
100
AcDbEntity
  8
DEFPOINTS
  6
CONTINUOUS
 62
     0
100
AcDbPoint
 10
29.5
 20
-467.0
 30
0.0
  0
POINT
  5
95F9
330
8E50
100
AcDbEntity
  8
DEFPOINTS
  6
CONTINUOUS
 62
     0
100
AcDbPoint
 10
144.321147197941
 20
-467.0
 30
0.0
  0
ENDBLK
  5
8E5B
330
8E50
100
AcDbEntity
  8
0
100
AcDbBlockEnd
  0
BLOCK
  5
93B7
330
93AD
100
AcDbEntity
  8
0
100
AcDbBlockBegin
  2
*D33
 70
     1
 10
0.0
 20
0.0
 30
0.0
  3
*D33
  1

  0
LINE
  5
93AE
330
93AD
100
AcDbEntity
  8
30
  6
CONTINUOUS
 62
     0
100
AcDbLine
 10
251.7477437855069
 20
-131.0
 30
0.0
 11
251.7477437855069
 21
-167.0532887500314
 31
0.0
  0
LINE
  5
93AF
330
93AD
100
AcDbEntity
  8
30
  6
CONTINUOUS
 62
     0
100
AcDbLine
 10
385.747743785507
 20
-131.0
 30
0.0
 11
385.747743785507
 21
-167.0532887500314
 31
0.0
  0
LINE
  5
93B0
330
93AD
100
AcDbEntity
  8
30
  6
CONTINUOUS
 62
     0
100
AcDbLine
 10
253.7477437855069
 20
-166.5532887500315
 30
0.0
 11
383.747743785507
 21
-166.5532887500315
 31
0.0
  0
INSERT
  5
93B1
330
93AD
100
AcDbEntity
  8
30
  6
CONTINUOUS
 62
     0
100
AcDbBlockReference
  2
_OPEN
 10
251.7477437855069
 20
-166.5532887500315
 30
0.0
 41
2.0
 42
2.0
 43
2.0
 50
180.0
  0
INSERT
  5
93B2
330
93AD
100
AcDbEntity
  8
30
  6
CONTINUOUS
 62
     0
100
AcDbBlockReference
  2
_OPEN
 10
385.747743785507
 20
-166.5532887500315
 30
0.0
 41
2.0
 42
2.0
 43
2.0
  0
MTEXT
  5
93B3
330
93AD
100
AcDbEntity
  8
30
  6
CONTINUOUS
 62
     0
100
AcDbMText
 10
318.7477437855068
 20
-162.5532887500314
 30
0.0
 40
6.0
 41
0.0
 71
     5
 72
     1
  1
\A1;134
1001
ACAD
1000
MTEXTBEGIN
1070
    73
1070
     1
1070
    44
1040
1.0
1070
    74
1070
     0
1000
MTEXTEND
1000
MTEXTBEGIN
1070
    73
1070
     1
1070
    44
1040
1.0
1070
    74
1070
     0
1000
MTEXTEND
1000
MTEXTBEGIN
1070
    73
1070
     1
1070
    44
1040
1.0
1070
    74
1070
     0
1000
MTEXTEND
  0
POINT
  5
93B4
330
93AD
100
AcDbEntity
  8
DEFPOINTS
  6
CONTINUOUS
 62
     0
100
AcDbPoint
 10
251.7477437855069
 20
-130.0
 30
0.0
  0
POINT
  5
93B5
330
93AD
100
AcDbEntity
  8
DEFPOINTS
  6
CONTINUOUS
 62
     0
100
AcDbPoint
 10
385.747743785507
 20
-130.0
 30
0.0
  0
POINT
  5
93B6
330
93AD
100
AcDbEntity
  8
DEFPOINTS
  6
CONTINUOUS
 62
     0
100
AcDbPoint
 10
385.747743785507
 20
-166.5532887500315
 30
0.0
  0
ENDBLK
  5
93B8
330
93AD
100
AcDbEntity
  8
0
100
AcDbBlockEnd
  0
BLOCK
  5
93C4
330
93BA
100
AcDbEntity
  8
0
100
AcDbBlockBegin
  2
*D34
 70
     1
 10
0.0
 20
0.0
 30
0.0
  3
*D34
  1

  0
LINE
  5
9400
330
93BA
100
AcDbEntity
  8
30
  6
CONTINUOUS
 62
     0
100
AcDbLine
 10
245.7477437855069
 20
-51.99999999999988
 30
0.0
 11
245.7477437855069
 21
-187.2791744557815
 31
0.0
  0
LINE
  5
9401
330
93BA
100
AcDbEntity
  8
30
  6
CONTINUOUS
 62
     0
100
AcDbLine
 10
385.747743785507
 20
-168.0532887500314
 30
0.0
 11
385.747743785507
 21
-187.2791744557815
 31
0.0
  0
LINE
  5
9402
330
93BA
100
AcDbEntity
  8
30
  6
CONTINUOUS
 62
     0
100
AcDbLine
 10
247.7477437855069
 20
-186.7791744557816
 30
0.0
 11
383.747743785507
 21
-186.7791744557816
 31
0.0
  0
INSERT
  5
9403
330
93BA
100
AcDbEntity
  8
30
  6
CONTINUOUS
 62
     0
100
AcDbBlockReference
  2
_OPEN
 10
245.7477437855069
 20
-186.7791744557816
 30
0.0
 41
2.0
 42
2.0
 43
2.0
 50
180.0
  0
INSERT
  5
9404
330
93BA
100
AcDbEntity
  8
30
  6
CONTINUOUS
 62
     0
100
AcDbBlockReference
  2
_OPEN
 10
385.747743785507
 20
-186.7791744557816
 30
0.0
 41
2.0
 42
2.0
 43
2.0
  0
MTEXT
  5
9405
330
93BA
100
AcDbEntity
  8
30
  6
CONTINUOUS
 62
     0
100
AcDbMText
 10
315.747743785507
 20
-182.7791744557815
 30
0.0
 40
6.0
 41
0.0
 71
     5
 72
     1
  1
\A1;140
1001
ACAD
1000
MTEXTBEGIN
1070
    73
1070
     1
1070
    44
1040
1.0
1070
    74
1070
     0
1000
MTEXTEND
1000
MTEXTBEGIN
1070
    73
1070
     1
1070
    44
1040
1.0
1070
    74
1070
     0
1000
MTEXTEND
1000
MTEXTBEGIN
1070
    73
1070
     1
1070
    44
1040
1.0
1070
    74
1070
     0
1000
MTEXTEND
  0
POINT
  5
9406
330
93BA
100
AcDbEntity
  8
DEFPOINTS
  6
CONTINUOUS
 62
     0
100
AcDbPoint
 10
245.7477437855069
 20
-50.99999999999988
 30
0.0
  0
POINT
  5
9407
330
93BA
100
AcDbEntity
  8
DEFPOINTS
  6
CONTINUOUS
 62
     0
100
AcDbPoint
 10
385.747743785507
 20
-167.0532887500314
 30
0.0
  0
POINT
  5
9408
330
93BA
100
AcDbEntity
  8
DEFPOINTS
  6
CONTINUOUS
 62
     0
100
AcDbPoint
 10
385.747743785507
 20
-186.7791744557816
 30
0.0
  0
ENDBLK
  5
93C5
330
93BA
100
AcDbEntity
  8
0
100
AcDbBlockEnd
  0
BLOCK
  5
93D1
330
93C7
100
AcDbEntity
  8
0
100
AcDbBlockBegin
  2
*D35
 70
     1
 10
0.0
 20
0.0
 30
0.0
  3
*D35
  1

  0
LINE
  5
93F7
330
93C7
100
AcDbEntity
  8
30
  6
CONTINUOUS
 62
     0
100
AcDbLine
 10
241.7477437855068
 20
-45.99999999999988
 30
0.0
 11
241.7477437855068
 21
-204.8082801218943
 31
0.0
  0
LINE
  5
93F8
330
93C7
100
AcDbEntity
  8
30
  6
CONTINUOUS
 62
     0
100
AcDbLine
 10
385.747743785507
 20
-187.7791744557816
 30
0.0
 11
385.747743785507
 21
-204.8082801218943
 31
0.0
  0
LINE
  5
93F9
330
93C7
100
AcDbEntity
  8
30
  6
CONTINUOUS
 62
     0
100
AcDbLine
 10
243.7477437855068
 20
-204.3082801218943
 30
0.0
 11
383.747743785507
 21
-204.3082801218943
 31
0.0
  0
INSERT
  5
93FA
330
93C7
100
AcDbEntity
  8
30
  6
CONTINUOUS
 62
     0
100
AcDbBlockReference
  2
_OPEN
 10
241.7477437855068
 20
-204.3082801218943
 30
0.0
 41
2.0
 42
2.0
 43
2.0
 50
180.0
  0
INSERT
  5
93FB
330
93C7
100
AcDbEntity
  8
30
  6
CONTINUOUS
 62
     0
100
AcDbBlockReference
  2
_OPEN
 10
385.747743785507
 20
-204.3082801218943
 30
0.0
 41
2.0
 42
2.0
 43
2.0
  0
MTEXT
  5
93FC
330
93C7
100
AcDbEntity
  8
30
  6
CONTINUOUS
 62
     0
100
AcDbMText
 10
313.747743785507
 20
-200.3082801218943
 30
0.0
 40
6.0
 41
0.0
 71
     5
 72
     1
  1
\A1;144
1001
ACAD
1000
MTEXTBEGIN
1070
    73
1070
     1
1070
    44
1040
1.0
1070
    74
1070
     0
1000
MTEXTEND
1000
MTEXTBEGIN
1070
    73
1070
     1
1070
    44
1040
1.0
1070
    74
1070
     0
1000
MTEXTEND
1000
MTEXTBEGIN
1070
    73
1070
     1
1070
    44
1040
1.0
1070
    74
1070
     0
1000
MTEXTEND
  0
POINT
  5
93FD
330
93C7
100
AcDbEntity
  8
DEFPOINTS
  6
CONTINUOUS
 62
     0
100
AcDbPoint
 10
241.7477437855068
 20
-44.99999999999988
 30
0.0
  0
POINT
  5
93FE
330
93C7
100
AcDbEntity
  8
DEFPOINTS
  6
CONTINUOUS
 62
     0
100
AcDbPoint
 10
385.747743785507
 20
-186.7791744557816
 30
0.0
  0
POINT
  5
93FF
330
93C7
100
AcDbEntity
  8
DEFPOINTS
  6
CONTINUOUS
 62
     0
100
AcDbPoint
 10
385.747743785507
 20
-204.3082801218943
 30
0.0
  0
ENDBLK
  5
93D2
330
93C7
100
AcDbEntity
  8
0
100
AcDbBlockEnd
  0
BLOCK
  5
93DF
330
93D4
100
AcDbEntity
  8
0
100
AcDbBlockBegin
  2
*D36
 70
     1
 10
0.0
 20
0.0
 30
0.0
  3
*D36
  1

  0
LINE
  5
9409
330
93D4
100
AcDbEntity
  8
30
  6
CONTINUOUS
 62
     0
100
AcDbLine
 10
237.7477437855068
 20
-45.99999999999988
 30
0.0
 11
237.7477437855068
 21
-205.3082801218943
 31
0.0
  0
LINE
  5
940A
330
93D4
100
AcDbEntity
  8
30
  6
CONTINUOUS
 62
     0
100
AcDbLine
 10
241.7477437855068
 20
-46.99999999999988
 30
0.0
 11
241.7477437855068
 21
-205.3082801218943
 31
0.0
  0
LINE
  5
940B
330
93D4
100
AcDbEntity
  8
30
  6
CONTINUOUS
 62
     0
100
AcDbLine
 10
235.747743785507
 20
-204.8082801218943
 30
0.0
 11
233.747743785507
 21
-204.8082801218943
 31
0.0
  0
LINE
  5
940C
330
93D4
100
AcDbEntity
  8
30
  6
CONTINUOUS
 62
     0
100
AcDbLine
 10
243.7477437855068
 20
-204.8082801218943
 30
0.0
 11
251.7477437855069
 21
-204.8082801218943
 31
0.0
  0
INSERT
  5
940D
330
93D4
100
AcDbEntity
  8
30
  6
CONTINUOUS
 62
     0
100
AcDbBlockReference
  2
_OPEN
 10
237.7477437855068
 20
-204.8082801218943
 30
0.0
 41
2.0
 42
2.0
 43
2.0
  0
INSERT
  5
940E
330
93D4
100
AcDbEntity
  8
30
  6
CONTINUOUS
 62
     0
100
AcDbBlockReference
  2
_OPEN
 10
241.7477437855068
 20
-204.8082801218943
 30
0.0
 41
2.0
 42
2.0
 43
2.0
 50
180.0
  0
MTEXT
  5
940F
330
93D4
100
AcDbEntity
  8
30
  6
CONTINUOUS
 62
     0
100
AcDbMText
 10
248.747743785507
 20
-200.8082801218943
 30
0.0
 40
6.0
 41
0.0
 71
     5
 72
     1
  1
\A1;4
1001
ACAD
1000
MTEXTBEGIN
1070
    73
1070
     1
1070
    44
1040
1.0
1070
    74
1070
     0
1000
MTEXTEND
1000
MTEXTBEGIN
1070
    73
1070
     1
1070
    44
1040
1.0
1070
    74
1070
     0
1000
MTEXTEND
1000
MTEXTBEGIN
1070
    73
1070
     1
1070
    44
1040
1.0
1070
    74
1070
     0
1000
MTEXTEND
  0
POINT
  5
9410
330
93D4
100
AcDbEntity
  8
DEFPOINTS
  6
CONTINUOUS
 62
     0
100
AcDbPoint
 10
237.7477437855068
 20
-44.99999999999988
 30
0.0
  0
POINT
  5
9411
330
93D4
100
AcDbEntity
  8
DEFPOINTS
  6
CONTINUOUS
 62
     0
100
AcDbPoint
 10
241.7477437855068
 20
-45.99999999999988
 30
0.0
  0
POINT
  5
9412
330
93D4
100
AcDbEntity
  8
DEFPOINTS
  6
CONTINUOUS
 62
     0
100
AcDbPoint
 10
241.7477437855068
 20
-204.8082801218943
 30
0.0
  0
ENDBLK
  5
93E0
330
93D4
100
AcDbEntity
  8
0
100
AcDbBlockEnd
  0
BLOCK
  5
93EC
330
93E2
100
AcDbEntity
  8
0
100
AcDbBlockBegin
  2
*D37
 70
     1
 10
0.0
 20
0.0
 30
0.0
  3
*D37
  1

  0
LINE
  5
93EE
330
93E2
100
AcDbEntity
  8
30
  6
CONTINUOUS
 62
     0
100
AcDbLine
 10
203.7477437855069
 20
-0.9999999999998864
 30
0.0
 11
203.7477437855069
 21
-224.3599708177346
 31
0.0
  0
LINE
  5
93EF
330
93E2
100
AcDbEntity
  8
30
  6
CONTINUOUS
 62
     0
100
AcDbLine
 10
385.747743785507
 20
-167.5532887500315
 30
0.0
 11
385.747743785507
 21
-224.3599708177346
 31
0.0
  0
LINE
  5
93F0
330
93E2
100
AcDbEntity
  8
30
  6
CONTINUOUS
 62
     0
100
AcDbLine
 10
205.7477437855069
 20
-223.8599708177348
 30
0.0
 11
383.747743785507
 21
-223.8599708177348
 31
0.0
  0
INSERT
  5
93F1
330
93E2
100
AcDbEntity
  8
30
  6
CONTINUOUS
 62
     0
100
AcDbBlockReference
  2
_OPEN
 10
203.7477437855069
 20
-223.8599708177348
 30
0.0
 41
2.0
 42
2.0
 43
2.0
 50
180.0
  0
INSERT
  5
93F2
330
93E2
100
AcDbEntity
  8
30
  6
CONTINUOUS
 62
     0
100
AcDbBlockReference
  2
_OPEN
 10
385.747743785507
 20
-223.8599708177348
 30
0.0
 41
2.0
 42
2.0
 43
2.0
  0
MTEXT
  5
93F3
330
93E2
100
AcDbEntity
  8
30
  6
CONTINUOUS
 62
     0
100
AcDbMText
 10
294.747743785507
 20
-219.8599708177348
 30
0.0
 40
6.0
 41
0.0
 71
     5
 72
     1
  1
\A1;182
1001
ACAD
1000
MTEXTBEGIN
1070
    73
1070
     1
1070
    44
1040
1.0
1070
    74
1070
     0
1000
MTEXTEND
1000
MTEXTBEGIN
1070
    73
1070
     1
1070
    44
1040
1.0
1070
    74
1070
     0
1000
MTEXTEND
1000
MTEXTBEGIN
1070
    73
1070
     1
1070
    44
1040
1.0
1070
    74
1070
     0
1000
MTEXTEND
  0
POINT
  5
93F4
330
93E2
100
AcDbEntity
  8
DEFPOINTS
  6
CONTINUOUS
 62
     0
100
AcDbPoint
 10
203.7477437855069
 20
0.0000000000001137
 30
0.0
  0
POINT
  5
93F5
330
93E2
100
AcDbEntity
  8
DEFPOINTS
  6
CONTINUOUS
 62
     0
100
AcDbPoint
 10
385.747743785507
 20
-166.5532887500315
 30
0.0
  0
POINT
  5
93F6
330
93E2
100
AcDbEntity
  8
DEFPOINTS
  6
CONTINUOUS
 62
     0
100
AcDbPoint
 10
385.747743785507
 20
-223.8599708177348
 30
0.0
  0
ENDBLK
  5
93ED
330
93E2
100
AcDbEntity
  8
0
100
AcDbBlockEnd
  0
BLOCK
  5
941E
330
9414
100
AcDbEntity
  8
0
100
AcDbBlockBegin
  2
*D38
 70
     1
 10
0.0
 20
0.0
 30
0.0
  3
*D38
  1

  0
LINE
  5
9415
330
9414
100
AcDbEntity
  8
30
  6
CONTINUOUS
 62
     0
100
AcDbLine
 10
385.747743785507
 20
-165.5532887500315
 30
0.0
 11
385.747743785507
 21
-166.0532887500314
 31
0.0
  0
LINE
  5
9416
330
9414
100
AcDbEntity
  8
30
  6
CONTINUOUS
 62
     0
100
AcDbLine
 10
455.7477437855066
 20
-129.9999999999992
 30
0.0
 11
455.7477437855066
 21
-167.0532887500314
 31
0.0
  0
LINE
  5
9417
330
9414
100
AcDbEntity
  8
30
  6
CONTINUOUS
 62
     0
100
AcDbLine
 10
387.747743785507
 20
-166.5532887500315
 30
0.0
 11
453.7477437855065
 21
-166.5532887500315
 31
0.0
  0
INSERT
  5
9418
330
9414
100
AcDbEntity
  8
30
  6
CONTINUOUS
 62
     0
100
AcDbBlockReference
  2
_OPEN
 10
385.747743785507
 20
-166.5532887500315
 30
0.0
 41
2.0
 42
2.0
 43
2.0
 50
180.0
  0
INSERT
  5
9419
330
9414
100
AcDbEntity
  8
30
  6
CONTINUOUS
 62
     0
100
AcDbBlockReference
  2
_OPEN
 10
455.7477437855066
 20
-166.5532887500315
 30
0.0
 41
2.0
 42
2.0
 43
2.0
  0
MTEXT
  5
941A
330
9414
100
AcDbEntity
  8
30
  6
CONTINUOUS
 62
     0
100
AcDbMText
 10
420.7477437855068
 20
-162.5532887500314
 30
0.0
 40
6.0
 41
0.0
 71
     5
 72
     1
  1
\A1;70
1001
ACAD
1000
MTEXTBEGIN
1070
    73
1070
     1
1070
    44
1040
1.0
1070
    74
1070
     0
1000
MTEXTEND
1000
MTEXTBEGIN
1070
    73
1070
     1
1070
    44
1040
1.0
1070
    74
1070
     0
1000
MTEXTEND
1000
MTEXTBEGIN
1070
    73
1070
     1
1070
    44
1040
1.0
1070
    74
1070
     0
1000
MTEXTEND
  0
POINT
  5
941B
330
9414
100
AcDbEntity
  8
DEFPOINTS
  6
CONTINUOUS
 62
     0
100
AcDbPoint
 10
385.747743785507
 20
-166.5532887500315
 30
0.0
  0
POINT
  5
941C
330
9414
100
AcDbEntity
  8
DEFPOINTS
  6
CONTINUOUS
 62
     0
100
AcDbPoint
 10
455.7477437855066
 20
-128.9999999999992
 30
0.0
  0
POINT
  5
941D
330
9414
100
AcDbEntity
  8
DEFPOINTS
  6
CONTINUOUS
 62
     0
100
AcDbPoint
 10
455.7477437855066
 20
-166.5532887500315
 30
0.0
  0
ENDBLK
  5
941F
330
9414
100
AcDbEntity
  8
0
100
AcDbBlockEnd
  0
BLOCK
  5
942B
330
9421
100
AcDbEntity
  8
0
100
AcDbBlockBegin
  2
*D39
 70
     1
 10
0.0
 20
0.0
 30
0.0
  3
*D39
  1

  0
LINE
  5
9422
330
9421
100
AcDbEntity
  8
30
  6
CONTINUOUS
 62
     0
100
AcDbLine
 10
440.7477437855066
 20
-125.4999999999993
 30
0.0
 11
440.7477437855066
 21
-150.221628814008
 31
0.0
  0
LINE
  5
9423
330
9421
100
AcDbEntity
  8
30
  6
CONTINUOUS
 62
     0
100
AcDbLine
 10
455.7477437855066
 20
-130.9999999999992
 30
0.0
 11
455.7477437855066
 21
-150.221628814008
 31
0.0
  0
LINE
  5
9424
330
9421
100
AcDbEntity
  8
30
  6
CONTINUOUS
 62
     0
100
AcDbLine
 10
442.7477437855066
 20
-149.721628814008
 30
0.0
 11
453.7477437855065
 21
-149.721628814008
 31
0.0
  0
INSERT
  5
9425
330
9421
100
AcDbEntity
  8
30
  6
CONTINUOUS
 62
     0
100
AcDbBlockReference
  2
_OPEN
 10
440.7477437855066
 20
-149.721628814008
 30
0.0
 41
2.0
 42
2.0
 43
2.0
 50
180.0
  0
INSERT
  5
9426
330
9421
100
AcDbEntity
  8
30
  6
CONTINUOUS
 62
     0
100
AcDbBlockReference
  2
_OPEN
 10
455.7477437855066
 20
-149.721628814008
 30
0.0
 41
2.0
 42
2.0
 43
2.0
  0
MTEXT
  5
9427
330
9421
100
AcDbEntity
  8
30
  6
CONTINUOUS
 62
     0
100
AcDbMText
 10
448.2477437855066
 20
-145.721628814008
 30
0.0
 40
6.0
 41
0.0
 71
     5
 72
     1
  1
\A1;15
1001
ACAD
1000
MTEXTBEGIN
1070
    73
1070
     1
1070
    44
1040
1.0
1070
    74
1070
     0
1000
MTEXTEND
1000
MTEXTBEGIN
1070
    73
1070
     1
1070
    44
1040
1.0
1070
    74
1070
     0
1000
MTEXTEND
1000
MTEXTBEGIN
1070
    73
1070
     1
1070
    44
1040
1.0
1070
    74
1070
     0
1000
MTEXTEND
  0
POINT
  5
9428
330
9421
100
AcDbEntity
  8
DEFPOINTS
  6
CONTINUOUS
 62
     0
100
AcDbPoint
 10
440.7477437855066
 20
-124.4999999999993
 30
0.0
  0
POINT
  5
9429
330
9421
100
AcDbEntity
  8
DEFPOINTS
  6
CONTINUOUS
 62
     0
100
AcDbPoint
 10
455.7477437855066
 20
-129.9999999999992
 30
0.0
  0
POINT
  5
942A
330
9421
100
AcDbEntity
  8
DEFPOINTS
  6
CONTINUOUS
 62
     0
100
AcDbPoint
 10
455.7477437855066
 20
-149.721628814008
 30
0.0
  0
ENDBLK
  5
942C
330
9421
100
AcDbEntity
  8
0
100
AcDbBlockEnd
  0
BLOCK
  5
9438
330
942E
100
AcDbEntity
  8
0
100
AcDbBlockBegin
  2
*D40
 70
     1
 10
0.0
 20
0.0
 30
0.0
  3
*D40
  1

  0
LINE
  5
942F
330
942E
100
AcDbEntity
  8
30
  6
CONTINUOUS
 62
     0
100
AcDbLine
 10
440.7477437855066
 20
-102.4999999999994
 30
0.0
 11
440.7477437855066
 21
-80.45360628608159
 31
0.0
  0
LINE
  5
9430
330
942E
100
AcDbEntity
  8
30
  6
CONTINUOUS
 62
     0
100
AcDbLine
 10
480.7477437855061
 20
-102.5000000000007
 30
0.0
 11
480.7477437855061
 21
-80.45360628608159
 31
0.0
  0
LINE
  5
9431
330
942E
100
AcDbEntity
  8
30
  6
CONTINUOUS
 62
     0
100
AcDbLine
 10
442.7477437855066
 20
-80.9536062860816
 30
0.0
 11
478.7477437855064
 21
-80.9536062860816
 31
0.0
  0
INSERT
  5
9432
330
942E
100
AcDbEntity
  8
30
  6
CONTINUOUS
 62
     0
100
AcDbBlockReference
  2
_OPEN
 10
440.7477437855066
 20
-80.9536062860816
 30
0.0
 41
2.0
 42
2.0
 43
2.0
 50
180.0
  0
INSERT
  5
9433
330
942E
100
AcDbEntity
  8
30
  6
CONTINUOUS
 62
     0
100
AcDbBlockReference
  2
_OPEN
 10
480.7477437855061
 20
-80.9536062860816
 30
0.0
 41
2.0
 42
2.0
 43
2.0
  0
MTEXT
  5
9434
330
942E
100
AcDbEntity
  8
30
  6
CONTINUOUS
 62
     0
100
AcDbMText
 10
460.7477437855065
 20
-76.9536062860816
 30
0.0
 40
6.0
 41
0.0
 71
     5
 72
     1
  1
\A1;40
1001
ACAD
1000
MTEXTBEGIN
1070
    73
1070
     1
1070
    44
1040
1.0
1070
    74
1070
     0
1000
MTEXTEND
1000
MTEXTBEGIN
1070
    73
1070
     1
1070
    44
1040
1.0
1070
    74
1070
     0
1000
MTEXTEND
1000
MTEXTBEGIN
1070
    73
1070
     1
1070
    44
1040
1.0
1070
    74
1070
     0
1000
MTEXTEND
  0
POINT
  5
9435
330
942E
100
AcDbEntity
  8
DEFPOINTS
  6
CONTINUOUS
 62
     0
100
AcDbPoint
 10
440.7477437855066
 20
-103.4999999999994
 30
0.0
  0
POINT
  5
9436
330
942E
100
AcDbEntity
  8
DEFPOINTS
  6
CONTINUOUS
 62
     0
100
AcDbPoint
 10
480.7477437855061
 20
-103.5000000000007
 30
0.0
  0
POINT
  5
9437
330
942E
100
AcDbEntity
  8
DEFPOINTS
  6
CONTINUOUS
 62
     0
100
AcDbPoint
 10
480.7477437855061
 20
-80.9536062860816
 30
0.0
  0
ENDBLK
  5
9439
330
942E
100
AcDbEntity
  8
0
100
AcDbBlockEnd
  0
BLOCK
  5
9445
330
943B
100
AcDbEntity
  8
0
100
AcDbBlockBegin
  2
*D41
 70
     1
 10
0.0
 20
0.0
 30
0.0
  3
*D41
  1

  0
LINE
  5
943C
330
943B
100
AcDbEntity
  8
30
  6
CONTINUOUS
 62
     0
100
AcDbLine
 10
480.7477437855061
 20
-125.5000000000005
 30
0.0
 11
480.7477437855061
 21
-150.721628814008
 31
0.0
  0
LINE
  5
943D
330
943B
100
AcDbEntity
  8
30
  6
CONTINUOUS
 62
     0
100
AcDbLine
 10
495.7477437855064
 20
-130.0000000000004
 30
0.0
 11
495.7477437855064
 21
-150.721628814008
 31
0.0
  0
LINE
  5
943E
330
943B
100
AcDbEntity
  8
30
  6
CONTINUOUS
 62
     0
100
AcDbLine
 10
482.7477437855064
 20
-150.221628814008
 30
0.0
 11
493.7477437855061
 21
-150.221628814008
 31
0.0
  0
INSERT
  5
943F
330
943B
100
AcDbEntity
  8
30
  6
CONTINUOUS
 62
     0
100
AcDbBlockReference
  2
_OPEN
 10
480.7477437855061
 20
-150.221628814008
 30
0.0
 41
2.0
 42
2.0
 43
2.0
 50
180.0
  0
INSERT
  5
9440
330
943B
100
AcDbEntity
  8
30
  6
CONTINUOUS
 62
     0
100
AcDbBlockReference
  2
_OPEN
 10
495.7477437855064
 20
-150.221628814008
 30
0.0
 41
2.0
 42
2.0
 43
2.0
  0
MTEXT
  5
9441
330
943B
100
AcDbEntity
  8
30
  6
CONTINUOUS
 62
     0
100
AcDbMText
 10
488.2477437855063
 20
-146.2216288140079
 30
0.0
 40
6.0
 41
0.0
 71
     5
 72
     1
  1
\A1;15
1001
ACAD
1000
MTEXTBEGIN
1070
    73
1070
     1
1070
    44
1040
1.0
1070
    74
1070
     0
1000
MTEXTEND
1000
MTEXTBEGIN
1070
    73
1070
     1
1070
    44
1040
1.0
1070
    74
1070
     0
1000
MTEXTEND
1000
MTEXTBEGIN
1070
    73
1070
     1
1070
    44
1040
1.0
1070
    74
1070
     0
1000
MTEXTEND
  0
POINT
  5
9442
330
943B
100
AcDbEntity
  8
DEFPOINTS
  6
CONTINUOUS
 62
     0
100
AcDbPoint
 10
480.7477437855061
 20
-124.5000000000006
 30
0.0
  0
POINT
  5
9443
330
943B
100
AcDbEntity
  8
DEFPOINTS
  6
CONTINUOUS
 62
     0
100
AcDbPoint
 10
495.7477437855064
 20
-129.0000000000004
 30
0.0
  0
POINT
  5
9444
330
943B
100
AcDbEntity
  8
DEFPOINTS
  6
CONTINUOUS
 62
     0
100
AcDbPoint
 10
495.7477437855064
 20
-150.221628814008
 30
0.0
  0
ENDBLK
  5
9446
330
943B
100
AcDbEntity
  8
0
100
AcDbBlockEnd
  0
BLOCK
  5
9452
330
9448
100
AcDbEntity
  8
0
100
AcDbBlockBegin
  2
*D42
 70
     1
 10
0.0
 20
0.0
 30
0.0
  3
*D42
  1

  0
LINE
  5
9449
330
9448
100
AcDbEntity
  8
30
  6
CONTINUOUS
 62
     0
100
AcDbLine
 10
385.747743785507
 20
-185.7791744557816
 30
0.0
 11
385.747743785507
 21
-186.2791744557815
 31
0.0
  0
LINE
  5
944A
330
9448
100
AcDbEntity
  8
30
  6
CONTINUOUS
 62
     0
100
AcDbLine
 10
495.7477437855064
 20
-130.0000000000004
 30
0.0
 11
495.7477437855064
 21
-187.2791744557815
 31
0.0
  0
LINE
  5
944B
330
9448
100
AcDbEntity
  8
30
  6
CONTINUOUS
 62
     0
100
AcDbLine
 10
387.747743785507
 20
-186.7791744557816
 30
0.0
 11
493.7477437855061
 21
-186.7791744557816
 31
0.0
  0
INSERT
  5
944C
330
9448
100
AcDbEntity
  8
30
  6
CONTINUOUS
 62
     0
100
AcDbBlockReference
  2
_OPEN
 10
385.747743785507
 20
-186.7791744557816
 30
0.0
 41
2.0
 42
2.0
 43
2.0
 50
180.0
  0
INSERT
  5
944D
330
9448
100
AcDbEntity
  8
30
  6
CONTINUOUS
 62
     0
100
AcDbBlockReference
  2
_OPEN
 10
495.7477437855064
 20
-186.7791744557816
 30
0.0
 41
2.0
 42
2.0
 43
2.0
  0
MTEXT
  5
944E
330
9448
100
AcDbEntity
  8
30
  6
CONTINUOUS
 62
     0
100
AcDbMText
 10
440.7477437855066
 20
-182.7791744557815
 30
0.0
 40
6.0
 41
0.0
 71
     5
 72
     1
  1
\A1;110
1001
ACAD
1000
MTEXTBEGIN
1070
    73
1070
     1
1070
    44
1040
1.0
1070
    74
1070
     0
1000
MTEXTEND
1000
MTEXTBEGIN
1070
    73
1070
     1
1070
    44
1040
1.0
1070
    74
1070
     0
1000
MTEXTEND
1000
MTEXTBEGIN
1070
    73
1070
     1
1070
    44
1040
1.0
1070
    74
1070
     0
1000
MTEXTEND
  0
POINT
  5
944F
330
9448
100
AcDbEntity
  8
DEFPOINTS
  6
CONTINUOUS
 62
     0
100
AcDbPoint
 10
385.747743785507
 20
-186.7791744557816
 30
0.0
  0
POINT
  5
9450
330
9448
100
AcDbEntity
  8
DEFPOINTS
  6
CONTINUOUS
 62
     0
100
AcDbPoint
 10
495.7477437855064
 20
-129.0000000000004
 30
0.0
  0
POINT
  5
9451
330
9448
100
AcDbEntity
  8
DEFPOINTS
  6
CONTINUOUS
 62
     0
100
AcDbPoint
 10
495.7477437855064
 20
-186.7791744557816
 30
0.0
  0
ENDBLK
  5
9453
330
9448
100
AcDbEntity
  8
0
100
AcDbBlockEnd
  0
BLOCK
  5
9513
330
9509
100
AcDbEntity
  8
0
100
AcDbBlockBegin
  2
*D43
 70
     1
 10
0.0
 20
0.0
 30
0.0
  3
*D43
  1

  0
LINE
  5
99A1
330
9509
100
AcDbEntity
  8
30
 62
     0
100
AcDbLine
 10
26.50000725840209
 20
366.6999586737895
 30
0.0
 11
171.003588994346
 21
366.6999586737894
 31
0.0
  0
LINE
  5
99A2
330
9509
100
AcDbEntity
  8
30
 62
     0
100
AcDbLine
 10
154.0066698058554
 20
352.0
 30
0.0
 11
171.003588994346
 21
352.0
 31
0.0
  0
LINE
  5
99A3
330
9509
100
AcDbEntity
  8
30
 62
     0
100
AcDbLine
 10
170.503588994346
 20
364.6999586737894
 30
0.0
 11
170.503588994346
 21
354.0
 31
0.0
  0
LINE
  5
99A4
330
9509
100
AcDbEntity
  8
30
 62
     0
100
AcDbLine
 10
170.503588994346
 20
359.3499793368946
 30
0.0
 11
183.503588994346
 21
359.3499793368946
 31
0.0
  0
LINE
  5
99A5
330
9509
100
AcDbEntity
  8
30
 62
     0
100
AcDbLine
 10
183.503588994346
 20
359.3499793368946
 30
0.0
 11
201.503588994346
 21
359.3499793368946
 31
0.0
  0
MTEXT
  5
99A6
330
9509
100
AcDbEntity
  8
30
 62
     0
100
AcDbMText
 10
192.503588994346
 20
363.3499793368947
 30
0.0
 40
6.0
 41
0.0
 71
     5
 72
     1
  1
\A1;14.7
  0
INSERT
  5
99A7
330
9509
100
AcDbEntity
  8
30
 62
     0
100
AcDbBlockReference
  2
_OPEN
 10
170.503588994346
 20
366.6999586737894
 30
0.0
 41
2.0
 42
2.0
 43
2.0
 50
90.0
  0
INSERT
  5
99A8
330
9509
100
AcDbEntity
  8
30
 62
     0
100
AcDbBlockReference
  2
_OPEN
 10
170.503588994346
 20
352.0
 30
0.0
 41
2.0
 42
2.0
 43
2.0
 50
270.0
  0
POINT
  5
99A9
330
9509
100
AcDbEntity
  8
DEFPOINTS
 62
     0
100
AcDbPoint
 10
25.50000725840209
 20
366.6999586737895
 30
0.0
  0
POINT
  5
99AA
330
9509
100
AcDbEntity
  8
DEFPOINTS
 62
     0
100
AcDbPoint
 10
153.0066698058554
 20
352.0
 30
0.0
  0
POINT
  5
99AB
330
9509
100
AcDbEntity
  8
DEFPOINTS
 62
     0
100
AcDbPoint
 10
170.503588994346
 20
352.0
 30
0.0
  0
ENDBLK
  5
9514
330
9509
100
AcDbEntity
  8
0
100
AcDbBlockEnd
  0
BLOCK
  5
952A
330
9520
100
AcDbEntity
  8
0
100
AcDbBlockBegin
  2
*D44
 70
     1
 10
0.0
 20
0.0
 30
0.0
  3
*D44
  1

  0
LINE
  5
9538
330
9520
100
AcDbEntity
  8
30
  6
CONTINUOUS
 62
     0
100
AcDbLine
 10
-45.00001292762533
 20
418.4999999999996
 30
0.0
 11
-45.00001292762532
 21
493.0635362125029
 31
0.0
  0
LINE
  5
9539
330
9520
100
AcDbEntity
  8
30
  6
CONTINUOUS
 62
     0
100
AcDbLine
 10
-0.0000129276253915
 20
458.4999999999998
 30
0.0
 11
-0.0000129276253893
 21
493.0635362125029
 31
0.0
  0
LINE
  5
953A
330
9520
100
AcDbEntity
  8
30
  6
CONTINUOUS
 62
     0
100
AcDbLine
 10
-43.00001292762533
 20
492.5635362125028
 30
0.0
 11
-2.000012927625389
 21
492.5635362125028
 31
0.0
  0
INSERT
  5
953B
330
9520
100
AcDbEntity
  8
30
  6
CONTINUOUS
 62
     0
100
AcDbBlockReference
  2
_OPEN
 10
-45.00001292762532
 20
492.5635362125028
 30
0.0
 41
2.0
 42
2.0
 43
2.0
 50
180.0
  0
INSERT
  5
953C
330
9520
100
AcDbEntity
  8
30
  6
CONTINUOUS
 62
     0
100
AcDbBlockReference
  2
_OPEN
 10
-0.0000129276253894
 20
492.5635362125028
 30
0.0
 41
2.0
 42
2.0
 43
2.0
  0
MTEXT
  5
953D
330
9520
100
AcDbEntity
  8
30
  6
CONTINUOUS
 62
     0
100
AcDbMText
 10
-22.50001292762536
 20
496.5635362125028
 30
0.0
 40
6.0
 41
0.0
 71
     5
 72
     1
  1
\A1;45
1001
ACAD
1000
MTEXTBEGIN
1070
    73
1070
     1
1070
    44
1040
1.0
1070
    74
1070
     0
1000
MTEXTEND
1000
MTEXTBEGIN
1070
    73
1070
     1
1070
    44
1040
1.0
1070
    74
1070
     0
1000
MTEXTEND
1000
MTEXTBEGIN
1070
    73
1070
     1
1070
    44
1040
1.0
1070
    74
1070
     0
1000
MTEXTEND
  0
POINT
  5
953E
330
9520
100
AcDbEntity
  8
DEFPOINTS
  6
CONTINUOUS
 62
     0
100
AcDbPoint
 10
-45.00001292762533
 20
417.4999999999998
 30
0.0
  0
POINT
  5
953F
330
9520
100
AcDbEntity
  8
DEFPOINTS
  6
CONTINUOUS
 62
     0
100
AcDbPoint
 10
-0.0000129276253915
 20
457.5000000000001
 30
0.0
  0
POINT
  5
9540
330
9520
100
AcDbEntity
  8
DEFPOINTS
  6
CONTINUOUS
 62
     0
100
AcDbPoint
 10
-0.0000129276253894
 20
492.5635362125028
 30
0.0
  0
ENDBLK
  5
952B
330
9520
100
AcDbEntity
  8
0
100
AcDbBlockEnd
  0
BLOCK
  5
9536
330
952C
100
AcDbEntity
  8
0
100
AcDbBlockBegin
  2
*D45
 70
     1
 10
0.0
 20
0.0
 30
0.0
  3
*D45
  1

  0
LINE
  5
99AC
330
952C
100
AcDbEntity
  8
30
  6
CONTINUOUS
 62
     0
100
AcDbLine
 10
-0.0000129276253914
 20
458.5000000000001
 30
0.0
 11
-0.0000129276253893
 21
493.0635362125028
 31
0.0
  0
LINE
  5
99AD
330
952C
100
AcDbEntity
  8
30
  6
CONTINUOUS
 62
     0
100
AcDbLine
 10
44.99998707237461
 20
418.4999999999998
 30
0.0
 11
44.99998707237462
 21
493.0635362125028
 31
0.0
  0
LINE
  5
99AE
330
952C
100
AcDbEntity
  8
30
  6
CONTINUOUS
 62
     0
100
AcDbLine
 10
1.99998707237461
 20
492.5635362125028
 30
0.0
 11
42.99998707237461
 21
492.5635362125028
 31
0.0
  0
INSERT
  5
99AF
330
952C
100
AcDbEntity
  8
30
  6
CONTINUOUS
 62
     0
100
AcDbBlockReference
  2
_OPEN
 10
-0.0000129276253894
 20
492.5635362125028
 30
0.0
 41
2.0
 42
2.0
 43
2.0
 50
180.0
  0
INSERT
  5
99B0
330
952C
100
AcDbEntity
  8
30
  6
CONTINUOUS
 62
     0
100
AcDbBlockReference
  2
_OPEN
 10
44.99998707237462
 20
492.5635362125028
 30
0.0
 41
2.0
 42
2.0
 43
2.0
  0
MTEXT
  5
99B1
330
952C
100
AcDbEntity
  8
30
  6
CONTINUOUS
 62
     0
100
AcDbMText
 10
22.49998707237461
 20
496.5635362125028
 30
0.0
 40
6.0
 41
0.0
 71
     5
 72
     1
  1
\A1;45
  0
POINT
  5
99B2
330
952C
100
AcDbEntity
  8
DEFPOINTS
  6
CONTINUOUS
 62
     0
100
AcDbPoint
 10
-0.0000129276253915
 20
457.5000000000001
 30
0.0
  0
POINT
  5
99B3
330
952C
100
AcDbEntity
  8
DEFPOINTS
  6
CONTINUOUS
 62
     0
100
AcDbPoint
 10
44.99998707237461
 20
417.4999999999998
 30
0.0
  0
POINT
  5
99B4
330
952C
100
AcDbEntity
  8
DEFPOINTS
  6
CONTINUOUS
 62
     0
100
AcDbPoint
 10
44.99998707237462
 20
492.5635362125028
 30
0.0
  0
ENDBLK
  5
9537
330
952C
100
AcDbEntity
  8
0
100
AcDbBlockEnd
  0
BLOCK
  5
9555
330
954B
100
AcDbEntity
  8
0
100
AcDbBlockBegin
  2
*D46
 70
     1
 10
0.0
 20
0.0
 30
0.0
  3
*D46
  1

  0
LINE
  5
9557
330
954B
100
AcDbEntity
  8
30
  6
CONTINUOUS
 62
     0
100
AcDbLine
 10
44.99998707237465
 20
418.4999999999996
 30
0.0
 11
44.99998707237465
 21
493.0635362125029
 31
0.0
  0
LINE
  5
9558
330
954B
100
AcDbEntity
  8
30
  6
CONTINUOUS
 62
     0
100
AcDbLine
 10
89.99998707237461
 20
458.4999999999998
 30
0.0
 11
89.99998707237461
 21
493.0635362125029
 31
0.0
  0
LINE
  5
9559
330
954B
100
AcDbEntity
  8
30
  6
CONTINUOUS
 62
     0
100
AcDbLine
 10
46.99998707237465
 20
492.5635362125028
 30
0.0
 11
87.99998707237461
 21
492.5635362125028
 31
0.0
  0
INSERT
  5
955A
330
954B
100
AcDbEntity
  8
30
  6
CONTINUOUS
 62
     0
100
AcDbBlockReference
  2
_OPEN
 10
44.99998707237465
 20
492.5635362125028
 30
0.0
 41
2.0
 42
2.0
 43
2.0
 50
180.0
  0
INSERT
  5
955B
330
954B
100
AcDbEntity
  8
30
  6
CONTINUOUS
 62
     0
100
AcDbBlockReference
  2
_OPEN
 10
89.99998707237461
 20
492.5635362125028
 30
0.0
 41
2.0
 42
2.0
 43
2.0
  0
MTEXT
  5
955C
330
954B
100
AcDbEntity
  8
30
  6
CONTINUOUS
 62
     0
100
AcDbMText
 10
67.49998707237463
 20
496.5635362125028
 30
0.0
 40
6.0
 41
0.0
 71
     5
 72
     1
  1
\A1;45
1001
ACAD
1000
MTEXTBEGIN
1070
    73
1070
     1
1070
    44
1040
1.0
1070
    74
1070
     0
1000
MTEXTEND
1000
MTEXTBEGIN
1070
    73
1070
     1
1070
    44
1040
1.0
1070
    74
1070
     0
1000
MTEXTEND
1000
MTEXTBEGIN
1070
    73
1070
     1
1070
    44
1040
1.0
1070
    74
1070
     0
1000
MTEXTEND
  0
POINT
  5
955D
330
954B
100
AcDbEntity
  8
DEFPOINTS
  6
CONTINUOUS
 62
     0
100
AcDbPoint
 10
44.99998707237465
 20
417.4999999999998
 30
0.0
  0
POINT
  5
955E
330
954B
100
AcDbEntity
  8
DEFPOINTS
  6
CONTINUOUS
 62
     0
100
AcDbPoint
 10
89.99998707237461
 20
457.5000000000001
 30
0.0
  0
POINT
  5
955F
330
954B
100
AcDbEntity
  8
DEFPOINTS
  6
CONTINUOUS
 62
     0
100
AcDbPoint
 10
89.99998707237461
 20
492.5635362125028
 30
0.0
  0
ENDBLK
  5
9556
330
954B
100
AcDbEntity
  8
0
100
AcDbBlockEnd
  0
BLOCK
  5
961A
330
9610
100
AcDbEntity
  8
0
100
AcDbBlockBegin
  2
*D47
 70
     1
 10
0.0
 20
0.0
 30
0.0
  3
*D47
  1

  0
LINE
  5
9611
330
9610
100
AcDbEntity
  8
30
  6
CONTINUOUS
 62
     0
100
AcDbLine
 10
-21.99999999999953
 20
-475.0
 30
0.0
 11
-21.99999999999953
 21
-530.7887207999806
 31
0.0
  0
LINE
  5
9612
330
9610
100
AcDbEntity
  8
30
  6
CONTINUOUS
 62
     0
100
AcDbLine
 10
23.00000000000044
 20
-475.0
 30
0.0
 11
23.00000000000044
 21
-530.7887207999806
 31
0.0
  0
LINE
  5
9613
330
9610
100
AcDbEntity
  8
30
  6
CONTINUOUS
 62
     0
100
AcDbLine
 10
-19.99999999999953
 20
-530.2887207999806
 30
0.0
 11
21.00000000000044
 21
-530.2887207999806
 31
0.0
  0
INSERT
  5
9614
330
9610
100
AcDbEntity
  8
30
  6
CONTINUOUS
 62
     0
100
AcDbBlockReference
  2
_OPEN
 10
-21.99999999999953
 20
-530.2887207999806
 30
0.0
 41
2.0
 42
2.0
 43
2.0
 50
180.0
  0
INSERT
  5
9615
330
9610
100
AcDbEntity
  8
30
  6
CONTINUOUS
 62
     0
100
AcDbBlockReference
  2
_OPEN
 10
23.00000000000044
 20
-530.2887207999806
 30
0.0
 41
2.0
 42
2.0
 43
2.0
  0
MTEXT
  5
9616
330
9610
100
AcDbEntity
  8
30
  6
CONTINUOUS
 62
     0
100
AcDbMText
 10
0.5000000000004532
 20
-526.2887207999806
 30
0.0
 40
6.0
 41
0.0
 71
     5
 72
     1
  1
\A1;45
1001
ACAD
1000
MTEXTBEGIN
1070
    73
1070
     1
1070
    44
1040
1.0
1070
    74
1070
     0
1000
MTEXTEND
1000
MTEXTBEGIN
1070
    73
1070
     1
1070
    44
1040
1.0
1070
    74
1070
     0
1000
MTEXTEND
1000
MTEXTBEGIN
1070
    73
1070
     1
1070
    44
1040
1.0
1070
    74
1070
     0
1000
MTEXTEND
  0
POINT
  5
9617
330
9610
100
AcDbEntity
  8
DEFPOINTS
  6
CONTINUOUS
 62
     0
100
AcDbPoint
 10
-21.99999999999953
 20
-474.0
 30
0.0
  0
POINT
  5
9618
330
9610
100
AcDbEntity
  8
DEFPOINTS
  6
CONTINUOUS
 62
     0
100
AcDbPoint
 10
23.00000000000044
 20
-474.0
 30
0.0
  0
POINT
  5
9619
330
9610
100
AcDbEntity
  8
DEFPOINTS
  6
CONTINUOUS
 62
     0
100
AcDbPoint
 10
23.00000000000044
 20
-530.2887207999806
 30
0.0
  0
ENDBLK
  5
961B
330
9610
100
AcDbEntity
  8
0
100
AcDbBlockEnd
  0
BLOCK
  5
97C7
330
97BD
100
AcDbEntity
  8
0
100
AcDbBlockBegin
  2
*D48
 70
     1
 10
0.0
 20
0.0
 30
0.0
  3
*D48
  1

  0
LINE
  5
97ED
330
97BD
100
AcDbEntity
  8
30
  6
CONTINUOUS
 62
     0
100
AcDbLine
 10
-71.00000000000004
 20
130.0
 30
0.0
 11
-116.0191388944171
 21
130.0
 31
0.0
  0
LINE
  5
97EE
330
97BD
100
AcDbEntity
  8
30
  6
CONTINUOUS
 62
     0
100
AcDbLine
 10
-71.00000000000004
 20
-130.0
 30
0.0
 11
-116.0191388944172
 21
-130.0
 31
0.0
  0
LINE
  5
97EF
330
97BD
100
AcDbEntity
  8
30
  6
CONTINUOUS
 62
     0
100
AcDbLine
 10
-115.519138894417
 20
128.0
 30
0.0
 11
-115.5191388944172
 21
-128.0
 31
0.0
  0
INSERT
  5
97F0
330
97BD
100
AcDbEntity
  8
30
  6
CONTINUOUS
 62
     0
100
AcDbBlockReference
  2
_OPEN
 10
-115.519138894417
 20
130.0
 30
0.0
 41
2.0
 42
2.0
 43
2.0
 50
90.0
  0
INSERT
  5
97F1
330
97BD
100
AcDbEntity
  8
30
  6
CONTINUOUS
 62
     0
100
AcDbBlockReference
  2
_OPEN
 10
-115.5191388944172
 20
-130.0
 30
0.0
 41
2.0
 42
2.0
 43
2.0
 50
270.0
  0
MTEXT
  5
97F2
330
97BD
100
AcDbEntity
  8
30
  6
CONTINUOUS
 62
     0
100
AcDbMText
 10
-119.519138894417
 20
-0.0000000000000209
 30
0.0
 40
6.0
 41
0.0
 71
     5
 72
     1
  1
\A1;260
 11
0.0000000000000001
 21
1.0
 31
0.0
1001
ACAD
1000
MTEXTBEGIN
1070
    73
1070
     1
1070
    44
1040
1.0
1070
    74
1070
     0
1000
MTEXTEND
1000
MTEXTBEGIN
1070
    73
1070
     1
1070
    44
1040
1.0
1070
    74
1070
     0
1000
MTEXTEND
1000
MTEXTBEGIN
1070
    73
1070
     1
1070
    44
1040
1.0
1070
    74
1070
     0
1000
MTEXTEND
  0
POINT
  5
97F3
330
97BD
100
AcDbEntity
  8
DEFPOINTS
  6
CONTINUOUS
 62
     0
100
AcDbPoint
 10
-70.00000000000007
 20
130.0
 30
0.0
  0
POINT
  5
97F4
330
97BD
100
AcDbEntity
  8
DEFPOINTS
  6
CONTINUOUS
 62
     0
100
AcDbPoint
 10
-70.00000000000007
 20
-130.0
 30
0.0
  0
POINT
  5
97F5
330
97BD
100
AcDbEntity
  8
DEFPOINTS
  6
CONTINUOUS
 62
     0
100
AcDbPoint
 10
-115.5191388944172
 20
-130.0
 30
0.0
  0
ENDBLK
  5
97C8
330
97BD
100
AcDbEntity
  8
0
100
AcDbBlockEnd
  0
BLOCK
  5
97D3
330
97C9
100
AcDbEntity
  8
0
100
AcDbBlockBegin
  2
*D49
 70
     1
 10
0.0
 20
0.0
 30
0.0
  3
*D49
  1

  0
LINE
  5
97F6
330
97C9
100
AcDbEntity
  8
30
  6
CONTINUOUS
 62
     0
100
AcDbLine
 10
-54.0
 20
45.0000000000001
 30
0.0
 11
-91.89860450474336
 21
45.0000000000001
 31
0.0
  0
LINE
  5
97F7
330
97C9
100
AcDbEntity
  8
30
  6
CONTINUOUS
 62
     0
100
AcDbLine
 10
-54.0
 20
-45.0
 30
0.0
 11
-91.89860450474339
 21
-44.99999999999999
 31
0.0
  0
LINE
  5
97F8
330
97C9
100
AcDbEntity
  8
30
  6
CONTINUOUS
 62
     0
100
AcDbLine
 10
-91.39860450474335
 20
43.0000000000001
 30
0.0
 11
-91.39860450474341
 21
-42.99999999999999
 31
0.0
  0
INSERT
  5
97F9
330
97C9
100
AcDbEntity
  8
30
  6
CONTINUOUS
 62
     0
100
AcDbBlockReference
  2
_OPEN
 10
-91.39860450474335
 20
45.0000000000001
 30
0.0
 41
2.0
 42
2.0
 43
2.0
 50
90.0
  0
INSERT
  5
97FA
330
97C9
100
AcDbEntity
  8
30
  6
CONTINUOUS
 62
     0
100
AcDbBlockReference
  2
_OPEN
 10
-91.39860450474341
 20
-44.99999999999999
 30
0.0
 41
2.0
 42
2.0
 43
2.0
 50
270.0
  0
MTEXT
  5
97FB
330
97C9
100
AcDbEntity
  8
30
  6
CONTINUOUS
 62
     0
100
AcDbMText
 10
-95.39860450474336
 20
0.0000000000000487
 30
0.0
 40
6.0
 41
0.0
 71
     5
 72
     1
  1
\A1;90
 11
0.0000000000000001
 21
1.0
 31
0.0
1001
ACAD
1000
MTEXTBEGIN
1070
    73
1070
     1
1070
    44
1040
1.0
1070
    74
1070
     0
1000
MTEXTEND
1000
MTEXTBEGIN
1070
    73
1070
     1
1070
    44
1040
1.0
1070
    74
1070
     0
1000
MTEXTEND
1000
MTEXTBEGIN
1070
    73
1070
     1
1070
    44
1040
1.0
1070
    74
1070
     0
1000
MTEXTEND
  0
POINT
  5
97FC
330
97C9
100
AcDbEntity
  8
DEFPOINTS
  6
CONTINUOUS
 62
     0
100
AcDbPoint
 10
-53.0
 20
45.0000000000001
 30
0.0
  0
POINT
  5
97FD
330
97C9
100
AcDbEntity
  8
DEFPOINTS
  6
CONTINUOUS
 62
     0
100
AcDbPoint
 10
-53.0
 20
-45.0
 30
0.0
  0
POINT
  5
97FE
330
97C9
100
AcDbEntity
  8
DEFPOINTS
  6
CONTINUOUS
 62
     0
100
AcDbPoint
 10
-91.39860450474341
 20
-44.99999999999999
 30
0.0
  0
ENDBLK
  5
97D4
330
97C9
100
AcDbEntity
  8
0
100
AcDbBlockEnd
  0
BLOCK
  5
97DF
330
97D5
100
AcDbEntity
  8
0
100
AcDbBlockBegin
  2
*D50
 70
     1
 10
0.0
 20
0.0
 30
0.0
  3
*D50
  1

  0
LINE
  5
97FF
330
97D5
100
AcDbEntity
  8
30
  6
CONTINUOUS
 62
     0
100
AcDbLine
 10
-71.00000000000004
 20
50.99999999999909
 30
0.0
 11
-104.3479123954375
 21
50.99999999999909
 31
0.0
  0
LINE
  5
9800
330
97D5
100
AcDbEntity
  8
30
  6
CONTINUOUS
 62
     0
100
AcDbLine
 10
-71.00000000000004
 20
-51.0
 30
0.0
 11
-104.3479123954376
 21
-50.99999999999999
 31
0.0
  0
LINE
  5
9801
330
97D5
100
AcDbEntity
  8
30
  6
CONTINUOUS
 62
     0
100
AcDbLine
 10
-103.8479123954375
 20
48.99999999999909
 30
0.0
 11
-103.8479123954376
 21
-48.99999999999999
 31
0.0
  0
INSERT
  5
9802
330
97D5
100
AcDbEntity
  8
30
  6
CONTINUOUS
 62
     0
100
AcDbBlockReference
  2
_OPEN
 10
-103.8479123954375
 20
50.99999999999909
 30
0.0
 41
2.0
 42
2.0
 43
2.0
 50
90.0
  0
INSERT
  5
9803
330
97D5
100
AcDbEntity
  8
30
  6
CONTINUOUS
 62
     0
100
AcDbBlockReference
  2
_OPEN
 10
-103.8479123954376
 20
-50.99999999999999
 30
0.0
 41
2.0
 42
2.0
 43
2.0
 50
270.0
  0
MTEXT
  5
9804
330
97D5
100
AcDbEntity
  8
30
  6
CONTINUOUS
 62
     0
100
AcDbMText
 10
-107.8479123954376
 20
-0.0000000000004621
 30
0.0
 40
6.0
 41
0.0
 71
     5
 72
     1
  1
\A1;102
 11
0.0000000000000001
 21
1.0
 31
0.0
1001
ACAD
1000
MTEXTBEGIN
1070
    73
1070
     1
1070
    44
1040
1.0
1070
    74
1070
     0
1000
MTEXTEND
1000
MTEXTBEGIN
1070
    73
1070
     1
1070
    44
1040
1.0
1070
    74
1070
     0
1000
MTEXTEND
1000
MTEXTBEGIN
1070
    73
1070
     1
1070
    44
1040
1.0
1070
    74
1070
     0
1000
MTEXTEND
  0
POINT
  5
9805
330
97D5
100
AcDbEntity
  8
DEFPOINTS
  6
CONTINUOUS
 62
     0
100
AcDbPoint
 10
-70.00000000000007
 20
50.99999999999909
 30
0.0
  0
POINT
  5
9806
330
97D5
100
AcDbEntity
  8
DEFPOINTS
  6
CONTINUOUS
 62
     0
100
AcDbPoint
 10
-70.00000000000007
 20
-51.0
 30
0.0
  0
POINT
  5
9807
330
97D5
100
AcDbEntity
  8
DEFPOINTS
  6
CONTINUOUS
 62
     0
100
AcDbPoint
 10
-103.8479123954376
 20
-50.99999999999999
 30
0.0
  0
ENDBLK
  5
97E0
330
97D5
100
AcDbEntity
  8
0
100
AcDbBlockEnd
  0
BLOCK
  5
97EB
330
97E1
100
AcDbEntity
  8
0
100
AcDbBlockBegin
  2
*D51
 70
     1
 10
0.0
 20
0.0
 30
0.0
  3
*D51
  1

  0
LINE
  5
9811
330
97E1
100
AcDbEntity
  8
30
  6
CONTINUOUS
 62
     0
100
AcDbLine
 10
-70.00000000000007
 20
-131.0
 30
0.0
 11
-70.00000000000007
 21
-154.2989500761053
 31
0.0
  0
LINE
  5
9812
330
97E1
100
AcDbEntity
  8
30
  6
CONTINUOUS
 62
     0
100
AcDbLine
 10
114.9999999999999
 20
-131.0
 30
0.0
 11
114.9999999999999
 21
-154.2989500761053
 31
0.0
  0
LINE
  5
9813
330
97E1
100
AcDbEntity
  8
30
  6
CONTINUOUS
 62
     0
100
AcDbLine
 10
-68.00000000000007
 20
-153.7989500761053
 30
0.0
 11
112.9999999999999
 21
-153.7989500761053
 31
0.0
  0
INSERT
  5
9814
330
97E1
100
AcDbEntity
  8
30
  6
CONTINUOUS
 62
     0
100
AcDbBlockReference
  2
_OPEN
 10
-70.00000000000007
 20
-153.7989500761053
 30
0.0
 41
2.0
 42
2.0
 43
2.0
 50
180.0
  0
INSERT
  5
9815
330
97E1
100
AcDbEntity
  8
30
  6
CONTINUOUS
 62
     0
100
AcDbBlockReference
  2
_OPEN
 10
114.9999999999999
 20
-153.7989500761053
 30
0.0
 41
2.0
 42
2.0
 43
2.0
  0
MTEXT
  5
9816
330
97E1
100
AcDbEntity
  8
30
  6
CONTINUOUS
 62
     0
100
AcDbMText
 10
22.49999999999994
 20
-149.7989500761053
 30
0.0
 40
6.0
 41
0.0
 71
     5
 72
     1
  1
\A1;185
1001
ACAD
1000
MTEXTBEGIN
1070
    73
1070
     1
1070
    44
1040
1.0
1070
    74
1070
     0
1000
MTEXTEND
1000
MTEXTBEGIN
1070
    73
1070
     1
1070
    44
1040
1.0
1070
    74
1070
     0
1000
MTEXTEND
1000
MTEXTBEGIN
1070
    73
1070
     1
1070
    44
1040
1.0
1070
    74
1070
     0
1000
MTEXTEND
  0
POINT
  5
9817
330
97E1
100
AcDbEntity
  8
DEFPOINTS
  6
CONTINUOUS
 62
     0
100
AcDbPoint
 10
-70.00000000000007
 20
-130.0
 30
0.0
  0
POINT
  5
9818
330
97E1
100
AcDbEntity
  8
DEFPOINTS
  6
CONTINUOUS
 62
     0
100
AcDbPoint
 10
114.9999999999999
 20
-130.0
 30
0.0
  0
POINT
  5
9819
330
97E1
100
AcDbEntity
  8
DEFPOINTS
  6
CONTINUOUS
 62
     0
100
AcDbPoint
 10
114.9999999999999
 20
-153.7989500761053
 30
0.0
  0
ENDBLK
  5
97EC
330
97E1
100
AcDbEntity
  8
0
100
AcDbBlockEnd
  0
ENDSEC
  0
SECTION
  2
ENTITIES
  0
LINE
  5
B4
330
1E
100
AcDbEntity
  8
16
100
AcDbLine
 10
0.0
 20
-101.8246001220914
 30
0.0
 11
0.0
 21
105.6073578546832
 31
0.0
  0
LINE
  5
B5
330
1E
100
AcDbEntity
  8
16
100
AcDbLine
 10
90.16482132696999
 20
-0.0000000000000027
 30
0.0
 11
-83.90588178115756
 21
-0.0000000000000027
 31
0.0
  0
MTEXT
  5
BF3
330
1E
100
AcDbEntity
  8
24
  6
CONTINUOUS
100
AcDbMText
 10
140.9820964648283
 20
176.3476821548369
 30
0.0
 40
3.0
 41
0.0
 71
     1
 72
     1
  1
\A1;
1001
ACAD
1000
MTEXTBEGIN
1070
    73
1070
     1
1070
    44
1040
1.0
1070
    74
1070
     0
1000
MTEXTEND
1000
MTEXTBEGIN
1070
    73
1070
     1
1070
    44
1040
1.0
1070
    74
1070
     0
1000
MTEXTEND
1000
MTEXTBEGIN
1070
    73
1070
     1
1070
    44
1040
1.0
1070
    74
1070
     0
1000
MTEXTEND
  0
MTEXT
  5
5C78
330
1E
100
AcDbEntity
  8
30
  6
CONTINUOUS
100
AcDbMText
 10
162.3297648581359
 20
88.99793930010117
 30
0.0
 40
4.0
 41
0.0
 71
     9
 72
     1
  1

1001
ACAD
1000
MTEXTBEGIN
1070
    73
1070
     1
1070
    44
1040
1.0
1070
    74
1070
     0
1000
MTEXTEND
1000
MTEXTBEGIN
1070
    73
1070
     1
1070
    44
1040
1.0
1070
    74
1070
     0
1000
MTEXTEND
1000
MTEXTBEGIN
1070
    73
1070
     1
1070
    44
1040
1.0
1070
    74
1070
     0
1000
MTEXTEND
  0
MTEXT
  5
6200
330
1E
100
AcDbEntity
  8
30
  6
CONTINUOUS
100
AcDbMText
 10
160.6290066227675
 20
91.2377397662035
 30
0.0
 40
4.0
 41
0.0
 71
     9
 72
     1
  1

1001
ACAD
1000
MTEXTBEGIN
1070
    73
1070
     1
1070
    44
1040
1.0
1070
    74
1070
     0
1000
MTEXTEND
1000
MTEXTBEGIN
1070
    73
1070
     1
1070
    44
1040
1.0
1070
    74
1070
     0
1000
MTEXTEND
1000
MTEXTBEGIN
1070
    73
1070
     1
1070
    44
1040
1.0
1070
    74
1070
     0
1000
MTEXTEND
  0
LINE
  5
67E2
330
1E
100
AcDbEntity
  8
16
100
AcDbLine
 10
0.0
 20
-506.6279096442683
 30
0.0
 11
0.0
 21
-207.9249011857708
 31
0.0
  0
LINE
  5
67E5
330
1E
100
AcDbEntity
  8
16
100
AcDbLine
 10
132.0668115650748
 20
-360.0
 30
0.0
 11
-118.1067106947925
 21
-360.0
 31
0.0
  0
LINE
  5
7868
330
1E
100
AcDbEntity
  8
16
100
AcDbLine
 10
-0.0000610351601154
 20
175.7950414536304
 30
0.0
 11
0.0
 21
399.3504142871282
 31
0.0
  0
MTEXT
  5
7CA7
330
1E
100
AcDbEntity
  8
30
  6
CONTINUOUS
100
AcDbMText
 10
210.8686476596813
 20
139.5216160708496
 30
0.0
 40
4.0
 41
0.0
 71
     9
 72
     1
  1
\A1;
1001
ACAD
1000
MTEXTBEGIN
1070
    73
1070
     1
1070
    44
1040
1.0
1070
    74
1070
     0
1000
MTEXTEND
1000
MTEXTBEGIN
1070
    73
1070
     1
1070
    44
1040
1.0
1070
    74
1070
     0
1000
MTEXTEND
1000
MTEXTBEGIN
1070
    73
1070
     1
1070
    44
1040
1.0
1070
    74
1070
     0
1000
MTEXTEND
  0
MTEXT
  5
7CA9
330
1E
100
AcDbEntity
  8
30
  6
CONTINUOUS
100
AcDbMText
 10
217.6088870093234
 20
136.808717989596
 30
0.0
 40
4.0
 41
0.0
 71
     9
 72
     1
  1
\A1;
1001
ACAD
1000
MTEXTBEGIN
1070
    73
1070
     1
1070
    44
1040
1.0
1070
    74
1070
     0
1000
MTEXTEND
1000
MTEXTBEGIN
1070
    73
1070
     1
1070
    44
1040
1.0
1070
    74
1070
     0
1000
MTEXTEND
1000
MTEXTBEGIN
1070
    73
1070
     1
1070
    44
1040
1.0
1070
    74
1070
     0
1000
MTEXTEND
  0
MTEXT
  5
7E8C
330
1E
100
AcDbEntity
  8
19
  6
CONTINUOUS
100
AcDbMText
 10
277.3100269687308
 20
343.2119150700267
 30
0.0
 40
6.0
 41
94.44410000000001
 71
     1
 72
     5
  1
H400-NJ 4P RC\PL400-NJ 4P RC\PH400-NE 4P RC\PL400-NE 4P RC
  7
STANDARD1
1001
ACAD
1000
MTEXTBEGIN
1070
    73
1070
     1
1070
    44
1040
1.0
1070
    74
1070
     0
1000
MTEXTEND
1000
MTEXTBEGIN
1070
    73
1070
     1
1070
    44
1040
1.0
1070
    74
1070
     0
1000
MTEXTEND
1000
MTEXTBEGIN
1070
    73
1070
     1
1070
    44
1040
1.0
1070
    74
1070
     0
1000
MTEXTEND
  0
DIMENSION
  5
886F
330
1E
100
AcDbEntity
  8
30
  6
CONTINUOUS
100
AcDbDimension
  2
*D26
 10
514.9919719080878
 20
-129.0000000000004
 30
0.0
 11
510.9919719080878
 21
-114.0000000000005
 31
0.0
 70
    32
  3
STANDARD
100
AcDbAlignedDimension
 13
494.7477437855062
 23
-99.00000000000069
 33
0.0
 14
494.7477437855062
 24
-129.0000000000004
 34
0.0
 50
90.0
100
AcDbRotatedDimension
1001
ACAD
1000
DSTYLE
1002
{
1070
    79
1070
     3
1002
}
  0
DIMENSION
  5
887C
330
1E
100
AcDbEntity
  8
30
  6
CONTINUOUS
100
AcDbDimension
  2
*D27
 10
527.2211655862109
 20
-114.0000000000007
 30
0.0
 11
523.2211655862109
 21
-0.0000000000002094
 31
0.0
 70
    32
  3
STANDARD
100
AcDbAlignedDimension
 13
502.7477437855061
 23
114.0000000000001
 33
0.0
 14
502.7477437855061
 24
-114.0000000000007
 34
0.0
 50
90.0
100
AcDbRotatedDimension
1001
ACAD
1000
DSTYLE
1002
{
1070
    79
1070
     3
1002
}
  0
DIMENSION
  5
894F
330
1E
100
AcDbEntity
  8
30
  6
CONTINUOUS
100
AcDbDimension
  2
*D28
 10
477.1262868994972
 20
-119.9479377766414
 30
0.0
 11
504.7607797751522
 21
-75.39838118329133
 31
0.0
 70
   163
  3
STANDARD
100
AcDbDiametricDimension
 15
482.3692006715156
 25
-108.0520622233594
 35
0.0
 40
0.0
1001
ACAD
1000
DSTYLE
1002
{
1070
    79
1070
     3
1070
   288
1070
     1
1002
}
  0
LINE
  5
8B22
330
1E
100
AcDbEntity
  8
18
100
AcDbLine
 10
145.360543027902
 20
355.1999834695158
 30
0.0
 11
-91.99955526616077
 21
355.1999834695158
 31
0.0
  0
LINE
  5
8B24
330
1E
100
AcDbEntity
  8
18
100
AcDbLine
 10
145.1776488818545
 20
352.0
 30
0.0
 11
114.9999870723744
 21
352.0
 31
0.0
  0
LINE
  5
8B25
330
1E
100
AcDbEntity
  8
18
100
AcDbLine
 10
-71.99965858168673
 20
352.0
 30
0.0
 11
-91.99955526616077
 21
352.0
 31
0.0
  0
LINE
  5
8DE7
330
1E
100
AcDbEntity
  8
12
  6
DASHED
100
AcDbLine
 10
-21.99999999999953
 20
-474.0
 30
0.0
 11
22.00000000000045
 21
-474.0
 31
0.0
  0
LINE
  5
8DE8
330
1E
100
AcDbEntity
  8
12
  6
DASHED
100
AcDbLine
 10
-21.99999999999953
 20
-246.0
 30
0.0
 11
22.00000000000045
 21
-246.0
 31
0.0
  0
LINE
  5
8DE9
330
1E
100
AcDbEntity
  8
12
  6
DASHED
100
AcDbLine
 10
18.00000000000044
 20
-474.0
 30
0.0
 11
27.00000000000045
 21
-474.0
 31
0.0
  0
LINE
  5
8DEA
330
1E
100
AcDbEntity
  8
12
  6
DASHED
100
AcDbLine
 10
16.12451549659725
 20
-482.0
 30
0.0
 11
28.87548450340341
 21
-482.0
 31
0.0
  0
LINE
  5
8DEB
330
1E
100
AcDbEntity
  8
22
100
AcDbLine
 10
18.00000000000044
 20
-246.0
 30
0.0
 11
27.00000000000045
 21
-246.0
 31
0.0
  0
LINE
  5
8DEC
330
1E
100
AcDbEntity
  8
22
100
AcDbLine
 10
16.12451549659725
 20
-238.0
 30
0.0
 11
28.87548450340341
 21
-238.0
 31
0.0
  0
LINE
  5
8DED
330
1E
100
AcDbEntity
  8
12
  6
DASHED
100
AcDbLine
 10
15.5
 20
-467.0
 30
0.0
 11
29.5
 21
-467.0
 31
0.0
  0
LINE
  5
8DEE
330
1E
100
AcDbEntity
  8
12
  6
DASHED
100
AcDbLine
 10
15.5
 20
-253.0
 30
0.0
 11
29.5
 21
-253.0
 31
0.0
  0
LINE
  5
8DF0
330
1E
100
AcDbEntity
  8
18
  6
DIVIDE
100
AcDbLine
 10
115.0
 20
-230.0
 30
0.0
 11
-70.0
 21
-230.0
 31
0.0
  0
LINE
  5
8DF1
330
1E
100
AcDbEntity
  8
18
  6
DIVIDE
100
AcDbLine
 10
-70.0
 20
-490.0000000000002
 30
0.0
 11
115.0
 21
-490.0000000000002
 31
0.0
  0
CIRCLE
  5
8DF2
330
1E
100
AcDbEntity
  8
12
  6
DASHED
100
AcDbCircle
 10
-22.5
 20
-253.0
 30
0.0
 40
3.0
210
0.0
220
0.0
230
-1.0
  0
CIRCLE
  5
8DF3
330
1E
100
AcDbEntity
  8
12
  6
DASHED
100
AcDbCircle
 10
22.5
 20
-467.0
 30
0.0
 40
3.0
  0
LINE
  5
8DF5
330
1E
100
AcDbEntity
  8
18
  6
DIVIDE
100
AcDbLine
 10
-70.0
 20
-230.0
 30
0.0
 11
-70.0
 21
-490.0000000000002
 31
0.0
  0
LINE
  5
8DF6
330
1E
100
AcDbEntity
  8
12
  6
DASHED
100
AcDbLine
 10
-66.99999999999977
 20
-474.0
 30
0.0
 11
-22.99999999999954
 21
-474.0
 31
0.0
  0
ARC
  5
8DF7
330
1E
100
AcDbEntity
  8
22
100
AcDbCircle
 10
44.99999999999977
 20
-474.0
 30
0.0
 40
18.0
210
0.0
220
0.0
230
-1.0
100
AcDbArc
 50
206.3877999612437
 51
180.0
  0
LINE
  5
8DF8
330
1E
100
AcDbEntity
  8
12
  6
DASHED
100
AcDbLine
 10
-44.99999999999977
 20
-452.0
 30
0.0
 11
-44.99999999999977
 21
-496.0
 31
0.0
  0
LINE
  5
8DF9
330
1E
100
AcDbEntity
  8
22
100
AcDbLine
 10
0.0000000000004547
 20
-452.0
 30
0.0
 11
0.0000000000004547
 21
-496.0
 31
0.0
  0
ARC
  5
8DFA
330
1E
100
AcDbEntity
  8
22
100
AcDbCircle
 10
-0.0000000000004547
 20
-474.0
 30
0.0
 40
18.0
210
0.0
220
0.0
230
-1.0
100
AcDbArc
 50
0.0
 51
180.0
  0
ARC
  5
8DFB
330
1E
100
AcDbEntity
  8
22
100
AcDbCircle
 10
-0.0000000000004547
 20
-474.0
 30
0.0
 40
18.0
210
0.0
220
0.0
230
-1.0
100
AcDbArc
 50
206.3877999612437
 51
333.6122000387049
  0
LINE
  5
8DFC
330
1E
100
AcDbEntity
  8
12
  6
DASHED
100
AcDbLine
 10
-28.87548450340272
 20
-482.0
 30
0.0
 11
-16.12451549659658
 21
-482.0
 31
0.0
  0
LINE
  5
8DFD
330
1E
100
AcDbEntity
  8
12
  6
DASHED
100
AcDbLine
 10
-29.5
 20
-467.0
 30
0.0
 11
-15.5
 21
-467.0
 31
0.0
  0
LINE
  5
8DFE
330
1E
100
AcDbEntity
  8
12
  6
DASHED
100
AcDbLine
 10
-26.99999999999953
 20
-474.0
 30
0.0
 11
-17.99999999999953
 21
-474.0
 31
0.0
  0
LINE
  5
8DFF
330
1E
100
AcDbEntity
  8
12
  6
DASHED
100
AcDbLine
 10
-22.5
 20
-460.0
 30
0.0
 11
-22.5
 21
-474.0
 31
0.0
  0
CIRCLE
  5
8E00
330
1E
100
AcDbEntity
  8
12
  6
DASHED
100
AcDbCircle
 10
22.5
 20
-467.0
 30
0.0
 40
3.0
210
0.0
220
0.0
230
-1.0
  0
LINE
  5
8E01
330
1E
100
AcDbEntity
  8
22
100
AcDbLine
 10
0.0000000000004547
 20
-224.0
 30
0.0
 11
0.0000000000004547
 21
-268.0
 31
0.0
  0
LINE
  5
8E02
330
1E
100
AcDbEntity
  8
12
  6
DASHED
100
AcDbLine
 10
-44.99999999999977
 20
-224.0
 30
0.0
 11
-44.99999999999977
 21
-268.0
 31
0.0
  0
ARC
  5
8E03
330
1E
100
AcDbEntity
  8
22
100
AcDbCircle
 10
-44.99999999999977
 20
-246.0
 30
0.0
 40
18.0
100
AcDbArc
 50
26.38779996124371
 51
0.0
  0
LINE
  5
8E04
330
1E
100
AcDbEntity
  8
12
  6
DASHED
100
AcDbLine
 10
-66.99999999999977
 20
-246.0
 30
0.0
 11
-22.99999999999954
 21
-246.0
 31
0.0
  0
ARC
  5
8E05
330
1E
100
AcDbEntity
  8
22
100
AcDbCircle
 10
0.0000000000004547
 20
-246.0
 30
0.0
 40
18.0
100
AcDbArc
 50
180.0
 51
0.0
  0
LINE
  5
8E06
330
1E
100
AcDbEntity
  8
12
  6
DASHED
100
AcDbLine
 10
-29.5
 20
-253.0
 30
0.0
 11
-15.5
 21
-253.0
 31
0.0
  0
LINE
  5
8E07
330
1E
100
AcDbEntity
  8
22
100
AcDbLine
 10
-26.99999999999953
 20
-246.0
 30
0.0
 11
-17.99999999999953
 21
-246.0
 31
0.0
  0
LINE
  5
8E08
330
1E
100
AcDbEntity
  8
12
  6
DASHED
100
AcDbLine
 10
-22.5
 20
-246.0
 30
0.0
 11
-22.5
 21
-260.0
 31
0.0
  0
CIRCLE
  5
8E09
330
1E
100
AcDbEntity
  8
12
  6
DASHED
100
AcDbCircle
 10
-22.5
 20
-253.0
 30
0.0
 40
3.0
  0
ARC
  5
8E0A
330
1E
100
AcDbEntity
  8
22
100
AcDbCircle
 10
0.0000000000004547
 20
-246.0
 30
0.0
 40
18.0
100
AcDbArc
 50
26.38779996124371
 51
153.6122000387049
  0
LINE
  5
8E0B
330
1E
100
AcDbEntity
  8
22
100
AcDbLine
 10
-28.87548450340272
 20
-238.0
 30
0.0
 11
-16.12451549659658
 21
-238.0
 31
0.0
  0
LINE
  5
8E0C
330
1E
100
AcDbEntity
  8
18
  6
DIVIDE
100
AcDbLine
 10
115.0
 20
-490.0000000000002
 30
0.0
 11
115.0
 21
-230.0
 31
0.0
  0
LINE
  5
8E0D
330
1E
100
AcDbEntity
  8
12
  6
DASHED
100
AcDbLine
 10
45.00000000000045
 20
-452.0
 30
0.0
 11
45.00000000000045
 21
-496.0
 31
0.0
  0
LINE
  5
8E0E
330
1E
100
AcDbEntity
  8
12
  6
DASHED
100
AcDbLine
 10
23.00000000000044
 20
-474.0
 30
0.0
 11
67.00000000000045
 21
-474.0
 31
0.0
  0
LINE
  5
8E10
330
1E
100
AcDbEntity
  8
12
  6
DASHED
100
AcDbLine
 10
22.5
 20
-460.0
 30
0.0
 11
22.5
 21
-474.0
 31
0.0
  0
LINE
  5
8E11
330
1E
100
AcDbEntity
  8
12
  6
DASHED
100
AcDbLine
 10
45.00000000000045
 20
-224.0
 30
0.0
 11
45.00000000000045
 21
-268.0
 31
0.0
  0
LINE
  5
8E13
330
1E
100
AcDbEntity
  8
12
  6
DASHED
100
AcDbLine
 10
23.00000000000044
 20
-246.0
 30
0.0
 11
67.00000000000045
 21
-246.0
 31
0.0
  0
LINE
  5
8E14
330
1E
100
AcDbEntity
  8
12
  6
DASHED
100
AcDbLine
 10
22.5
 20
-246.0
 30
0.0
 11
22.5
 21
-260.0
 31
0.0
  0
DIMENSION
  5
8E22
330
1E
100
AcDbEntity
  8
30
  6
CONTINUOUS
100
AcDbDimension
  2
*D29
 10
-31.32693897434006
 20
-462.2932753432656
 30
0.0
 11
-90.72066894106146
 21
-513.1455345229754
 31
0.0
 70
   163
  3
STANDARD
100
AcDbDiametricDimension
 15
-58.67306102565942
 25
-485.7067246567341
 35
0.0
 40
0.0
1001
ACAD
1000
DSTYLE
1002
{
1070
   287
1070
     4
1070
   287
1070
     4
1070
   287
1070
     4
1070
   287
1070
     4
1070
   287
1070
     4
1070
   287
1070
     4
1070
   287
1070
     4
1070
   287
1070
     4
1070
    79
1070
     3
1070
   279
1070
     1
1070
   288
1070
     1
1002
}
  0
DIMENSION
  5
8E2E
330
1E
100
AcDbEntity
  8
30
  6
CONTINUOUS
100
AcDbDimension
  2
*D30
 10
-21.80780957002717
 20
-255.9190533411799
 30
0.0
 11
-31.74744083389134
 21
-214.0023890902475
 31
0.0
 70
   163
  1
M6
  3
STANDARD
100
AcDbDiametricDimension
 15
-23.19219042997284
 25
-250.0809466588199
 35
0.0
 40
0.0
1001
ACAD
1000
DSTYLE
1002
{
1070
   287
1070
     4
1070
   287
1070
     4
1070
   287
1070
     4
1070
    79
1070
     3
1070
   279
1070
     1
1070
   288
1070
     1
1002
}
  0
DIMENSION
  5
8E42
330
1E
100
AcDbEntity
  8
30
  6
CONTINUOUS
100
AcDbDimension
  2
*D31
 10
165.0739101136593
 20
-474.0000000000001
 30
0.0
 11
161.0739101136593
 21
-360.0
 31
0.0
 70
    32
  3
STANDARD
100
AcDbAlignedDimension
 13
63.00000000000046
 23
-246.0
 33
0.0
 14
63.00000000000046
 24
-474.0
 34
0.0
 50
90.0
100
AcDbRotatedDimension
1001
ACAD
1000
DSTYLE
1002
{
1070
    79
1070
     3
1002
}
  0
DIMENSION
  5
8E4F
330
1E
100
AcDbEntity
  8
30
  6
CONTINUOUS
100
AcDbDimension
  2
*D32
 10
144.321147197941
 20
-467.0
 30
0.0
 11
140.3211471979409
 21
-360.0
 31
0.0
 70
    32
  3
STANDARD
100
AcDbAlignedDimension
 13
29.5
 23
-253.0
 33
0.0
 14
29.5
 24
-467.0
 34
0.0
 50
90.0
100
AcDbRotatedDimension
1001
ACAD
1000
DSTYLE
1002
{
1070
    79
1070
     3
1002
}
  0
LINE
  5
91AB
330
1E
100
AcDbEntity
  8
16
100
AcDbLine
 10
429.5287380766135
 20
0.0000000000001137
 30
0.0
 11
184.7365606705588
 21
0.0000000000001137
 31
0.0
  0
LINE
  5
92E0
330
1E
100
AcDbEntity
  8
18
100
AcDbLine
 10
389.747743785507
 20
150.0
 30
0.0
 11
389.747743785507
 21
-150.0
 31
0.0
  0
LINE
  5
92E1
330
1E
100
AcDbEntity
  8
18
100
AcDbLine
 10
385.747743785507
 20
150.0
 30
0.0
 11
385.747743785507
 21
-150.0
 31
0.0
  0
LINE
  5
92E2
330
1E
100
AcDbEntity
  8
10
100
AcDbLine
 10
251.7477437855069
 20
-50.99999999999988
 30
0.0
 11
251.7477437855069
 21
-130.0
 31
0.0
  0
LINE
  5
92E3
330
1E
100
AcDbEntity
  8
10
100
AcDbLine
 10
385.747743785507
 20
130.0
 30
0.0
 11
385.747743785507
 21
-130.0
 31
0.0
  0
CIRCLE
  5
92E4
330
1E
100
AcDbEntity
  8
17
100
AcDbCircle
 10
440.7477437855066
 20
-113.9999999999994
 30
0.0
 40
6.5
  0
LINE
  5
92E5
330
1E
100
AcDbEntity
  8
21
100
AcDbLine
 10
377.7477437855072
 20
-113.9999999999991
 30
0.0
 11
503.7477437855064
 21
-114.0000000000009
 31
0.0
  0
LINE
  5
92E6
330
1E
100
AcDbEntity
  8
21
100
AcDbLine
 10
430.2477437855066
 20
-113.9999999999994
 30
0.0
 11
451.2477437855066
 21
-113.9999999999994
 31
0.0
  0
LINE
  5
92E7
330
1E
100
AcDbEntity
  8
21
100
AcDbLine
 10
423.2477437855061
 20
-98.99999999999945
 30
0.0
 11
455.7477437855066
 21
-98.99999999999945
 31
0.0
  0
LINE
  5
92E8
330
1E
100
AcDbEntity
  8
21
100
AcDbLine
 10
423.2477437855061
 20
-128.9999999999992
 30
0.0
 11
455.7477437855066
 21
-128.9999999999992
 31
0.0
  0
LINE
  5
92E9
330
1E
100
AcDbEntity
  8
21
100
AcDbLine
 10
423.2477437855066
 20
-98.99999999999945
 30
0.0
 11
455.7477437855066
 21
-98.99999999999945
 31
0.0
  0
LINE
  5
92EA
330
1E
100
AcDbEntity
  8
21
100
AcDbLine
 10
423.2477437855066
 20
-128.9999999999992
 30
0.0
 11
455.7477437855066
 21
-128.9999999999992
 31
0.0
  0
LINE
  5
92EB
330
1E
100
AcDbEntity
  8
10
100
AcDbLine
 10
251.7477437855069
 20
-130.0
 30
0.0
 11
385.747743785507
 21
-130.0
 31
0.0
  0
LINE
  5
92EC
330
1E
100
AcDbEntity
  8
18
100
AcDbLine
 10
385.747743785507
 20
-150.0
 30
0.0
 11
389.747743785507
 21
-150.0
 31
0.0
  0
LINE
  5
92ED
330
1E
100
AcDbEntity
  8
21
100
AcDbLine
 10
385.7477437855066
 20
-101.9999999999994
 30
0.0
 11
415.7477437855066
 21
-101.9999999999994
 31
0.0
  0
LINE
  5
92EE
330
1E
100
AcDbEntity
  8
21
100
AcDbLine
 10
385.7477437855066
 20
-125.9999999999992
 30
0.0
 11
415.7477437855066
 21
-125.9999999999992
 31
0.0
  0
LINE
  5
92EF
330
1E
100
AcDbEntity
  8
21
100
AcDbLine
 10
385.7477437855066
 20
-125.9999999999992
 30
0.0
 11
385.7477437855066
 21
-101.9999999999994
 31
0.0
  0
LINE
  5
92F0
330
1E
100
AcDbEntity
  8
17
100
AcDbLine
 10
440.7477437855066
 20
-103.4999999999994
 30
0.0
 11
440.7477437855066
 21
-124.4999999999993
 31
0.0
  0
LINE
  5
92F1
330
1E
100
AcDbEntity
  8
21
100
AcDbLine
 10
415.7477437855066
 20
-125.9999999999992
 30
0.0
 11
415.7477437855066
 21
-101.9999999999994
 31
0.0
  0
ARC
  5
92F2
330
1E
100
AcDbEntity
  8
21
100
AcDbCircle
 10
423.2477437855066
 20
-122.4999999999992
 30
0.0
 40
6.5
100
AcDbArc
 50
180.0
 51
270.0
  0
LINE
  5
92F3
330
1E
100
AcDbEntity
  8
21
100
AcDbLine
 10
415.7477437855066
 20
-122.4999999999992
 30
0.0
 11
416.7477437855065
 21
-122.4999999999992
 31
0.0
  0
ARC
  5
92F4
330
1E
100
AcDbEntity
  8
21
100
AcDbCircle
 10
423.2477437855066
 20
-105.4999999999992
 30
0.0
 40
6.5
100
AcDbArc
 50
90.0
 51
180.0
  0
LINE
  5
92F5
330
1E
100
AcDbEntity
  8
21
100
AcDbLine
 10
415.7477437855066
 20
-105.4999999999992
 30
0.0
 11
416.7477437855065
 21
-105.4999999999992
 31
0.0
  0
LINE
  5
92F6
330
1E
100
AcDbEntity
  8
21
100
AcDbLine
 10
470.2477437855064
 20
-114.0000000000007
 30
0.0
 11
491.2477437855064
 21
-114.0000000000007
 31
0.0
  0
LINE
  5
92F7
330
1E
100
AcDbEntity
  8
21
100
AcDbLine
 10
459.7477437855062
 20
-99.0000000000008
 30
0.0
 11
495.7477437855064
 21
-99.0000000000008
 31
0.0
  0
LINE
  5
92F8
330
1E
100
AcDbEntity
  8
21
100
AcDbLine
 10
459.7477437855062
 20
-129.0000000000006
 30
0.0
 11
495.7477437855064
 21
-129.0000000000006
 31
0.0
  0
LINE
  5
92F9
330
1E
100
AcDbEntity
  8
21
100
AcDbLine
 10
455.7477437855066
 20
-128.9999999999992
 30
0.0
 11
455.7477437855066
 21
-98.99999999999945
 31
0.0
  0
CIRCLE
  5
92FA
330
1E
100
AcDbEntity
  8
17
100
AcDbCircle
 10
480.7477437855061
 20
-114.0000000000007
 30
0.0
 40
6.5
  0
LINE
  5
92FB
330
1E
100
AcDbEntity
  8
17
100
AcDbLine
 10
480.7477437855061
 20
-103.5000000000007
 30
0.0
 11
480.7477437855061
 21
-124.5000000000006
 31
0.0
  0
LINE
  5
92FC
330
1E
100
AcDbEntity
  8
21
100
AcDbLine
 10
495.7477437855064
 20
-129.0000000000006
 30
0.0
 11
495.7477437855064
 21
-99.0000000000008
 31
0.0
  0
LINE
  5
92FD
330
1E
100
AcDbEntity
  8
21
100
AcDbLine
 10
377.7477437855083
 20
114.0000000000003
 30
0.0
 11
503.7477437855064
 21
114.0000000000001
 31
0.0
  0
LINE
  5
92FE
330
1E
100
AcDbEntity
  8
21
100
AcDbLine
 10
416.7477437855065
 20
110.0
 30
0.0
 11
455.7477437855066
 21
110.0
 31
0.0
  0
LINE
  5
92FF
330
1E
100
AcDbEntity
  8
21
100
AcDbLine
 10
416.7477437855065
 20
118.0000000000001
 30
0.0
 11
455.7477437855066
 21
118.0000000000001
 31
0.0
  0
LINE
  5
9300
330
1E
100
AcDbEntity
  8
17
100
AcDbLine
 10
440.7477437855066
 20
126.0000000000001
 30
0.0
 11
440.7477437855066
 21
102.0
 31
0.0
  0
LINE
  5
9301
330
1E
100
AcDbEntity
  8
21
100
AcDbLine
 10
415.7477437855066
 20
102.0000000000004
 30
0.0
 11
415.7477437855066
 21
126.0000000000004
 31
0.0
  0
LINE
  5
9302
330
1E
100
AcDbEntity
  8
21
100
AcDbLine
 10
385.7477437855066
 20
102.0000000000004
 30
0.0
 11
385.7477437855066
 21
126.0000000000004
 31
0.0
  0
LINE
  5
9303
330
1E
100
AcDbEntity
  8
10
100
AcDbLine
 10
251.7477437855069
 20
130.0
 30
0.0
 11
251.7477437855069
 21
51.00000000000012
 31
0.0
  0
LINE
  5
9305
330
1E
100
AcDbEntity
  8
10
100
AcDbLine
 10
237.7477437855068
 20
17.82776060571437
 30
0.0
 11
216.3528017192818
 21
32.80866032004542
 31
0.0
  0
LINE
  5
9306
330
1E
100
AcDbEntity
  8
10
100
AcDbLine
 10
209.4698844830694
 20
22.97883578857738
 30
0.0
 11
216.3528017192818
 21
32.80866032004542
 31
0.0
  0
LINE
  5
9307
330
1E
100
AcDbEntity
  8
10
100
AcDbLine
 10
245.7477437855069
 20
51.00000000000012
 30
0.0
 11
245.7477437855069
 21
-50.99999999999988
 31
0.0
  0
LINE
  5
9308
330
1E
100
AcDbEntity
  8
10
100
AcDbLine
 10
241.7477437855068
 20
45.0000000000001
 30
0.0
 11
241.7477437855068
 21
-44.99999999999988
 31
0.0
  0
LINE
  5
9309
330
1E
100
AcDbEntity
  8
10
100
AcDbLine
 10
237.7477437855068
 20
45.0000000000001
 30
0.0
 11
237.7477437855068
 21
-44.99999999999988
 31
0.0
  0
LINE
  5
930A
330
1E
100
AcDbEntity
  8
10
100
AcDbLine
 10
237.7477437855068
 20
-44.99999999999988
 30
0.0
 11
245.7477437855069
 21
-44.99999999999988
 31
0.0
  0
LINE
  5
930B
330
1E
100
AcDbEntity
  8
10
100
AcDbLine
 10
245.7477437855069
 20
-50.99999999999988
 30
0.0
 11
251.7477437855069
 21
-50.99999999999988
 31
0.0
  0
LINE
  5
930C
330
1E
100
AcDbEntity
  8
10
100
AcDbLine
 10
237.7477437855068
 20
3.178465540576778
 30
0.0
 11
209.4698844830694
 21
22.97883578857738
 31
0.0
  0
ARC
  5
930D
330
1E
100
AcDbEntity
  8
30
100
AcDbCircle
 10
252.747743785507
 20
0.0000000000001137
 30
0.0
 40
49.0
100
AcDbArc
 50
152.033461315378
 51
180.0
  0
LINE
  5
930E
330
1E
100
AcDbEntity
  8
10
100
AcDbLine
 10
237.7477437855068
 20
45.0000000000001
 30
0.0
 11
245.7477437855069
 21
45.0000000000001
 31
0.0
  0
LINE
  5
930F
330
1E
100
AcDbEntity
  8
10
100
AcDbLine
 10
245.7477437855069
 20
51.00000000000012
 30
0.0
 11
251.7477437855069
 21
51.00000000000012
 31
0.0
  0
LINE
  5
9310
330
1E
100
AcDbEntity
  8
21
100
AcDbLine
 10
385.7477437855066
 20
102.0000000000004
 30
0.0
 11
415.7477437855066
 21
102.0000000000004
 31
0.0
  0
LINE
  5
9311
330
1E
100
AcDbEntity
  8
21
100
AcDbLine
 10
416.7477437855065
 20
105.5000000000003
 30
0.0
 11
416.7477437855065
 21
110.0
 31
0.0
  0
LINE
  5
9312
330
1E
100
AcDbEntity
  8
21
100
AcDbLine
 10
415.7477437855066
 20
105.5000000000003
 30
0.0
 11
416.7477437855065
 21
105.5000000000003
 31
0.0
  0
LINE
  5
9313
330
1E
100
AcDbEntity
  8
10
100
AcDbLine
 10
385.747743785507
 20
130.0
 30
0.0
 11
251.7477437855069
 21
130.0
 31
0.0
  0
LINE
  5
9314
330
1E
100
AcDbEntity
  8
21
100
AcDbLine
 10
385.7477437855066
 20
126.0000000000004
 30
0.0
 11
415.7477437855066
 21
126.0000000000004
 31
0.0
  0
LINE
  5
9315
330
1E
100
AcDbEntity
  8
18
100
AcDbLine
 10
385.747743785507
 20
150.0
 30
0.0
 11
389.747743785507
 21
150.0
 31
0.0
  0
LINE
  5
9316
330
1E
100
AcDbEntity
  8
21
100
AcDbLine
 10
416.7477437855065
 20
122.5000000000004
 30
0.0
 11
416.7477437855065
 21
118.0000000000001
 31
0.0
  0
LINE
  5
9317
330
1E
100
AcDbEntity
  8
21
100
AcDbLine
 10
415.7477437855066
 20
122.5000000000004
 30
0.0
 11
416.7477437855065
 21
122.5000000000004
 31
0.0
  0
LINE
  5
9318
330
1E
100
AcDbEntity
  8
17
100
AcDbLine
 10
480.7477437855061
 20
126.0000000000001
 30
0.0
 11
480.7477437855061
 21
102.0
 31
0.0
  0
LINE
  5
9319
330
1E
100
AcDbEntity
  8
21
100
AcDbLine
 10
455.7477437855066
 20
110.0
 30
0.0
 11
455.7477437855066
 21
118.0000000000001
 31
0.0
  0
LINE
  5
931A
330
1E
100
AcDbEntity
  8
21
100
AcDbLine
 10
495.7477437855064
 20
110.0
 30
0.0
 11
495.7477437855064
 21
118.0000000000001
 31
0.0
  0
LINE
  5
931B
330
1E
100
AcDbEntity
  8
21
100
AcDbLine
 10
459.7477437855062
 20
110.0
 30
0.0
 11
495.7477437855064
 21
110.0
 31
0.0
  0
LINE
  5
931C
330
1E
100
AcDbEntity
  8
21
100
AcDbLine
 10
459.7477437855062
 20
118.0000000000001
 30
0.0
 11
495.7477437855064
 21
118.0000000000001
 31
0.0
  0
DIMENSION
  5
93AC
330
1E
100
AcDbEntity
  8
30
  6
CONTINUOUS
100
AcDbDimension
  2
*D33
 10
385.747743785507
 20
-166.5532887500315
 30
0.0
 11
318.7477437855068
 21
-162.5532887500314
 31
0.0
 70
    32
  3
STANDARD
100
AcDbAlignedDimension
 13
251.7477437855069
 23
-130.0
 33
0.0
 14
385.747743785507
 24
-130.0
 34
0.0
100
AcDbRotatedDimension
1001
ACAD
1000
DSTYLE
1002
{
1070
    79
1070
     3
1002
}
  0
DIMENSION
  5
93B9
330
1E
100
AcDbEntity
  8
30
  6
CONTINUOUS
100
AcDbDimension
  2
*D34
 10
385.747743785507
 20
-186.7791744557816
 30
0.0
 11
315.747743785507
 21
-182.7791744557815
 31
0.0
 70
    32
  3
STANDARD
100
AcDbAlignedDimension
 13
245.7477437855069
 23
-50.99999999999988
 33
0.0
 14
385.747743785507
 24
-167.0532887500314
 34
0.0
100
AcDbRotatedDimension
1001
ACAD
1000
DSTYLE
1002
{
1070
    79
1070
     3
1002
}
  0
DIMENSION
  5
93C6
330
1E
100
AcDbEntity
  8
30
  6
CONTINUOUS
100
AcDbDimension
  2
*D35
 10
385.747743785507
 20
-204.3082801218943
 30
0.0
 11
313.747743785507
 21
-200.3082801218943
 31
0.0
 70
    32
  3
STANDARD
100
AcDbAlignedDimension
 13
241.7477437855068
 23
-44.99999999999988
 33
0.0
 14
385.747743785507
 24
-186.7791744557816
 34
0.0
100
AcDbRotatedDimension
1001
ACAD
1000
DSTYLE
1002
{
1070
    79
1070
     3
1002
}
  0
DIMENSION
  5
93D3
330
1E
100
AcDbEntity
  8
30
  6
CONTINUOUS
100
AcDbDimension
  2
*D36
 10
241.7477437855068
 20
-204.8082801218943
 30
0.0
 11
248.747743785507
 21
-200.8082801218943
 31
0.0
 70
    32
  3
STANDARD
100
AcDbAlignedDimension
 13
237.7477437855068
 23
-44.99999999999988
 33
0.0
 14
241.7477437855068
 24
-45.99999999999988
 34
0.0
100
AcDbRotatedDimension
1001
ACAD
1000
DSTYLE
1002
{
1070
    79
1070
     3
1002
}
  0
DIMENSION
  5
93E1
330
1E
100
AcDbEntity
  8
30
  6
CONTINUOUS
100
AcDbDimension
  2
*D37
 10
385.747743785507
 20
-223.8599708177348
 30
0.0
 11
294.747743785507
 21
-219.8599708177348
 31
0.0
 70
    32
  3
STANDARD
100
AcDbAlignedDimension
 13
203.7477437855069
 23
0.0000000000001137
 33
0.0
 14
385.747743785507
 24
-166.5532887500315
 34
0.0
100
AcDbRotatedDimension
1001
ACAD
1000
DSTYLE
1002
{
1070
    79
1070
     3
1002
}
  0
DIMENSION
  5
9413
330
1E
100
AcDbEntity
  8
30
  6
CONTINUOUS
100
AcDbDimension
  2
*D38
 10
455.7477437855066
 20
-166.5532887500315
 30
0.0
 11
420.7477437855068
 21
-162.5532887500314
 31
0.0
 70
    32
  3
STANDARD
100
AcDbAlignedDimension
 13
385.747743785507
 23
-166.5532887500315
 33
0.0
 14
455.7477437855066
 24
-128.9999999999992
 34
0.0
100
AcDbRotatedDimension
1001
ACAD
1000
DSTYLE
1002
{
1070
    79
1070
     3
1002
}
  0
DIMENSION
  5
9420
330
1E
100
AcDbEntity
  8
30
  6
CONTINUOUS
100
AcDbDimension
  2
*D39
 10
455.7477437855066
 20
-149.721628814008
 30
0.0
 11
448.2477437855066
 21
-145.721628814008
 31
0.0
 70
    32
  3
STANDARD
100
AcDbAlignedDimension
 13
440.7477437855066
 23
-124.4999999999993
 33
0.0
 14
455.7477437855066
 24
-129.9999999999992
 34
0.0
100
AcDbRotatedDimension
1001
ACAD
1000
DSTYLE
1002
{
1070
    79
1070
     3
1002
}
  0
DIMENSION
  5
943A
330
1E
100
AcDbEntity
  8
30
  6
CONTINUOUS
100
AcDbDimension
  2
*D41
 10
495.7477437855064
 20
-150.221628814008
 30
0.0
 11
488.2477437855063
 21
-146.2216288140079
 31
0.0
 70
    32
  3
STANDARD
100
AcDbAlignedDimension
 13
480.7477437855061
 23
-124.5000000000006
 33
0.0
 14
495.7477437855064
 24
-129.0000000000004
 34
0.0
100
AcDbRotatedDimension
1001
ACAD
1000
DSTYLE
1002
{
1070
    79
1070
     3
1002
}
  0
DIMENSION
  5
9447
330
1E
100
AcDbEntity
  8
30
  6
CONTINUOUS
100
AcDbDimension
  2
*D42
 10
495.7477437855064
 20
-186.7791744557816
 30
0.0
 11
440.7477437855066
 21
-182.7791744557815
 31
0.0
 70
    32
  3
STANDARD
100
AcDbAlignedDimension
 13
385.747743785507
 23
-186.7791744557816
 33
0.0
 14
495.7477437855064
 24
-129.0000000000004
 34
0.0
100
AcDbRotatedDimension
1001
ACAD
1000
DSTYLE
1002
{
1070
    79
1070
     3
1002
}
  0
LINE
  5
949F
330
1E
100
AcDbEntity
  8
21
100
AcDbLine
 10
102.9999870723744
 20
352.0
 30
0.0
 11
102.9999870723744
 21
384.8095842401765
 31
0.0
  0
LINE
  5
94A0
330
1E
100
AcDbEntity
  8
21
100
AcDbLine
 10
76.99998707237461
 20
352.0
 30
0.0
 11
76.99998707237461
 21
384.8095842401765
 31
0.0
  0
LINE
  5
94A1
330
1E
100
AcDbEntity
  8
21
100
AcDbLine
 10
56.99998707237461
 20
352.0
 30
0.0
 11
56.99998707237461
 21
381.9999999999998
 31
0.0
  0
LINE
  5
94A2
330
1E
100
AcDbEntity
  8
21
100
AcDbLine
 10
32.99998707237461
 20
352.0
 30
0.0
 11
32.99998707237461
 21
381.9999999999998
 31
0.0
  0
LINE
  5
94A3
330
1E
100
AcDbEntity
  8
21
100
AcDbLine
 10
12.99998707237461
 20
352.0
 30
0.0
 11
12.99998707237461
 21
384.8095842401765
 31
0.0
  0
LINE
  5
94A4
330
1E
100
AcDbEntity
  8
21
100
AcDbLine
 10
-13.00001292762539
 20
352.0
 30
0.0
 11
-13.00001292762539
 21
384.8095842401765
 31
0.0
  0
LINE
  5
94A5
330
1E
100
AcDbEntity
  8
21
100
AcDbLine
 10
-33.00001292762539
 20
352.0
 30
0.0
 11
-33.00001292762539
 21
381.9999999999998
 31
0.0
  0
LINE
  5
94A6
330
1E
100
AcDbEntity
  8
21
100
AcDbLine
 10
-57.00001292762539
 20
352.0
 30
0.0
 11
-57.00001292762539
 21
381.9999999999998
 31
0.0
  0
LINE
  5
94A8
330
1E
100
AcDbEntity
  8
10
  6
CONTINOUS
100
AcDbLine
 10
114.9999870723744
 20
211.9999999999996
 30
0.0
 11
114.9999870723744
 21
352.0
 31
0.0
  0
LINE
  5
94A9
330
1E
100
AcDbEntity
  8
10
  6
CONTINOUS
100
AcDbLine
 10
-70.00001292762539
 20
211.9999999999996
 30
0.0
 11
-70.00001292762539
 21
352.0
 31
0.0
  0
LINE
  5
94AA
330
1E
100
AcDbEntity
  8
10
  6
CONTINOUS
100
AcDbLine
 10
-58.00001292762527
 20
207.9999999999996
 30
0.0
 11
57.99998707237461
 21
207.9999999999996
 31
0.0
  0
LINE
  5
94AB
330
1E
100
AcDbEntity
  8
10
  6
CONTINOUS
100
AcDbLine
 10
-70.00001292762539
 20
211.9999999999996
 30
0.0
 11
114.9999870723744
 21
211.9999999999996
 31
0.0
  0
LINE
  5
94AC
330
1E
100
AcDbEntity
  8
10
  6
CONTINOUS
100
AcDbLine
 10
-58.00001292762527
 20
207.9999999999996
 30
0.0
 11
-58.00001292762527
 21
211.9999999999996
 31
0.0
  0
LINE
  5
94AD
330
1E
100
AcDbEntity
  8
10
  6
CONTINOUS
100
AcDbLine
 10
-17.00001292762539
 20
175.4999999999999
 30
0.0
 11
16.99998707237472
 21
175.4999999999999
 31
0.0
  0
LINE
  5
94AE
330
1E
100
AcDbEntity
  8
10
  6
CONTINOUS
100
AcDbLine
 10
-18.00001292762527
 20
203.9999999999998
 30
0.0
 11
17.99998707237461
 21
203.9999999999998
 31
0.0
  0
LINE
  5
94AF
330
1E
100
AcDbEntity
  8
10
  6
CONTINOUS
100
AcDbLine
 10
-17.00001292762539
 20
175.4999999999999
 30
0.0
 11
-17.00001292762539
 21
203.9999999999998
 31
0.0
  0
LINE
  5
94B0
330
1E
100
AcDbEntity
  8
10
  6
CONTINOUS
100
AcDbLine
 10
-18.00001292762527
 20
203.9999999999998
 30
0.0
 11
-18.00001292762527
 21
207.9999999999996
 31
0.0
  0
LINE
  5
94B1
330
1E
100
AcDbEntity
  8
10
  6
CONTINOUS
100
AcDbLine
 10
16.99998707237472
 20
175.4999999999999
 30
0.0
 11
16.99998707237472
 21
203.9999999999998
 31
0.0
  0
LINE
  5
94B2
330
1E
100
AcDbEntity
  8
10
  6
CONTINOUS
100
AcDbLine
 10
17.99998707237461
 20
203.9999999999998
 30
0.0
 11
17.99998707237461
 21
207.9999999999996
 31
0.0
  0
LINE
  5
94B3
330
1E
100
AcDbEntity
  8
10
  6
CONTINOUS
100
AcDbLine
 10
57.99998707237461
 20
207.9999999999996
 30
0.0
 11
57.99998707237461
 21
211.9999999999996
 31
0.0
  0
LINE
  5
94B4
330
1E
100
AcDbEntity
  8
10
  6
CONTINOUS
100
AcDbLine
 10
-70.00001292762539
 20
217.9999999999997
 30
0.0
 11
114.9999870723744
 21
217.9999999999997
 31
0.0
  0
LINE
  5
94B5
330
1E
100
AcDbEntity
  8
10
  6
CONTINOUS
100
AcDbLine
 10
-70.00001292762539
 20
352.0
 30
0.0
 11
114.9999870723744
 21
352.0
 31
0.0
  0
LINE
  5
94B6
330
1E
100
AcDbEntity
  8
21
100
AcDbLine
 10
-57.00001292762539
 20
381.9999999999998
 30
0.0
 11
-33.00001292762539
 21
381.9999999999998
 31
0.0
  0
LINE
  5
94B7
330
1E
100
AcDbEntity
  8
17
100
AcDbLine
 10
-55.50001292762539
 20
406.9999999999998
 30
0.0
 11
-34.50001292762539
 21
406.9999999999998
 31
0.0
  0
LINE
  5
94B8
330
1E
100
AcDbEntity
  8
21
100
AcDbLine
 10
-60.00001292762539
 20
421.9999999999997
 30
0.0
 11
-30.00001292762538
 21
421.9999999999997
 31
0.0
  0
CIRCLE
  5
94B9
330
1E
100
AcDbEntity
  8
17
100
AcDbCircle
 10
-45.00001292762539
 20
406.9999999999998
 30
0.0
 40
6.5
  0
LINE
  5
94BA
330
1E
100
AcDbEntity
  8
17
100
AcDbLine
 10
-45.00001292762539
 20
396.4999999999998
 30
0.0
 11
-45.00001292762539
 21
417.4999999999998
 31
0.0
  0
LINE
  5
94BB
330
1E
100
AcDbEntity
  8
21
100
AcDbLine
 10
-60.00001292762539
 20
389.4999999999998
 30
0.0
 11
-60.00001292762539
 21
421.9999999999997
 31
0.0
  0
LINE
  5
94BC
330
1E
100
AcDbEntity
  8
21
100
AcDbLine
 10
-60.00001292762539
 20
389.4999999999998
 30
0.0
 11
-60.00001292762539
 21
421.9999999999997
 31
0.0
  0
ARC
  5
94BD
330
1E
100
AcDbEntity
  8
21
100
AcDbCircle
 10
-53.50001292762539
 20
389.4999999999998
 30
0.0
 40
6.5
100
AcDbArc
 50
180.0
 51
270.0
  0
LINE
  5
94BE
330
1E
100
AcDbEntity
  8
21
100
AcDbLine
 10
-53.50001292762539
 20
381.9999999999998
 30
0.0
 11
-53.50001292762539
 21
382.9999999999998
 31
0.0
  0
LINE
  5
94BF
330
1E
100
AcDbEntity
  8
21
100
AcDbLine
 10
14.99998707237461
 20
389.4999999999998
 30
0.0
 11
14.99998707237461
 21
461.9999999999998
 31
0.0
  0
LINE
  5
94C0
330
1E
100
AcDbEntity
  8
21
100
AcDbLine
 10
-15.00001292762539
 20
389.4999999999998
 30
0.0
 11
-15.00001292762539
 21
461.9999999999998
 31
0.0
  0
LINE
  5
94C1
330
1E
100
AcDbEntity
  8
21
100
AcDbLine
 10
14.99998707237461
 20
389.4999999999998
 30
0.0
 11
14.99998707237461
 21
461.9999999999998
 31
0.0
  0
LINE
  5
94C2
330
1E
100
AcDbEntity
  8
21
100
AcDbLine
 10
-15.00001292762539
 20
389.4999999999998
 30
0.0
 11
-15.00001292762539
 21
461.9999999999998
 31
0.0
  0
LINE
  5
94C3
330
1E
100
AcDbEntity
  8
21
100
AcDbLine
 10
-15.00001292762539
 20
422.9999999999998
 30
0.0
 11
14.99998707237461
 21
422.9999999999998
 31
0.0
  0
LINE
  5
94C4
330
1E
100
AcDbEntity
  8
21
100
AcDbLine
 10
-30.00001292762538
 20
389.4999999999998
 30
0.0
 11
-30.00001292762538
 21
421.9999999999997
 31
0.0
  0
LINE
  5
94C5
330
1E
100
AcDbEntity
  8
21
100
AcDbLine
 10
-30.00001292762538
 20
389.4999999999998
 30
0.0
 11
-30.00001292762538
 21
421.9999999999997
 31
0.0
  0
LINE
  5
94C6
330
1E
100
AcDbEntity
  8
21
100
AcDbLine
 10
-36.50001292762539
 20
381.9999999999998
 30
0.0
 11
-36.50001292762539
 21
382.9999999999998
 31
0.0
  0
ARC
  5
94C7
330
1E
100
AcDbEntity
  8
21
100
AcDbCircle
 10
-36.50001292762539
 20
389.4999999999998
 30
0.0
 40
6.5
100
AcDbArc
 50
270.0
 51
0.0
  0
ARC
  5
94C8
330
1E
100
AcDbEntity
  8
21
100
AcDbCircle
 10
-8.500012927625391
 20
389.4999999999998
 30
0.0
 40
6.5
100
AcDbArc
 50
180.0
 51
226.1869385395935
  0
ARC
  5
94C9
330
1E
100
AcDbEntity
  8
21
100
AcDbCircle
 10
8.499987072374606
 20
389.4999999999998
 30
0.0
 40
6.5
100
AcDbArc
 50
313.8130614604063
 51
0.0
  0
LINE
  5
94CA
330
1E
100
AcDbEntity
  8
21
100
AcDbLine
 10
-10.50001292762539
 20
446.9999999999997
 30
0.0
 11
10.49998707237459
 21
446.9999999999997
 31
0.0
  0
LINE
  5
94CB
330
1E
100
AcDbEntity
  8
21
100
AcDbLine
 10
-15.00001292762539
 20
461.9999999999998
 30
0.0
 11
14.99998707237461
 21
461.9999999999998
 31
0.0
  0
CIRCLE
  5
94CC
330
1E
100
AcDbEntity
  8
17
100
AcDbCircle
 10
-0.0000129276253915
 20
446.9999999999997
 30
0.0
 40
6.5
  0
LINE
  5
94CD
330
1E
100
AcDbEntity
  8
17
100
AcDbLine
 10
-0.0000129276253915
 20
436.4999999999998
 30
0.0
 11
-0.0000129276253915
 21
457.4999999999998
 31
0.0
  0
CIRCLE
  5
94CE
330
1E
100
AcDbEntity
  8
17
100
AcDbCircle
 10
89.99998707237461
 20
446.9999999999997
 30
0.0
 40
6.5
  0
LINE
  5
94CF
330
1E
100
AcDbEntity
  8
21
100
AcDbLine
 10
74.99998707237461
 20
461.9999999999998
 30
0.0
 11
104.9999870723745
 21
461.9999999999998
 31
0.0
  0
LINE
  5
94D0
330
1E
100
AcDbEntity
  8
17
100
AcDbLine
 10
79.49998707237461
 20
446.9999999999997
 30
0.0
 11
100.4999870723744
 21
446.9999999999997
 31
0.0
  0
LINE
  5
94D1
330
1E
100
AcDbEntity
  8
21
100
AcDbLine
 10
74.99998707237461
 20
422.9999999999998
 30
0.0
 11
104.9999870723745
 21
422.9999999999998
 31
0.0
  0
LINE
  5
94D2
330
1E
100
AcDbEntity
  8
21
100
AcDbLine
 10
74.99998707237461
 20
389.4999999999998
 30
0.0
 11
74.99998707237461
 21
461.9999999999998
 31
0.0
  0
LINE
  5
94D3
330
1E
100
AcDbEntity
  8
21
100
AcDbLine
 10
74.99998707237461
 20
389.4999999999998
 30
0.0
 11
74.99998707237461
 21
461.9999999999998
 31
0.0
  0
LINE
  5
94D4
330
1E
100
AcDbEntity
  8
21
100
AcDbLine
 10
32.99998707237461
 20
381.9999999999998
 30
0.0
 11
56.99998707237461
 21
381.9999999999998
 31
0.0
  0
ARC
  5
94D5
330
1E
100
AcDbEntity
  8
21
100
AcDbCircle
 10
53.4999870723746
 20
389.4999999999998
 30
0.0
 40
6.5
100
AcDbArc
 50
270.0
 51
0.0
  0
LINE
  5
94D6
330
1E
100
AcDbEntity
  8
21
100
AcDbLine
 10
29.99998707237461
 20
421.9999999999997
 30
0.0
 11
59.99998707237461
 21
421.9999999999997
 31
0.0
  0
LINE
  5
94D7
330
1E
100
AcDbEntity
  8
17
100
AcDbLine
 10
34.4999870723746
 20
406.9999999999998
 30
0.0
 11
55.49998707237461
 21
406.9999999999998
 31
0.0
  0
CIRCLE
  5
94D8
330
1E
100
AcDbEntity
  8
17
100
AcDbCircle
 10
44.99998707237461
 20
406.9999999999998
 30
0.0
 40
6.5
  0
LINE
  5
94D9
330
1E
100
AcDbEntity
  8
17
100
AcDbLine
 10
44.99998707237461
 20
396.4999999999998
 30
0.0
 11
44.99998707237461
 21
417.4999999999998
 31
0.0
  0
LINE
  5
94DA
330
1E
100
AcDbEntity
  8
21
100
AcDbLine
 10
29.99998707237461
 20
389.4999999999998
 30
0.0
 11
29.99998707237461
 21
421.9999999999997
 31
0.0
  0
LINE
  5
94DB
330
1E
100
AcDbEntity
  8
21
100
AcDbLine
 10
29.99998707237461
 20
389.4999999999998
 30
0.0
 11
29.99998707237461
 21
421.9999999999997
 31
0.0
  0
LINE
  5
94DC
330
1E
100
AcDbEntity
  8
21
100
AcDbLine
 10
36.49998707237461
 20
381.9999999999998
 30
0.0
 11
36.49998707237461
 21
382.9999999999998
 31
0.0
  0
ARC
  5
94DD
330
1E
100
AcDbEntity
  8
21
100
AcDbCircle
 10
36.49998707237461
 20
389.4999999999998
 30
0.0
 40
6.5
100
AcDbArc
 50
180.0
 51
270.0
  0
LINE
  5
94DE
330
1E
100
AcDbEntity
  8
21
100
AcDbLine
 10
53.4999870723746
 20
381.9999999999998
 30
0.0
 11
53.4999870723746
 21
382.9999999999998
 31
0.0
  0
LINE
  5
94DF
330
1E
100
AcDbEntity
  8
21
100
AcDbLine
 10
59.99998707237461
 20
389.4999999999998
 30
0.0
 11
59.99998707237461
 21
421.9999999999997
 31
0.0
  0
LINE
  5
94E0
330
1E
100
AcDbEntity
  8
21
100
AcDbLine
 10
59.99998707237461
 20
389.4999999999998
 30
0.0
 11
59.99998707237461
 21
421.9999999999997
 31
0.0
  0
ARC
  5
94E1
330
1E
100
AcDbEntity
  8
21
100
AcDbCircle
 10
81.49998707237461
 20
389.4999999999998
 30
0.0
 40
6.5
100
AcDbArc
 50
180.0
 51
226.1869385395935
  0
LINE
  5
94E2
330
1E
100
AcDbEntity
  8
21
100
AcDbLine
 10
104.9999870723745
 20
389.4999999999998
 30
0.0
 11
104.9999870723745
 21
461.9999999999998
 31
0.0
  0
LINE
  5
94E3
330
1E
100
AcDbEntity
  8
21
100
AcDbLine
 10
104.9999870723745
 20
389.4999999999998
 30
0.0
 11
104.9999870723745
 21
461.9999999999998
 31
0.0
  0
ARC
  5
94E4
330
1E
100
AcDbEntity
  8
21
100
AcDbCircle
 10
98.4999870723746
 20
389.4999999999998
 30
0.0
 40
6.5
100
AcDbArc
 50
313.8130614604063
 51
0.0
  0
LINE
  5
94E5
330
1E
100
AcDbEntity
  8
17
100
AcDbLine
 10
89.99998707237461
 20
436.4999999999998
 30
0.0
 11
89.99998707237461
 21
457.4999999999998
 31
0.0
  0
LINE
  5
9502
330
1E
100
AcDbEntity
  8
12
100
AcDbLine
 10
25.50000725840209
 20
366.6999586737895
 30
0.0
 11
21.50002792150711
 21
366.6999586737895
 31
0.0
  0
LINE
  5
9503
330
1E
100
AcDbEntity
  8
12
100
AcDbLine
 10
-20.49999274159785
 20
366.6999586737895
 30
0.0
 11
-24.49997207849281
 21
366.6999586737895
 31
0.0
  0
LINE
  5
9504
330
1E
100
AcDbEntity
  8
12
100
AcDbLine
 10
-24.49997207849281
 20
352.0
 30
0.0
 11
-24.49997207849281
 21
366.6999586737895
 31
0.0
  0
LINE
  5
9505
330
1E
100
AcDbEntity
  8
12
100
AcDbLine
 10
-20.49999274159785
 20
352.0
 30
0.0
 11
-20.49999274159785
 21
366.6999586737895
 31
0.0
  0
LINE
  5
9506
330
1E
100
AcDbEntity
  8
12
100
AcDbLine
 10
21.50002792150711
 20
352.0
 30
0.0
 11
21.50002792150711
 21
366.6999586737895
 31
0.0
  0
DIMENSION
  5
9507
330
1E
100
AcDbEntity
  8
30
100
AcDbDimension
  2
*D43
 10
170.503588994346
 20
352.0
 30
0.0
 11
184.503588994346
 21
363.3499793368947
 31
0.0
 70
    32
  3
STANDARD
100
AcDbAlignedDimension
 13
25.50000725840209
 23
366.6999586737895
 33
0.0
 14
153.0066698058554
 24
352.0
 34
0.0
 50
90.0
100
AcDbRotatedDimension
1001
ACAD
1000
DSTYLE
1002
{
1070
   287
1070
     4
1070
   287
1070
     4
1070
   287
1070
     4
1070
   287
1070
     4
1070
   287
1070
     4
1070
   287
1070
     4
1070
   287
1070
     4
1070
   287
1070
     4
1070
    79
1070
     3
1070
   279
1070
     1
1002
}
  0
LINE
  5
9508
330
1E
100
AcDbEntity
  8
12
100
AcDbLine
 10
25.50000725840209
 20
352.0
 30
0.0
 11
25.50000725840209
 21
366.6999586737895
 31
0.0
  0
DIMENSION
  5
951E
330
1E
100
AcDbEntity
  8
30
  6
CONTINUOUS
100
AcDbDimension
  2
*D45
 10
44.99998707237462
 20
492.5635362125028
 30
0.0
 11
22.49998707237461
 21
496.5635362125028
 31
0.0
 70
    32
  3
STANDARD
100
AcDbAlignedDimension
 13
-0.0000129276253915
 23
457.5000000000001
 33
0.0
 14
44.99998707237461
 24
417.4999999999998
 34
0.0
100
AcDbRotatedDimension
1001
ACAD
1000
DSTYLE
1002
{
1070
   287
1070
     4
1070
   287
1070
     4
1070
   287
1070
     4
1070
   287
1070
     4
1070
   287
1070
     4
1070
   287
1070
     4
1070
   287
1070
     4
1070
   287
1070
     4
1070
   279
1070
     1
1070
    79
1070
     3
1002
}
  0
DIMENSION
  5
951F
330
1E
100
AcDbEntity
  8
30
  6
CONTINUOUS
100
AcDbDimension
  2
*D44
 10
-0.0000129276253894
 20
492.5635362125028
 30
0.0
 11
-22.50001292762536
 21
496.5635362125028
 31
0.0
 70
    32
  3
STANDARD
100
AcDbAlignedDimension
 13
-45.00001292762533
 23
417.4999999999998
 33
0.0
 14
-0.0000129276253915
 24
457.5000000000001
 34
0.0
100
AcDbRotatedDimension
1001
ACAD
1000
DSTYLE
1002
{
1070
    79
1070
     3
1002
}
  0
DIMENSION
  5
954A
330
1E
100
AcDbEntity
  8
30
  6
CONTINUOUS
100
AcDbDimension
  2
*D46
 10
89.99998707237461
 20
492.5635362125028
 30
0.0
 11
67.49998707237463
 21
496.5635362125028
 31
0.0
 70
    32
  3
STANDARD
100
AcDbAlignedDimension
 13
44.99998707237465
 23
417.4999999999998
 33
0.0
 14
89.99998707237461
 24
457.5000000000001
 34
0.0
100
AcDbRotatedDimension
1001
ACAD
1000
DSTYLE
1002
{
1070
    79
1070
     3
1002
}
  0
ARC
  5
9603
330
1E
100
AcDbEntity
  8
22
100
AcDbCircle
 10
45.00000000000045
 20
-246.0
 30
0.0
 40
18.0
100
AcDbArc
 50
180.0
 51
0.0
  0
ARC
  5
9604
330
1E
100
AcDbEntity
  8
22
100
AcDbCircle
 10
90.00000000000046
 20
-246.0
 30
0.0
 40
18.0
100
AcDbArc
 50
180.0
 51
153.6122000387566
  0
LINE
  5
9605
330
1E
100
AcDbEntity
  8
22
100
AcDbLine
 10
61.12451549659748
 20
-238.0
 30
0.0
 11
73.87548450340318
 21
-238.0
 31
0.0
  0
ARC
  5
9606
330
1E
100
AcDbEntity
  8
22
100
AcDbCircle
 10
45.00000000000045
 20
-246.0
 30
0.0
 40
18.0
100
AcDbArc
 50
26.38779996124776
 51
153.6122000387566
  0
LINE
  5
9607
330
1E
100
AcDbEntity
  8
22
100
AcDbLine
 10
90.00000000000046
 20
-224.0
 30
0.0
 11
90.00000000000046
 21
-268.0
 31
0.0
  0
LINE
  5
9608
330
1E
100
AcDbEntity
  8
22
100
AcDbLine
 10
68.00000000000046
 20
-246.0
 30
0.0
 11
112.0000000000004
 21
-246.0
 31
0.0
  0
ARC
  5
9609
330
1E
100
AcDbEntity
  8
22
100
AcDbCircle
 10
-45.00000000000045
 20
-474.0
 30
0.0
 40
18.0
210
0.0
220
0.0
230
-1.0
100
AcDbArc
 50
0.0
 51
180.0
  0
ARC
  5
960A
330
1E
100
AcDbEntity
  8
22
100
AcDbCircle
 10
-90.00000000000046
 20
-474.0
 30
0.0
 40
18.0
210
0.0
220
0.0
230
-1.0
100
AcDbArc
 50
0.0
 51
333.6122000387565
  0
ARC
  5
960B
330
1E
100
AcDbEntity
  8
22
100
AcDbCircle
 10
-45.00000000000045
 20
-474.0
 30
0.0
 40
18.0
210
0.0
220
0.0
230
-1.0
100
AcDbArc
 50
206.3877999612476
 51
333.6122000387565
  0
LINE
  5
960C
330
1E
100
AcDbEntity
  8
22
100
AcDbLine
 10
61.12451549659748
 20
-482.0
 30
0.0
 11
73.87548450340318
 21
-482.0
 31
0.0
  0
LINE
  5
960D
330
1E
100
AcDbEntity
  8
22
100
AcDbLine
 10
90.00000000000046
 20
-452.0
 30
0.0
 11
90.00000000000046
 21
-496.0
 31
0.0
  0
LINE
  5
960E
330
1E
100
AcDbEntity
  8
22
100
AcDbLine
 10
68.00000000000046
 20
-474.0
 30
0.0
 11
112.0000000000004
 21
-474.0
 31
0.0
  0
DIMENSION
  5
960F
330
1E
100
AcDbEntity
  8
30
  6
CONTINUOUS
100
AcDbDimension
  2
*D47
 10
23.00000000000044
 20
-530.2887207999806
 30
0.0
 11
0.5000000000004532
 21
-526.2887207999806
 31
0.0
 70
    32
  3
STANDARD
100
AcDbAlignedDimension
 13
-21.99999999999953
 23
-474.0
 33
0.0
 14
23.00000000000044
 24
-474.0
 34
0.0
100
AcDbRotatedDimension
1001
ACAD
1000
DSTYLE
1002
{
1070
    79
1070
     3
1002
}
  0
LINE
  5
96E7
330
1E
100
AcDbEntity
  8
10
  6
CONTINOUS
100
AcDbLine
 10
114.9999999999999
 20
130.0
 30
0.0
 11
114.9999999999999
 21
-130.0
 31
0.0
  0
LINE
  5
96E8
330
1E
100
AcDbEntity
  8
10
  6
CONTINOUS
100
AcDbLine
 10
-70.0
 20
130.0
 30
0.0
 11
-70.0
 21
-130.0
 31
0.0
  0
CIRCLE
  5
96E9
330
1E
100
AcDbEntity
  8
10
  6
CONTINOUS
100
AcDbCircle
 10
-45.0
 20
-114.0000000000001
 30
0.0
 40
5.0
  0
LINE
  5
96EA
330
1E
100
AcDbEntity
  8
10
  6
CONTINOUS
100
AcDbLine
 10
-53.99999999999995
 20
-114.0000000000001
 30
0.0
 11
-36.0
 21
-114.0000000000001
 31
0.0
  0
LINE
  5
96EB
330
1E
100
AcDbEntity
  8
10
  6
CONTINOUS
100
AcDbLine
 10
-70.0
 20
-130.0
 30
0.0
 11
114.9999999999999
 21
-130.0
 31
0.0
  0
LINE
  5
96EC
330
1E
100
AcDbEntity
  8
10
  6
CONTINOUS
100
AcDbLine
 10
-45.0
 20
-123.0000000000001
 30
0.0
 11
-45.0
 21
-105.0
 31
0.0
  0
LINE
  5
96ED
330
1E
100
AcDbEntity
  8
10
  6
CONTINOUS
100
AcDbLine
 10
80.99999999999992
 20
-114.0000000000001
 30
0.0
 11
98.99999999999996
 21
-114.0000000000001
 31
0.0
  0
CIRCLE
  5
96EE
330
1E
100
AcDbEntity
  8
12
  6
DASHED
100
AcDbCircle
 10
22.5
 20
-107.0
 30
0.0
 40
4.0
  0
LINE
  5
96EF
330
1E
100
AcDbEntity
  8
12
  6
DASHED
100
AcDbLine
 10
30.5
 20
-107.0
 30
0.0
 11
14.5
 21
-107.0
 31
0.0
  0
LINE
  5
96F0
330
1E
100
AcDbEntity
  8
12
  6
DASHED
100
AcDbLine
 10
-22.5
 20
-99.00000000000012
 30
0.0
 11
-22.5
 21
-115.0000000000001
 31
0.0
  0
LINE
  5
96F1
330
1E
100
AcDbEntity
  8
12
  6
DASHED
100
AcDbLine
 10
-14.5
 20
-107.0
 30
0.0
 11
-30.5
 21
-107.0
 31
0.0
  0
CIRCLE
  5
96F2
330
1E
100
AcDbEntity
  8
12
  6
DASHED
100
AcDbCircle
 10
-22.5
 20
-107.0
 30
0.0
 40
4.0
  0
CIRCLE
  5
96F3
330
1E
100
AcDbEntity
  8
10
  6
CONTINOUS
100
AcDbCircle
 10
0.0
 20
-114.0000000000001
 30
0.0
 40
5.0
  0
LINE
  5
96F4
330
1E
100
AcDbEntity
  8
10
  6
CONTINOUS
100
AcDbLine
 10
0.0
 20
-123.0000000000001
 30
0.0
 11
0.0
 21
-105.0
 31
0.0
  0
LINE
  5
96F5
330
1E
100
AcDbEntity
  8
10
  6
CONTINOUS
100
AcDbLine
 10
-8.999999999999943
 20
-114.0000000000001
 30
0.0
 11
9.0
 21
-114.0000000000001
 31
0.0
  0
LINE
  5
96F6
330
1E
100
AcDbEntity
  8
10
  6
CONTINOUS
100
AcDbLine
 10
36.00000000000003
 20
-114.0000000000001
 30
0.0
 11
53.99999999999995
 21
-114.0000000000001
 31
0.0
  0
CIRCLE
  5
96F7
330
1E
100
AcDbEntity
  8
10
  6
CONTINOUS
100
AcDbCircle
 10
45.0
 20
-114.0000000000001
 30
0.0
 40
5.0
  0
LINE
  5
96F8
330
1E
100
AcDbEntity
  8
12
  6
DASHED
100
AcDbLine
 10
22.5
 20
-99.00000000000012
 30
0.0
 11
22.5
 21
-115.0000000000001
 31
0.0
  0
LINE
  5
96F9
330
1E
100
AcDbEntity
  8
10
  6
CONTINOUS
100
AcDbLine
 10
45.0
 20
-123.0000000000001
 30
0.0
 11
45.0
 21
-105.0
 31
0.0
  0
CIRCLE
  5
96FA
330
1E
100
AcDbEntity
  8
10
  6
CONTINOUS
100
AcDbCircle
 10
-89.99999999999994
 20
-114.0000000000001
 30
0.0
 40
5.0
210
0.0
220
0.0
230
-1.0
  0
LINE
  5
96FB
330
1E
100
AcDbEntity
  8
10
  6
CONTINOUS
100
AcDbLine
 10
89.99999999999994
 20
-123.0000000000001
 30
0.0
 11
89.99999999999994
 21
-105.0
 31
0.0
  0
CIRCLE
  5
96FC
330
1E
100
AcDbEntity
  8
10
  6
CONTINOUS
100
AcDbCircle
 10
45.0
 20
114.0
 30
0.0
 40
5.0
210
0.0
220
0.0
230
-1.0
  0
LINE
  5
96FD
330
1E
100
AcDbEntity
  8
10
  6
CONTINOUS
100
AcDbLine
 10
-53.99999999999995
 20
114.0
 30
0.0
 11
-36.0
 21
114.0
 31
0.0
  0
LINE
  5
96FE
330
1E
100
AcDbEntity
  8
10
  6
CONTINOUS
100
AcDbLine
 10
-70.0
 20
-51.0
 30
0.0
 11
114.9999999999999
 21
-51.0
 31
0.0
  0
LINE
  5
96FF
330
1E
100
AcDbEntity
  8
10
  6
CONTINOUS
100
AcDbLine
 10
-70.0
 20
50.99999999999898
 30
0.0
 11
114.9999999999999
 21
50.99999999999898
 31
0.0
  0
LINE
  5
9701
330
1E
100
AcDbEntity
  8
10
  6
CONTINOUS
100
AcDbLine
 10
-53.0
 20
-45.0
 30
0.0
 11
52.99999999999993
 21
-45.0
 31
0.0
  0
LINE
  5
9702
330
1E
100
AcDbEntity
  8
10
  6
CONTINOUS
100
AcDbLine
 10
-53.0
 20
45.0
 30
0.0
 11
52.99999999999993
 21
45.0
 31
0.0
  0
LINE
  5
9703
330
1E
100
AcDbEntity
  8
10
  6
CONTINOUS
100
AcDbLine
 10
114.9999999999999
 20
130.0
 30
0.0
 11
-70.0
 21
130.0
 31
0.0
  0
LINE
  5
9704
330
1E
100
AcDbEntity
  8
10
  6
CONTINOUS
100
AcDbLine
 10
-45.0
 20
105.0
 30
0.0
 11
-45.0
 21
123.0
 31
0.0
  0
LINE
  5
9705
330
1E
100
AcDbEntity
  8
10
  6
CONTINOUS
100
AcDbLine
 10
-58.0
 20
40.0
 30
0.0
 11
-58.0
 21
-40.0
 31
0.0
  0
ARC
  5
9706
330
1E
100
AcDbEntity
  8
10
  6
CONTINOUS
100
AcDbCircle
 10
-53.0
 20
-40.0
 30
0.0
 40
5.0
100
AcDbArc
 50
180.0
 51
270.0
  0
ARC
  5
9707
330
1E
100
AcDbEntity
  8
10
  6
CONTINOUS
100
AcDbCircle
 10
-53.0
 20
40.0
 30
0.0
 40
5.0
100
AcDbArc
 50
90.0
 51
180.0
  0
CIRCLE
  5
9708
330
1E
100
AcDbEntity
  8
10
  6
CONTINOUS
100
AcDbCircle
 10
89.99999999999994
 20
114.0
 30
0.0
 40
5.0
  0
CIRCLE
  5
9709
330
1E
100
AcDbEntity
  8
10
  6
CONTINOUS
100
AcDbCircle
 10
-45.0
 20
114.0
 30
0.0
 40
5.0
210
0.0
220
0.0
230
-1.0
  0
CIRCLE
  5
970A
330
1E
100
AcDbEntity
  8
10
  6
CONTINOUS
100
AcDbCircle
 10
0.0
 20
114.0
 30
0.0
 40
5.0
210
0.0
220
0.0
230
-1.0
  0
LINE
  5
970B
330
1E
100
AcDbEntity
  8
10
  6
CONTINOUS
100
AcDbLine
 10
89.99999999999994
 20
105.0
 30
0.0
 11
89.99999999999994
 21
123.0
 31
0.0
  0
LINE
  5
970C
330
1E
100
AcDbEntity
  8
10
  6
CONTINOUS
100
AcDbLine
 10
45.0
 20
105.0
 30
0.0
 11
45.0
 21
123.0
 31
0.0
  0
LINE
  5
970D
330
1E
100
AcDbEntity
  8
10
  6
CONTINOUS
100
AcDbLine
 10
0.0
 20
105.0
 30
0.0
 11
0.0
 21
123.0
 31
0.0
  0
LINE
  5
970E
330
1E
100
AcDbEntity
  8
10
  6
CONTINOUS
100
AcDbLine
 10
80.99999999999992
 20
114.0
 30
0.0
 11
98.99999999999996
 21
114.0
 31
0.0
  0
LINE
  5
970F
330
1E
100
AcDbEntity
  8
10
  6
CONTINOUS
100
AcDbLine
 10
57.99999999999993
 20
40.0
 30
0.0
 11
57.99999999999993
 21
-40.0
 31
0.0
  0
LINE
  5
9710
330
1E
100
AcDbEntity
  8
10
  6
CONTINOUS
100
AcDbLine
 10
25.49999999999966
 20
-45.0
 30
0.0
 11
25.49999999999982
 21
45.0
 31
0.0
  0
LINE
  5
9711
330
1E
100
AcDbEntity
  8
10
  6
CONTINOUS
100
AcDbLine
 10
-25.49999999999977
 20
-45.0
 30
0.0
 11
-25.49999999999994
 21
45.0
 31
0.0
  0
LINE
  5
9712
330
1E
100
AcDbEntity
  8
10
  6
CONTINOUS
100
AcDbLine
 10
-18.0
 20
-34.0
 30
0.0
 11
-18.0
 21
34.0
 31
0.0
  0
LINE
  5
9713
330
1E
100
AcDbEntity
  8
10
  6
CONTINOUS
100
AcDbLine
 10
18.0
 20
-34.0
 30
0.0
 11
18.00000000000005
 21
34.0
 31
0.0
  0
LINE
  5
9714
330
1E
100
AcDbEntity
  8
10
  6
CONTINOUS
100
AcDbLine
 10
-17.0
 20
22.97883578857727
 30
0.0
 11
-17.0
 21
32.8086603200453
 31
0.0
  0
LINE
  5
9715
330
1E
100
AcDbEntity
  8
10
  6
CONTINOUS
100
AcDbLine
 10
17.00000000000005
 20
22.97883578857727
 30
0.0
 11
17.00000000000005
 21
32.8086603200453
 31
0.0
  0
LINE
  5
9716
330
1E
100
AcDbEntity
  8
10
  6
CONTINOUS
100
AcDbLine
 10
18.0
 20
-34.0
 30
0.0
 11
-18.0
 21
-34.0
 31
0.0
  0
LINE
  5
9717
330
1E
100
AcDbEntity
  8
10
  6
CONTINOUS
100
AcDbLine
 10
17.00000000000022
 20
22.97883578857727
 30
0.0
 11
-17.0
 21
22.97883578857727
 31
0.0
  0
ARC
  5
9718
330
1E
100
AcDbEntity
  8
10
  6
CONTINOUS
100
AcDbCircle
 10
52.99999999999993
 20
-40.0
 30
0.0
 40
5.0
100
AcDbArc
 50
270.0
 51
0.0
  0
CIRCLE
  5
9719
330
1E
100
AcDbEntity
  8
12
  6
DASHED
100
AcDbCircle
 10
-22.5
 20
107.0
 30
0.0
 40
4.0
210
0.0
220
0.0
230
-1.0
  0
LINE
  5
971A
330
1E
100
AcDbEntity
  8
12
  6
DASHED
100
AcDbLine
 10
30.5
 20
107.0
 30
0.0
 11
14.5
 21
107.0
 31
0.0
  0
LINE
  5
971B
330
1E
100
AcDbEntity
  8
10
  6
CONTINOUS
100
AcDbLine
 10
18.0
 20
34.0
 30
0.0
 11
-18.0
 21
34.0
 31
0.0
  0
LINE
  5
971C
330
1E
100
AcDbEntity
  8
10
  6
CONTINOUS
100
AcDbLine
 10
17.0
 20
32.8086603200453
 30
0.0
 11
-17.0
 21
32.8086603200453
 31
0.0
  0
LINE
  5
971D
330
1E
100
AcDbEntity
  8
12
  6
DASHED
100
AcDbLine
 10
-14.5
 20
107.0
 30
0.0
 11
-30.5
 21
107.0
 31
0.0
  0
CIRCLE
  5
971E
330
1E
100
AcDbEntity
  8
12
  6
DASHED
100
AcDbCircle
 10
22.5
 20
107.0
 30
0.0
 40
4.0
210
0.0
220
0.0
230
-1.0
  0
LINE
  5
971F
330
1E
100
AcDbEntity
  8
12
  6
DASHED
100
AcDbLine
 10
-22.5
 20
115.0
 30
0.0
 11
-22.5
 21
99.0
 31
0.0
  0
LINE
  5
9720
330
1E
100
AcDbEntity
  8
10
  6
CONTINOUS
100
AcDbLine
 10
-8.999999999999943
 20
114.0
 30
0.0
 11
9.0
 21
114.0
 31
0.0
  0
ARC
  5
9721
330
1E
100
AcDbEntity
  8
10
  6
CONTINOUS
100
AcDbCircle
 10
52.99999999999993
 20
40.0
 30
0.0
 40
5.0
100
AcDbArc
 50
0.0
 51
90.0
  0
LINE
  5
9722
330
1E
100
AcDbEntity
  8
10
  6
CONTINOUS
100
AcDbLine
 10
36.00000000000003
 20
114.0
 30
0.0
 11
53.99999999999995
 21
114.0
 31
0.0
  0
LINE
  5
9723
330
1E
100
AcDbEntity
  8
12
  6
DASHED
100
AcDbLine
 10
22.5
 20
115.0
 30
0.0
 11
22.5
 21
99.0
 31
0.0
  0
CIRCLE
  5
9724
330
1E
100
AcDbEntity
  8
10
  6
CONTINOUS
100
AcDbCircle
 10
89.99999999999994
 20
86.75
 30
0.0
 40
8.0
  0
LINE
  5
9725
330
1E
100
AcDbEntity
  8
10
  6
CONTINOUS
100
AcDbLine
 10
86.49999999999996
 20
84.22487373415256
 30
0.0
 11
87.49999999999994
 21
85.22487373415255
 31
0.0
  0
LINE
  5
9726
330
1E
100
AcDbEntity
  8
10
  6
CONTINOUS
100
AcDbLine
 10
87.63817617514025
 20
89.2521372058186
 30
0.0
 11
88.3562088584186
 21
89.97016988909695
 31
0.0
  0
LINE
  5
9727
330
1E
100
AcDbEntity
  8
10
  6
CONTINOUS
100
AcDbLine
 10
89.82188829351022
 20
86.13254846528992
 30
0.0
 11
90.53992097678863
 21
86.85058114856815
 31
0.0
  0
LINE
  5
9728
330
1E
100
AcDbEntity
  8
10
  6
CONTINOUS
100
AcDbLine
 10
92.00560041188026
 20
83.01295972476124
 30
0.0
 11
93.49999999999994
 21
84.507359312881
 31
0.0
  0
LINE
  5
9729
330
1E
100
AcDbEntity
  8
10
  6
CONTINOUS
100
AcDbLine
 10
91.42327718031486
 20
83.84485005556872
 30
0.0
 11
92.14130986359345
 21
84.56288273884741
 31
0.0
  0
LINE
  5
972A
330
1E
100
AcDbEntity
  8
10
  6
CONTINOUS
100
AcDbLine
 10
87.78375698303154
 20
89.04416462311656
 30
0.0
 11
88.50178966631
 21
89.7621973063949
 31
0.0
  0
LINE
  5
972B
330
1E
100
AcDbEntity
  8
10
  6
CONTINOUS
100
AcDbLine
 10
93.21751442127169
 20
81.75
 30
0.0
 11
93.49999999999994
 21
82.03248557872814
 31
0.0
  0
LINE
  5
972C
330
1E
100
AcDbEntity
  8
10
  6
CONTINOUS
100
AcDbLine
 10
92.49999999999994
 20
85.98223304703367
 30
0.0
 11
93.49999999999994
 21
86.98223304703367
 31
0.0
  0
LINE
  5
972D
330
1E
100
AcDbEntity
  8
10
  6
CONTINOUS
100
AcDbLine
 10
90.84095394874969
 20
84.67674038637653
 30
0.0
 11
91.55898663202805
 21
85.39477306965489
 31
0.0
  0
LINE
  5
972E
330
1E
100
AcDbEntity
  8
10
  6
CONTINOUS
100
AcDbLine
 10
88.80282263827092
 20
87.58835654420328
 30
0.0
 11
89.52085532154928
 21
88.30638922748162
 31
0.0
  0
LINE
  5
972F
330
1E
100
AcDbEntity
  8
10
  6
CONTINOUS
100
AcDbLine
 10
86.85355339059325
 20
81.75
 30
0.0
 11
87.49999999999994
 21
82.39644660940644
 31
0.0
  0
LINE
  5
9730
330
1E
100
AcDbEntity
  8
10
  6
CONTINOUS
100
AcDbLine
 10
86.49999999999996
 20
85.63908729652553
 30
0.0
 11
87.49999999999994
 21
86.63908729652552
 31
0.0
  0
LINE
  5
9731
330
1E
100
AcDbEntity
  8
10
  6
CONTINOUS
100
AcDbLine
 10
92.49999999999994
 20
87.04289321881331
 30
0.0
 11
93.49999999999994
 21
88.04289321881331
 31
0.0
  0
LINE
  5
9732
330
1E
100
AcDbEntity
  8
10
  6
CONTINOUS
100
AcDbLine
 10
90.40421152507573
 20
85.30065813448231
 30
0.0
 11
91.12224420835394
 21
86.01869081776067
 31
0.0
  0
LINE
  5
9733
330
1E
100
AcDbEntity
  8
10
  6
CONTINOUS
100
AcDbLine
 10
92.58792364344566
 20
82.18106939395353
 30
0.0
 11
93.49999999999994
 21
83.09314575050779
 31
0.0
  0
LINE
  5
9734
330
1E
100
AcDbEntity
  8
10
  6
CONTINOUS
100
AcDbLine
 10
86.49999999999996
 20
83.16421356237254
 30
0.0
 11
87.49999999999994
 21
84.16421356237256
 31
0.0
  0
LINE
  5
9735
330
1E
100
AcDbEntity
  8
10
  6
CONTINOUS
100
AcDbLine
 10
86.49999999999996
 20
81.75
 30
0.0
 11
87.49999999999994
 21
82.75
 31
0.0
  0
LINE
  5
9736
330
1E
100
AcDbEntity
  8
10
  6
CONTINOUS
100
AcDbLine
 10
89.3851458698362
 20
86.75646621339556
 30
0.0
 11
90.10317855311468
 21
87.47449889667395
 31
0.0
  0
LINE
  5
9737
330
1E
100
AcDbEntity
  8
10
  6
CONTINOUS
100
AcDbLine
 10
91.56885798820628
 20
83.63687747286702
 30
0.0
 11
92.28689067148474
 21
84.35491015614536
 31
0.0
  0
LINE
  5
9738
330
1E
100
AcDbEntity
  8
10
  6
CONTINOUS
100
AcDbLine
 10
92.49999999999994
 20
84.56801948466045
 30
0.0
 11
93.49999999999994
 21
85.56801948466045
 31
0.0
  0
LINE
  5
9739
330
1E
100
AcDbEntity
  8
10
  6
CONTINOUS
100
AcDbLine
 10
92.49999999999994
 20
90.93198051533921
 30
0.0
 11
93.31801948466063
 21
91.75
 31
0.0
  0
LINE
  5
973A
330
1E
100
AcDbEntity
  8
10
  6
CONTINOUS
100
AcDbLine
 10
90.98653475664098
 20
84.4687678036745
 30
0.0
 11
91.70456743991925
 21
85.18680048695292
 31
0.0
  0
LINE
  5
973B
330
1E
100
AcDbEntity
  8
10
  6
CONTINOUS
100
AcDbLine
 10
88.51166102248823
 20
88.00430170960693
 30
0.0
 11
89.22969370576669
 21
88.72233439288541
 31
0.0
  0
LINE
  5
973C
330
1E
100
AcDbEntity
  8
10
  6
CONTINOUS
100
AcDbLine
 10
86.49999999999996
 20
84.57842712474578
 30
0.0
 11
87.49999999999994
 21
85.57842712474577
 31
0.0
  0
LINE
  5
973D
330
1E
100
AcDbEntity
  8
10
  6
CONTINOUS
100
AcDbLine
 10
92.49999999999994
 20
88.10355339059311
 30
0.0
 11
93.49999999999994
 21
89.10355339059311
 31
0.0
  0
LINE
  5
973E
330
1E
100
AcDbEntity
  8
10
  6
CONTINOUS
100
AcDbLine
 10
89.96746910140158
 20
85.92457588258799
 30
0.0
 11
90.68550178468006
 21
86.64260856586635
 31
0.0
  0
LINE
  5
973F
330
1E
100
AcDbEntity
  8
10
  6
CONTINOUS
100
AcDbLine
 10
92.15118121977168
 20
82.80498714205931
 30
0.0
 11
93.49999999999994
 21
84.15380592228791
 31
0.0
  0
LINE
  5
9740
330
1E
100
AcDbEntity
  8
10
  6
CONTINOUS
100
AcDbLine
 10
86.49999999999996
 20
88.46751442127162
 30
0.0
 11
88.21062805052719
 21
90.17814247179865
 31
0.0
  0
LINE
  5
9741
330
1E
100
AcDbEntity
  8
10
  6
CONTINOUS
100
AcDbLine
 10
92.49999999999994
 20
88.45710678118619
 30
0.0
 11
93.49999999999994
 21
89.4571067811862
 31
0.0
  0
LINE
  5
9742
330
1E
100
AcDbEntity
  8
10
  6
CONTINOUS
100
AcDbLine
 10
92.49999999999994
 20
89.5177669529662
 30
0.0
 11
93.49999999999994
 21
90.51776695296622
 31
0.0
  0
LINE
  5
9743
330
1E
100
AcDbEntity
  8
10
  6
CONTINOUS
100
AcDbLine
 10
86.49999999999996
 20
90.94238815542441
 30
0.0
 11
87.19156239528791
 21
91.63395055071214
 31
0.0
  0
LINE
  5
9744
330
1E
100
AcDbEntity
  8
10
  6
CONTINOUS
100
AcDbLine
 10
92.49999999999994
 20
85.62867965644045
 30
0.0
 11
93.49999999999994
 21
86.62867965644045
 31
0.0
  0
LINE
  5
9745
330
1E
100
AcDbEntity
  8
10
  6
CONTINOUS
100
AcDbLine
 10
86.49999999999996
 20
91.29594154601759
 30
0.0
 11
86.95405845398218
 21
91.75
 31
0.0
  0
LINE
  5
9746
330
1E
100
AcDbEntity
  8
10
  6
CONTINOUS
100
AcDbLine
 10
86.49999999999996
 20
88.1139610306783
 30
0.0
 11
87.49999999999994
 21
89.11396103067829
 31
0.0
  0
LINE
  5
9747
330
1E
100
AcDbEntity
  8
10
  6
CONTINOUS
100
AcDbLine
 10
92.49999999999994
 20
89.87132034355942
 30
0.0
 11
93.49999999999994
 21
90.87132034355944
 31
0.0
  0
LINE
  5
9748
330
1E
100
AcDbEntity
  8
10
  6
CONTINOUS
100
AcDbLine
 10
86.49999999999996
 20
90.58883476483094
 30
0.0
 11
87.3371432031792
 21
91.4259779680102
 31
0.0
  0
LINE
  5
9749
330
1E
100
AcDbEntity
  8
10
  6
CONTINOUS
100
AcDbLine
 10
86.49999999999996
 20
83.87132034355943
 30
0.0
 11
87.49999999999994
 21
84.87132034355942
 31
0.0
  0
LINE
  5
974A
330
1E
100
AcDbEntity
  8
10
  6
CONTINOUS
100
AcDbLine
 10
91.27769637242369
 20
84.05282263827075
 30
0.0
 11
91.99572905570205
 21
84.77085532154911
 31
0.0
  0
LINE
  5
974B
330
1E
100
AcDbEntity
  8
10
  6
CONTINOUS
100
AcDbLine
 10
90.25863071718431
 20
85.50863071718412
 30
0.0
 11
90.97666340046258
 21
86.22666340046256
 31
0.0
  0
LINE
  5
974C
330
1E
100
AcDbEntity
  8
10
  6
CONTINOUS
100
AcDbLine
 10
92.44234283555435
 20
82.38904197665545
 30
0.0
 11
93.49999999999994
 21
83.44669914110102
 31
0.0
  0
LINE
  5
974D
330
1E
100
AcDbEntity
  8
10
  6
CONTINOUS
100
AcDbLine
 10
86.49999999999996
 20
89.17462120245785
 30
0.0
 11
87.91946643474449
 21
90.59408763720274
 31
0.0
  0
LINE
  5
974E
330
1E
100
AcDbEntity
  8
10
  6
CONTINOUS
100
AcDbLine
 10
86.49999999999996
 20
87.05330085889853
 30
0.0
 11
87.49999999999994
 21
88.05330085889853
 31
0.0
  0
LINE
  5
974F
330
1E
100
AcDbEntity
  8
10
  6
CONTINOUS
100
AcDbLine
 10
86.49999999999996
 20
82.81066017177945
 30
0.0
 11
87.49999999999994
 21
83.81066017177944
 31
0.0
  0
LINE
  5
9750
330
1E
100
AcDbEntity
  8
10
  6
CONTINOUS
100
AcDbLine
 10
89.23956506194491
 20
86.9644387960975
 30
0.0
 11
89.95759774522339
 21
87.68247147937609
 31
0.0
  0
LINE
  5
9751
330
1E
100
AcDbEntity
  8
10
  6
CONTINOUS
100
AcDbLine
 10
86.49999999999996
 20
86.69974746830519
 30
0.0
 11
87.49999999999994
 21
87.69974746830518
 31
0.0
  0
LINE
  5
9752
330
1E
100
AcDbEntity
  8
10
  6
CONTINOUS
100
AcDbLine
 10
88.22049940670551
 20
88.42024687501099
 30
0.0
 11
88.93853208998399
 21
89.13827955828924
 31
0.0
  0
LINE
  5
9753
330
1E
100
AcDbEntity
  8
10
  6
CONTINOUS
100
AcDbLine
 10
86.49999999999996
 20
82.1035533905931
 30
0.0
 11
87.49999999999994
 21
83.10355339059311
 31
0.0
  0
LINE
  5
9754
330
1E
100
AcDbEntity
  8
10
  6
CONTINOUS
100
AcDbLine
 10
92.49999999999994
 20
90.57842712474577
 30
0.0
 11
93.49999999999994
 21
91.57842712474577
 31
0.0
  0
LINE
  5
9755
330
1E
100
AcDbEntity
  8
10
  6
CONTINOUS
100
AcDbLine
 10
88.94840344616222
 20
87.38038396150136
 30
0.0
 11
89.66643612944055
 21
88.09841664477984
 31
0.0
  0
LINE
  5
9756
330
1E
100
AcDbEntity
  8
10
  6
CONTINOUS
100
AcDbLine
 10
87.20710678118647
 20
81.75
 30
0.0
 11
87.49999999999994
 21
82.04289321881331
 31
0.0
  0
LINE
  5
9757
330
1E
100
AcDbEntity
  8
10
  6
CONTINOUS
100
AcDbLine
 10
86.49999999999996
 20
89.52817459305128
 30
0.0
 11
87.7738856268532
 21
90.80206021990463
 31
0.0
  0
LINE
  5
9758
330
1E
100
AcDbEntity
  8
10
  6
CONTINOUS
100
AcDbLine
 10
86.49999999999996
 20
85.99264068711866
 30
0.0
 11
87.49999999999994
 21
86.99264068711867
 31
0.0
  0
LINE
  5
9759
330
1E
100
AcDbEntity
  8
10
  6
CONTINOUS
100
AcDbLine
 10
92.49999999999994
 20
86.68933982822009
 30
0.0
 11
93.49999999999994
 21
87.6893398282201
 31
0.0
  0
LINE
  5
975A
330
1E
100
AcDbEntity
  8
10
  6
CONTINOUS
100
AcDbLine
 10
90.54979233296689
 20
85.09268555178003
 30
0.0
 11
91.26782501624523
 21
85.81071823505874
 31
0.0
  0
LINE
  5
975B
330
1E
100
AcDbEntity
  8
10
  6
CONTINOUS
100
AcDbLine
 10
92.73350445133685
 20
81.97309681125171
 30
0.0
 11
93.49999999999994
 21
82.73959235991458
 31
0.0
  0
LINE
  5
975C
330
1E
100
AcDbEntity
  8
10
  6
CONTINOUS
100
AcDbLine
 10
86.49999999999996
 20
89.8817279836445
 30
0.0
 11
87.62830481896179
 21
91.01003280260682
 31
0.0
  0
LINE
  5
975D
330
1E
100
AcDbEntity
  8
10
  6
CONTINOUS
100
AcDbLine
 10
86.49999999999996
 20
83.51776695296619
 30
0.0
 11
87.49999999999994
 21
84.5177669529662
 31
0.0
  0
LINE
  5
975E
330
1E
100
AcDbEntity
  8
10
  6
CONTINOUS
100
AcDbLine
 10
92.49999999999994
 20
90.22487373415257
 30
0.0
 11
93.49999999999994
 21
91.22487373415266
 31
0.0
  0
LINE
  5
975F
330
1E
100
AcDbEntity
  8
10
  6
CONTINOUS
100
AcDbLine
 10
92.49999999999994
 20
91.2855339059323
 30
0.0
 11
92.96446609406752
 21
91.75
 31
0.0
  0
LINE
  5
9760
330
1E
100
AcDbEntity
  8
10
  6
CONTINOUS
100
AcDbLine
 10
92.49999999999994
 20
89.16421356237277
 30
0.0
 11
93.49999999999994
 21
90.16421356237277
 31
0.0
  0
LINE
  5
9761
330
1E
100
AcDbEntity
  8
10
  6
CONTINOUS
100
AcDbLine
 10
89.53072667772763
 20
86.54849363069374
 30
0.0
 11
90.24875936100595
 21
87.26652631397213
 31
0.0
  0
LINE
  5
9762
330
1E
100
AcDbEntity
  8
10
  6
CONTINOUS
100
AcDbLine
 10
92.49999999999994
 20
84.9215728752539
 30
0.0
 11
93.49999999999994
 21
85.9215728752539
 31
0.0
  0
LINE
  5
9763
330
1E
100
AcDbEntity
  8
10
  6
CONTINOUS
100
AcDbLine
 10
91.71443879609768
 20
83.42890489016509
 30
0.0
 11
92.43247147937605
 21
84.14693757344343
 31
0.0
  0
LINE
  5
9764
330
1E
100
AcDbEntity
  8
10
  6
CONTINOUS
100
AcDbLine
 10
86.49999999999996
 20
87.40685424949186
 30
0.0
 11
87.49999999999994
 21
88.40685424949183
 31
0.0
  0
LINE
  5
9765
330
1E
100
AcDbEntity
  8
10
  6
CONTINOUS
100
AcDbLine
 10
91.13211556453228
 20
84.2607952209728
 30
0.0
 11
91.85014824781053
 21
84.97882790425093
 31
0.0
  0
LINE
  5
9766
330
1E
100
AcDbEntity
  8
10
  6
CONTINOUS
100
AcDbLine
 10
88.3660802145968
 20
88.21227429230896
 30
0.0
 11
89.08411289787528
 21
88.93030697558732
 31
0.0
  0
LINE
  5
9767
330
1E
100
AcDbEntity
  8
10
  6
CONTINOUS
100
AcDbLine
 10
86.49999999999996
 20
84.93198051533921
 30
0.0
 11
87.49999999999994
 21
85.93198051533921
 31
0.0
  0
LINE
  5
9768
330
1E
100
AcDbEntity
  8
10
  6
CONTINOUS
100
AcDbLine
 10
92.49999999999994
 20
87.39644660940644
 30
0.0
 11
93.49999999999994
 21
88.39644660940644
 31
0.0
  0
LINE
  5
9769
330
1E
100
AcDbEntity
  8
10
  6
CONTINOUS
100
AcDbLine
 10
90.11304990929302
 20
85.71660329988617
 30
0.0
 11
90.83108259257135
 21
86.43463598316452
 31
0.0
  0
LINE
  5
976A
330
1E
100
AcDbEntity
  8
10
  6
CONTINOUS
100
AcDbLine
 10
92.29676202766285
 20
82.59701455935759
 30
0.0
 11
93.49999999999994
 21
83.80025253169412
 31
0.0
  0
LINE
  5
976B
330
1E
100
AcDbEntity
  8
10
  6
CONTINOUS
100
AcDbLine
 10
86.49999999999996
 20
88.82106781186474
 30
0.0
 11
88.06504724263589
 21
90.38611505450068
 31
0.0
  0
LINE
  5
976C
330
1E
100
AcDbEntity
  8
10
  6
CONTINOUS
100
AcDbLine
 10
86.49999999999996
 20
82.45710678118618
 30
0.0
 11
87.49999999999994
 21
83.45710678118619
 31
0.0
  0
LINE
  5
976D
330
1E
100
AcDbEntity
  8
10
  6
CONTINOUS
100
AcDbLine
 10
92.49999999999994
 20
87.75
 30
0.0
 11
93.49999999999994
 21
88.75
 31
0.0
  0
LINE
  5
976E
330
1E
100
AcDbEntity
  8
10
  6
CONTINOUS
100
AcDbLine
 10
88.07491859881436
 20
88.62821945771271
 30
0.0
 11
88.79295128209259
 21
89.3462521409914
 31
0.0
  0
LINE
  5
976F
330
1E
100
AcDbEntity
  8
10
  6
CONTINOUS
100
AcDbLine
 10
89.09398425405351
 20
87.17241137879943
 30
0.0
 11
89.81201693733209
 21
87.89044406207791
 31
0.0
  0
LINE
  5
9770
330
1E
100
AcDbEntity
  8
10
  6
CONTINOUS
100
AcDbLine
 10
86.49999999999996
 20
86.34619407771197
 30
0.0
 11
87.49999999999994
 21
87.34619407771194
 31
0.0
  0
LINE
  5
9771
330
1E
100
AcDbEntity
  8
10
  6
CONTINOUS
100
AcDbLine
 10
92.49999999999994
 20
86.33578643762701
 30
0.0
 11
93.49999999999994
 21
87.33578643762701
 31
0.0
  0
LINE
  5
9772
330
1E
100
AcDbEntity
  8
10
  6
CONTINOUS
100
AcDbLine
 10
90.6953731408584
 20
84.88471296907833
 30
0.0
 11
91.41340582413663
 21
85.60274565235671
 31
0.0
  0
LINE
  5
9773
330
1E
100
AcDbEntity
  8
10
  6
CONTINOUS
100
AcDbLine
 10
86.49999999999996
 20
90.23528137423785
 30
0.0
 11
87.48272401107064
 21
91.21800538530839
 31
0.0
  0
LINE
  5
9774
330
1E
100
AcDbEntity
  8
10
  6
CONTINOUS
100
AcDbLine
 10
92.49999999999994
 20
88.81066017177944
 30
0.0
 11
93.49999999999994
 21
89.81066017177942
 31
0.0
  0
LINE
  5
9775
330
1E
100
AcDbEntity
  8
10
  6
CONTINOUS
100
AcDbLine
 10
92.49999999999994
 20
84.21446609406734
 30
0.0
 11
93.49999999999994
 21
85.21446609406735
 31
0.0
  0
LINE
  5
9776
330
1E
100
AcDbEntity
  8
10
  6
CONTINOUS
100
AcDbLine
 10
89.67630748561893
 20
86.34052104799195
 30
0.0
 11
90.39434016889735
 21
87.05855373127031
 31
0.0
  0
LINE
  5
9777
330
1E
100
AcDbEntity
  8
10
  6
CONTINOUS
100
AcDbLine
 10
91.86001960398895
 20
83.22093230746304
 30
0.0
 11
93.49999999999994
 21
84.86091270347413
 31
0.0
  0
LINE
  5
9778
330
1E
100
AcDbEntity
  8
10
  6
CONTINOUS
100
AcDbLine
 10
87.92933779092294
 20
88.83619204041471
 30
0.0
 11
88.64737047420129
 21
89.55422472369308
 31
0.0
  0
LINE
  5
9779
330
1E
100
AcDbEntity
  8
10
  6
CONTINOUS
100
AcDbLine
 10
86.49999999999996
 20
87.76040764008518
 30
0.0
 11
87.49999999999994
 21
88.7604076400852
 31
0.0
  0
LINE
  5
977A
330
1E
100
AcDbEntity
  8
10
  6
CONTINOUS
100
AcDbLine
 10
92.49999999999994
 20
91.63908729652552
 30
0.0
 11
92.61091270347419
 21
91.75
 31
0.0
  0
LINE
  5
977B
330
1E
100
AcDbEntity
  8
10
  6
CONTINOUS
100
AcDbLine
 10
92.49999999999994
 20
85.275126265847
 30
0.0
 11
93.49999999999994
 21
86.27512626584701
 31
0.0
  0
LINE
  5
977C
330
1E
100
AcDbEntity
  8
10
  6
CONTINOUS
100
AcDbLine
 10
88.6572418303796
 20
87.79632912690521
 30
0.0
 11
89.37527451365808
 21
88.51436181018391
 31
0.0
  0
LINE
  5
977D
330
1E
100
AcDbEntity
  8
10
  6
CONTINOUS
100
AcDbLine
 10
92.86396103067858
 20
81.75
 30
0.0
 11
93.49999999999994
 21
82.38603896932124
 31
0.0
  0
LINE
  5
977E
330
1E
100
AcDbEntity
  8
10
  6
CONTINOUS
100
AcDbLine
 10
86.49999999999996
 20
91.64949493661072
 30
0.0
 11
86.6005050633891
 21
91.75
 31
0.0
  0
LINE
  5
977F
330
1E
100
AcDbEntity
  8
10
  6
CONTINOUS
100
AcDbLine
 10
86.49999999999996
 20
85.28553390593231
 30
0.0
 11
87.49999999999994
 21
86.2855339059323
 31
0.0
  0
DIMENSION
  5
97B9
330
1E
100
AcDbEntity
  8
30
  6
CONTINUOUS
100
AcDbDimension
  2
*D48
 10
-115.5191388944172
 20
-130.0
 30
0.0
 11
-119.519138894417
 21
-0.0000000000000209
 31
0.0
 70
    32
  3
STANDARD
100
AcDbAlignedDimension
 13
-70.00000000000007
 23
130.0
 33
0.0
 14
-70.00000000000007
 24
-130.0
 34
0.0
 50
90.0
100
AcDbRotatedDimension
1001
ACAD
1000
DSTYLE
1002
{
1070
    79
1070
     3
1002
}
  0
DIMENSION
  5
97BA
330
1E
100
AcDbEntity
  8
30
  6
CONTINUOUS
100
AcDbDimension
  2
*D49
 10
-91.39860450474341
 20
-44.99999999999999
 30
0.0
 11
-95.39860450474336
 21
0.0000000000000487
 31
0.0
 70
    32
  3
STANDARD
100
AcDbAlignedDimension
 13
-53.0
 23
45.0000000000001
 33
0.0
 14
-53.0
 24
-45.0
 34
0.0
 50
90.0
100
AcDbRotatedDimension
1001
ACAD
1000
DSTYLE
1002
{
1070
    79
1070
     3
1002
}
  0
DIMENSION
  5
97BB
330
1E
100
AcDbEntity
  8
30
  6
CONTINUOUS
100
AcDbDimension
  2
*D50
 10
-103.8479123954376
 20
-50.99999999999999
 30
0.0
 11
-107.8479123954376
 21
-0.0000000000004621
 31
0.0
 70
    32
  3
STANDARD
100
AcDbAlignedDimension
 13
-70.00000000000007
 23
50.99999999999909
 33
0.0
 14
-70.00000000000007
 24
-51.0
 34
0.0
 50
90.0
100
AcDbRotatedDimension
1001
ACAD
1000
DSTYLE
1002
{
1070
    79
1070
     3
1002
}
  0
DIMENSION
  5
97BC
330
1E
100
AcDbEntity
  8
30
  6
CONTINUOUS
100
AcDbDimension
  2
*D51
 10
114.9999999999999
 20
-153.7989500761053
 30
0.0
 11
22.49999999999994
 21
-149.7989500761053
 31
0.0
 70
    32
  3
STANDARD
100
AcDbAlignedDimension
 13
-70.00000000000007
 23
-130.0
 33
0.0
 14
114.9999999999999
 24
-130.0
 34
0.0
100
AcDbRotatedDimension
1001
ACAD
1000
DSTYLE
1002
{
1070
    79
1070
     3
1002
}
  0
VIEWPORT
  5
9AC
330
1A
100
AcDbEntity
 67
     1
  8
0
  6
CONTINUOUS
100
AcDbViewport
 10
171.999535
 20
144.1384739999999
 30
0.0
 40
488.867686
 41
292.351491
 68
    -1
 69
     1
1001
ACAD
1000
MVIEW
1002
{
1070
    16
1010
0.0
1020
0.0
1030
0.0
1010
0.0
1020
0.0
1030
1.0
1040
0.0
1040
292.351491
1040
171.999535
1040
144.1384739999999
1040
50.0
1040
0.0
1040
0.0
1070
     0
1070
   100
1070
     1
1070
     1
1070
     0
1070
     0
1070
     0
1070
     0
1040
0.0
1040
0.0
1040
0.0
1040
10.0
1040
10.0
1040
10.0
1040
10.0
1070
     0
1002
{
1002
}
1002
}
  0
ENDSEC
  0
SECTION
  2
OBJECTS
  0
DICTIONARY
  5
C
330
0
100
AcDbDictionary
  3
ACAD_GROUP
350
D
  3
ACAD_LAYOUT
350
19
  3
ACAD_MLINESTYLE
350
16
  3
ACAD_PLOTSETTINGS
350
18
  3
ACAD_PLOTSTYLENAME
350
E
  3
ACADDIM
350
6D5E
  3
ACDBHEADERROUNDTRIPXREC
350
996E
  3
ACDBVARIABLEDICTIONARY
350
5697
  0
DICTIONARY
  5
178
330
1E
100
AcDbDictionary
280
     1
  3
ACAD_LAYOUTSELFREF
360
9990
  0
DICTIONARY
  5
17A
330
1A
100
AcDbDictionary
280
     1
  3
ACAD_LAYOUTSELFREF
360
998F
  0
DICTIONARY
  5
D
102
{ACAD_REACTORS
330
C
102
}
330
C
100
AcDbDictionary
  0
DICTIONARY
  5
19
102
{ACAD_REACTORS
330
C
102
}
330
C
100
AcDbDictionary
  0
DICTIONARY
  5
16
102
{ACAD_REACTORS
330
C
102
}
330
C
100
AcDbDictionary
  3
STANDARD
350
17
  0
DICTIONARY
  5
18
102
{ACAD_REACTORS
330
C
102
}
330
C
100
AcDbDictionary
  0
ACDBDICTIONARYWDFLT
  5
E
102
{ACAD_REACTORS
330
C
102
}
330
C
100
AcDbDictionary
281
     1
  3
Normal
350
F
100
AcDbDictionaryWithDefault
340
F
  0
XRECORD
  5
6D5E
102
{ACAD_REACTORS
330
C
102
}
330
C
100
AcDbXrecord
 90
   990106
  3

 60
     0
 61
     0
 62
     1
 63
     3
 64
     0
 65
     0
 66
     0
 67
     3
 68
     1
 69
     0
 70
     0
 71
     0
 72
     0
 40
0.0
170
     0
340
7CA9
  0
DICTIONARY
  5
996E
102
{ACAD_REACTORS
330
C
102
}
330
C
100
AcDbDictionary
  3
CEPSNTYPE
350
9978
  3
DIMSTYLEDATA
350
997C
  3
FINGERPRINTGUID
350
9979
  3
HYPERLINKBASE
350
9971
  3
INSUNITS
350
9977
  3
LAYOUTDICT
350
9973
  3
LWETCUNION
350
9976
  3
PLOTSETDICT
350
9974
  3
PLOTSTYLNAMDICT
350
9975
  3
PSVPSCALE
350
997B
  3
PUCSBASE
350
997F
  3
PUCSORGBACK
350
9985
  3
PUCSORGBOTTOM
350
9981
  3
PUCSORGFRONT
350
9984
  3
PUCSORGLEFT
350
9982
  3
PUCSORGRIGHT
350
9983
  3
PUCSORGTOP
350
9980
  3
PUCSORTHOREF
350
997D
  3
PUCSORTHOVIEW
350
997E
  3
STYLESHEET
350
9972
  3
TSTACKALIGN
350
996F
  3
TSTACKSIZE
350
9970
  3
UCSBASE
350
9988
  3
UCSORGBACK
350
998E
  3
UCSORGBOTTOM
350
998A
  3
UCSORGFRONT
350
998D
  3
UCSORGLEFT
350
998B
  3
UCSORGRIGHT
350
998C
  3
UCSORGTOP
350
9989
  3
UCSORTHOREF
350
9986
  3
UCSORTHOVIEW
350
9987
  3
VERSIONGUID
350
997A
  0
DICTIONARY
  5
5697
102
{ACAD_REACTORS
330
C
102
}
330
C
100
AcDbDictionary
  3
DIMASSOC
350
5698
  0
XRECORD
  5
9990
102
{ACAD_REACTORS
330
178
102
}
330
178
100
AcDbXrecord
340
1E
  0
XRECORD
  5
998F
102
{ACAD_REACTORS
330
17A
102
}
330
17A
100
AcDbXrecord
340
1A
  0
MLINESTYLE
  5
17
102
{ACAD_REACTORS
330
16
102
}
330
16
100
AcDbMlineStyle
  2
STANDARD
 70
     0
  3

 62
   256
 51
90.0
 52
90.0
 71
     2
 49
0.5
 62
   256
  6
BYLAYER
 49
-0.5
 62
   256
  6
BYLAYER
  0
ACDBPLACEHOLDER
  5
F
102
{ACAD_REACTORS
330
E
102
}
330
E
100
AcDbPlaceHolder
280
     0
  0
XRECORD
  5
9978
102
{ACAD_REACTORS
330
996E
102
}
330
996E
100
AcDbXrecord
 90
        0
  0
XRECORD
  5
997C
102
{ACAD_REACTORS
330
996E
102
}
330
996E
100
AcDbXrecord
1000
DSTYLE
1002
{
1070
    79
 70
     3
1070
   341
340
3B2
1070
   342
340
3B2
1002
}
  0
XRECORD
  5
9979
102
{ACAD_REACTORS
330
996E
102
}
330
996E
100
AcDbXrecord
  1

  0
XRECORD
  5
9971
102
{ACAD_REACTORS
330
996E
102
}
330
996E
100
AcDbXrecord
  1

  0
XRECORD
  5
9977
102
{ACAD_REACTORS
330
996E
102
}
330
996E
100
AcDbXrecord
 90
        0
  0
XRECORD
  5
9973
102
{ACAD_REACTORS
330
996E
102
}
330
996E
100
AcDbXrecord
340
19
  0
XRECORD
  5
9976
102
{ACAD_REACTORS
330
996E
102
}
330
996E
100
AcDbXrecord
 90
    10781
  0
XRECORD
  5
9974
102
{ACAD_REACTORS
330
996E
102
}
330
996E
100
AcDbXrecord
340
18
  0
XRECORD
  5
9975
102
{ACAD_REACTORS
330
996E
102
}
330
996E
100
AcDbXrecord
340
E
  0
XRECORD
  5
997B
102
{ACAD_REACTORS
330
996E
102
}
330
996E
100
AcDbXrecord
 40
0.0
  0
XRECORD
  5
997F
102
{ACAD_REACTORS
330
996E
102
}
330
996E
100
AcDbXrecord
340
0
  0
XRECORD
  5
9985
102
{ACAD_REACTORS
330
996E
102
}
330
996E
100
AcDbXrecord
 10
0.0
 20
0.0
 30
0.0
  0
XRECORD
  5
9981
102
{ACAD_REACTORS
330
996E
102
}
330
996E
100
AcDbXrecord
 10
0.0
 20
0.0
 30
0.0
  0
XRECORD
  5
9984
102
{ACAD_REACTORS
330
996E
102
}
330
996E
100
AcDbXrecord
 10
0.0
 20
0.0
 30
0.0
  0
XRECORD
  5
9982
102
{ACAD_REACTORS
330
996E
102
}
330
996E
100
AcDbXrecord
 10
0.0
 20
0.0
 30
0.0
  0
XRECORD
  5
9983
102
{ACAD_REACTORS
330
996E
102
}
330
996E
100
AcDbXrecord
 10
0.0
 20
0.0
 30
0.0
  0
XRECORD
  5
9980
102
{ACAD_REACTORS
330
996E
102
}
330
996E
100
AcDbXrecord
 10
0.0
 20
0.0
 30
0.0
  0
XRECORD
  5
997D
102
{ACAD_REACTORS
330
996E
102
}
330
996E
100
AcDbXrecord
340
0
  0
XRECORD
  5
997E
102
{ACAD_REACTORS
330
996E
102
}
330
996E
100
AcDbXrecord
 70
     0
  0
XRECORD
  5
9972
102
{ACAD_REACTORS
330
996E
102
}
330
996E
100
AcDbXrecord
  1
KIKI.ctb
  0
XRECORD
  5
996F
102
{ACAD_REACTORS
330
996E
102
}
330
996E
100
AcDbXrecord
 90
        1
  0
XRECORD
  5
9970
102
{ACAD_REACTORS
330
996E
102
}
330
996E
100
AcDbXrecord
 90
       70
  0
XRECORD
  5
9988
102
{ACAD_REACTORS
330
996E
102
}
330
996E
100
AcDbXrecord
340
0
  0
XRECORD
  5
998E
102
{ACAD_REACTORS
330
996E
102
}
330
996E
100
AcDbXrecord
 10
0.0
 20
0.0
 30
0.0
  0
XRECORD
  5
998A
102
{ACAD_REACTORS
330
996E
102
}
330
996E
100
AcDbXrecord
 10
0.0
 20
0.0
 30
0.0
  0
XRECORD
  5
998D
102
{ACAD_REACTORS
330
996E
102
}
330
996E
100
AcDbXrecord
 10
0.0
 20
0.0
 30
0.0
  0
XRECORD
  5
998B
102
{ACAD_REACTORS
330
996E
102
}
330
996E
100
AcDbXrecord
 10
0.0
 20
0.0
 30
0.0
  0
XRECORD
  5
998C
102
{ACAD_REACTORS
330
996E
102
}
330
996E
100
AcDbXrecord
 10
0.0
 20
0.0
 30
0.0
  0
XRECORD
  5
9989
102
{ACAD_REACTORS
330
996E
102
}
330
996E
100
AcDbXrecord
 10
0.0
 20
0.0
 30
0.0
  0
XRECORD
  5
9986
102
{ACAD_REACTORS
330
996E
102
}
330
996E
100
AcDbXrecord
340
0
  0
XRECORD
  5
9987
102
{ACAD_REACTORS
330
996E
102
}
330
996E
100
AcDbXrecord
 70
     0
  0
XRECORD
  5
997A
102
{ACAD_REACTORS
330
996E
102
}
330
996E
100
AcDbXrecord
  1
{B1F79C2F-352B-4A98-A732-5FC986C83C6E}
  0
DICTIONARYVAR
  5
5698
102
{ACAD_REACTORS
330
5697
102
}
330
5697
100
DictionaryVariables
280
     0
  1
1
  0
ENDSEC
  0
EOF
